Tags
Language
Tags

Deep Purple - Listen, Learn, Read On (2002) [6CD Box Set]

Posted By: v3122
Deep Purple - Listen, Learn, Read On (2002) [6CD Box Set]

Deep Purple - Listen, Learn, Read On (2002)
EAC | Flac(Image) + Cue + Log & MP3 CBR 320Kbps
EMI | ~ 2366 or 1028 Mb | no Scans
Hard Rock, Classic Rock, Prog Rock

Amid the ever-growing tide of Deep Purple box sets (this was at least their eighth in nine years), Listen Learn Read On stands alone, not only as the ultimate round-up of the band's greatest moments, but also as the answer to more collectors' dreams than most collectors were even aware they'd had. You want Deep Purple's long-legendary, but forever unavailable BBC sessions? They're here. You want the killer live encores that other albums omitted? They're here. You want a solid introduction to the band members' pre-Purple passages? They're here. And, of course, you want the hits. So they're here as well.

Superficial similarities to the 2001 Rhino box can be dismissed immediately. Six CDs and a 120-page booklet eschew the full 30-plus year career summary approach that marked that set. Rather, Listen Learn Read On concentrates wholly on the band's original lifespan, prior to their mid-'70s break-up. That this covers each of the group's most vital incarnations is self-evident – no matter that the reformed Deep Purple has now more than doubled its predecessor's existence – still, the so-called Marks I and II and Mark III created the band's reputation, with II and III, at least, revitalized every time the latest line-up plays another show.

Of course the approach isn't perfect. No matter how well-loved the David Coverdale era of the band may have been, there is no escaping the fact that disc six, covering Stormbringer and Come Taste The Band, is a distinct departure from the highs of the earlier eras. Hitherto, Deep Purple were helping blueprint all that hard rock and metal would grow up to become. Those last couple of albums not only lost that particular focus, they also lost all the wit and wisdom that was once the band's hallmark. It gets pretty grueling in the dog days of that final disc.

Spin back to those that went before, however, and it doesn't even matter that it's once more around for "Smoke On The Water," "Child In Time," "Strange Kind Of Woman," "Space Trucking," and "Mistreated." In each and almost every instance, vaults have been scoured, archives have been emptied, and there's a surprise around every corner – a quadrophonic mix here, a BBC session there and, in the case of "Space Trucking," a previously unissued 30-minute live version that makes every other rendition sound anemic.

Familiar friends rub shoulders with perfect strangers – the Fireball outtake, "Fools," is the only wholly unheard song on the set, but almost half the 71 tracks here have either never seen legal daylight in the past, or are making their CD debut. And, of the rest – well, you said you wanted the hits. You just didn't say exactly how you wanted them.

by Dave Thompson, allmusic
Deep Purple - Listen, Learn, Read On (2002) [6CD Box Set]

Deep Purple - Listen, Learn, Read On (2002):

Tracklist CD1 - Pre Purple and Mk 1:

1. Keep a Knockin (Penniman) 2:34
The Outlaws [feat. Ritchie Blackmore]
2. You'll Never Stop Me Loving You (Roger Lewis) 3:28
M.I. Five [feat. Rod Evans, Ian Paice]'
3. Only Time Will Tell (Lewis) 2:11
M.I. Five [feat. Evans, Paice]
4. Send For that Girl (Rowland Barter) 2:42
Johnny Kid & the Pirates [feat. Nick Simper]
5. Porcupine Juice (Gus Dudgeon/Lord) 3:13
Santa Barbara Machine Head [feat. Jon Lord]
6. I Can See Through You (Roger Glover) 3:23
Episode Six [feat. Ian Gillan, Roger Glover]
7. Mr. Universe (Hal David/Gillan) 4:17
Episode Six [feat. Gillan, Glover]
8. Medusa (Hughes) 5:40
Trapeze [feat. Glenn Hughes]
9. Does Anybody Really Know What Time It Is? (Robert Lamm) 3:17
The Government [feat. David Coverdale]
10. See My People Come Together (Bolin) 6:07
Zephyr [feat. Tommy Bolin]
11. Hush (South) 4:13
12. Help (Lennon–McCartney) 6:00
13. Shield (Lord/Blackmore/Evans) 6:01
14. Listen, Learn, Read On (Blackmore/Lord/Evans/Paice) 4:00
15. Kentucky Woman (Neil Diamond) 4:41
16. Playground (Blackmore/Lord/Simper/Paice) 4:31 (The Book of Taliesyn out-take)
17. Emmaretta (Blackmore/Lord/Evans) 2:58 (single A-side)
18. The Bird Has Flown (Blackmore/Lord/Evans) 2:51 (US single B-side)
Лог EAC

Exact Audio Copy V1.0 beta 3 from 29. August 2011

EAC extraction logfile from 20. February 2012, 17:39

Deep Purple / Listen Learn, Read On - Purple Serious Ravers - CD 1

Used drive : HL-DT-STDVD+-RW GS30N Adapter: 1 ID: 0

Read mode : Secure
Utilize accurate stream : Yes
Defeat audio cache : Yes
Make use of C2 pointers : No

Read offset correction : 667
Overread into Lead-In and Lead-Out : No
Fill up missing offset samples with silence : Yes
Delete leading and trailing silent blocks : No
Null samples used in CRC calculations : Yes
Used interface : Native Win32 interface for Win NT & 2000
Gap handling : Appended to previous track

Used output format : User Defined Encoder
Selected bitrate : 1024 kBit/s
Quality : High
Add ID3 tag : No
Command line compressor : C:\Program Files (x86)\Exact Audio Copy\Flac\flac.exe
Additional command line options : -8 -V -T "ARTIST=%artist%" -T "TITLE=%title%" -T "ALBUM=%albumtitle%" -T "DATE=%year%" -T "TRACKNUMBER=%tracknr%" -T "GENRE=%genre%" -T "PERFORMER=%albuminterpret%" -T "COMPOSER=%composer%" %haslyrics%–tag-from-file=LYRICS="%lyricsfile%"%haslyrics% -T "ALBUMARTIST=%albumartist%" -T "DISCNUMBER=%cdnumber%" -T "TOTALDISCS=%totalcds%" -T "TOTALTRACKS=%numtracks%" -T "COMMENT=%comment%" %source% -o %dest%


TOC of the extracted CD

Track | Start | Length | Start sector | End sector
––––––––––––––––––––––––––––-
1 | 0:00.00 | 2:37.37 | 0 | 11811
2 | 2:37.37 | 3:31.58 | 11812 | 27694
3 | 6:09.20 | 2:14.35 | 27695 | 37779
4 | 8:23.55 | 2:46.07 | 37780 | 50236
5 | 11:09.62 | 3:16.38 | 50237 | 64974
6 | 14:26.25 | 3:26.07 | 64975 | 80431
7 | 17:52.32 | 4:20.18 | 80432 | 99949
8 | 22:12.50 | 5:42.67 | 99950 | 125666
9 | 27:55.42 | 3:19.55 | 125667 | 140646
10 | 31:15.22 | 6:09.20 | 140647 | 168341
11 | 37:24.42 | 4:16.05 | 168342 | 187546
12 | 41:40.47 | 6:03.18 | 187547 | 214789
13 | 47:43.65 | 6:03.65 | 214790 | 242079
14 | 53:47.55 | 4:03.42 | 242080 | 260346
15 | 57:51.22 | 4:43.43 | 260347 | 281614
16 | 62:34.65 | 4:33.50 | 281615 | 302139
17 | 67:08.40 | 3:00.32 | 302140 | 315671
18 | 70:08.72 | 2:52.20 | 315672 | 328591


Track 1

Filename S:\Deep Purple - Listen, Learn, Read On (6CD Box Set)\Disc 1\01 Keep A Knockin' (Outlaws).wav

Pre-gap length 0:00:02.00

Peak level 99.1 %
Extraction speed 2.6 X
Track quality 100.0 %
Test CRC 2E987898
Copy CRC 2E987898
Accurately ripped (confidence 20) [C4E02E01] (AR v1)
Copy OK

Track 2

Filename S:\Deep Purple - Listen, Learn, Read On (6CD Box Set)\Disc 1\02 You'll Never Stop Me Loving You (M.I.5).wav

Pre-gap length 0:00:01.86

Peak level 99.2 %
Extraction speed 2.8 X
Track quality 100.0 %
Test CRC F0BFDA0F
Copy CRC F0BFDA0F
Accurately ripped (confidence 20) [4C016E24] (AR v1)
Copy OK

Track 3

Filename S:\Deep Purple - Listen, Learn, Read On (6CD Box Set)\Disc 1\03 Only Time Will Tell (M.I.5).wav

Pre-gap length 0:00:02.26

Peak level 99.1 %
Extraction speed 2.1 X
Track quality 99.9 %
Test CRC 34A286FA
Copy CRC 34A286FA
Accurately ripped (confidence 20) [B3B912BC] (AR v1)
Copy OK

Track 4

Filename S:\Deep Purple - Listen, Learn, Read On (6CD Box Set)\Disc 1\04 Send For That Girl (Johnny Kidd & The Pirates).wav

Pre-gap length 0:00:02.24

Peak level 94.1 %
Extraction speed 3.2 X
Track quality 100.0 %
Test CRC C0F60217
Copy CRC C0F60217
Accurately ripped (confidence 20) [00E919D0] (AR v1)
Copy OK

Track 5

Filename S:\Deep Purple - Listen, Learn, Read On (6CD Box Set)\Disc 1\05 Porcupine Juice (Santa Barbara Machine Head).wav

Pre-gap length 0:00:02.82

Peak level 99.1 %
Extraction speed 2.7 X
Track quality 99.9 %
Test CRC 3FA2616E
Copy CRC 3FA2616E
Accurately ripped (confidence 20) [5F1FBB7F] (AR v1)
Copy OK

Track 6

Filename S:\Deep Purple - Listen, Learn, Read On (6CD Box Set)\Disc 1\06 I Can See Through You (Episode Six).wav

Pre-gap length 0:00:01.86

Peak level 98.5 %
Extraction speed 3.6 X
Track quality 100.0 %
Test CRC B8E74ABE
Copy CRC B8E74ABE
Accurately ripped (confidence 20) [B70CE8E3] (AR v1)
Copy OK

Track 7

Filename S:\Deep Purple - Listen, Learn, Read On (6CD Box Set)\Disc 1\07 Mr. Universe (Episode Six).wav

Pre-gap length 0:00:01.56

Peak level 99.1 %
Extraction speed 3.3 X
Track quality 99.9 %
Test CRC CF699235
Copy CRC CF699235
Accurately ripped (confidence 20) [C6FBCF8B] (AR v1)
Copy OK

Track 8

Filename S:\Deep Purple - Listen, Learn, Read On (6CD Box Set)\Disc 1\08 Medusa (Trapeze).wav

Pre-gap length 0:00:01.70

Peak level 99.2 %
Extraction speed 4.3 X
Track quality 100.0 %
Test CRC D51E525F
Copy CRC D51E525F
Accurately ripped (confidence 20) [BFC504F9] (AR v1)
Copy OK

Track 9

Filename S:\Deep Purple - Listen, Learn, Read On (6CD Box Set)\Disc 1\09 Does Anybody Really Know What Time It Is (The Government).wav

Pre-gap length 0:00:01.69

Peak level 99.1 %
Extraction speed 4.1 X
Track quality 100.0 %
Test CRC 3BA55497
Copy CRC 3BA55497
Accurately ripped (confidence 20) [647999BA] (AR v1)
Copy OK

Track 10

Filename S:\Deep Purple - Listen, Learn, Read On (6CD Box Set)\Disc 1\10 See My People Come Together (Zephyr).wav

Pre-gap length 0:00:01.60

Peak level 99.2 %
Extraction speed 4.7 X
Track quality 100.0 %
Test CRC 2141DE43
Copy CRC 2141DE43
Accurately ripped (confidence 20) [35C4BC51] (AR v1)
Copy OK

Track 11

Filename S:\Deep Purple - Listen, Learn, Read On (6CD Box Set)\Disc 1\11 Hush.wav

Pre-gap length 0:00:01.53

Peak level 99.0 %
Extraction speed 4.7 X
Track quality 100.0 %
Test CRC BA9541C2
Copy CRC BA9541C2
Accurately ripped (confidence 20) [A007E7E8] (AR v1)
Copy OK

Track 12

Filename S:\Deep Purple - Listen, Learn, Read On (6CD Box Set)\Disc 1\12 Help.wav

Pre-gap length 0:00:01.96

Peak level 98.6 %
Extraction speed 5.1 X
Track quality 100.0 %
Test CRC 863E0744
Copy CRC 863E0744
Accurately ripped (confidence 20) [F8589850] (AR v1)
Copy OK

Track 13

Filename S:\Deep Purple - Listen, Learn, Read On (6CD Box Set)\Disc 1\13 Shield.wav

Pre-gap length 0:00:02.20

Peak level 99.2 %
Extraction speed 4.5 X
Track quality 99.9 %
Test CRC 0B220182
Copy CRC 0B220182
Accurately ripped (confidence 20) [B380326B] (AR v1)
Copy OK

Track 14

Filename S:\Deep Purple - Listen, Learn, Read On (6CD Box Set)\Disc 1\14 Listen Learn Read On.wav

Pre-gap length 0:00:01.24

Peak level 99.2 %
Extraction speed 4.9 X
Track quality 100.0 %
Test CRC 8080FD81
Copy CRC 8080FD81
Accurately ripped (confidence 19) [F16845B7] (AR v1)
Copy OK

Track 15

Filename S:\Deep Purple - Listen, Learn, Read On (6CD Box Set)\Disc 1\15 Kentucky Woman.wav

Pre-gap length 0:00:02.22

Peak level 99.1 %
Extraction speed 5.5 X
Track quality 100.0 %
Test CRC 388E8C23
Copy CRC 388E8C23
Accurately ripped (confidence 20) [5E174D42] (AR v1)
Copy OK

Track 16

Filename S:\Deep Purple - Listen, Learn, Read On (6CD Box Set)\Disc 1\16 Playground.wav

Pre-gap length 0:00:01.26

Peak level 99.1 %
Extraction speed 5.6 X
Track quality 100.0 %
Test CRC 3AF2278A
Copy CRC 3AF2278A
Accurately ripped (confidence 20) [3480C426] (AR v1)
Copy OK

Track 17

Filename S:\Deep Purple - Listen, Learn, Read On (6CD Box Set)\Disc 1\17 Emmaretta.wav

Pre-gap length 0:00:01.66

Peak level 98.3 %
Extraction speed 3.8 X
Track quality 100.0 %
Test CRC 321179A5
Copy CRC 321179A5
Accurately ripped (confidence 19) [97F8F5BC] (AR v1)
Copy OK

Track 18

Filename S:\Deep Purple - Listen, Learn, Read On (6CD Box Set)\Disc 1\18 This Bird Has Flown.wav

Pre-gap length 0:00:01.02

Peak level 83.8 %
Extraction speed 2.8 X
Track quality 100.0 %
Test CRC 0B46CB8D
Copy CRC 0B46CB8D
Accurately ripped (confidence 17) [E6223027] (AR v1)
Copy OK


All tracks accurately ripped

No errors occurred

End of status report

==== Log checksum 73E04E8B92BA819667F86F8D3D4CBBF33DC603CA43488EC7267D341855F46FEE ====


[CUETools log; Date: 10.03.2020 10:42:55; Version: 2.1.4]
[AccurateRip ID: 002cdda0-026ad3b7-fd111d12] found.
Track [ CRC | V2 ] Status
01 [c4e02e01|5cb5f036] (22+26/48) Accurately ripped
02 [4c016e24|e5e3115f] (22+26/48) Accurately ripped
03 [b3b912bc|4627e68e] (22+26/48) Accurately ripped
04 [00e919d0|35b105de] (22+26/48) Accurately ripped
05 [5f1fbb7f|f42ee00b] (22+26/48) Accurately ripped
06 [b70ce8e3|4deac6e9] (22+26/48) Accurately ripped
07 [c6fbcf8b|5ca9cbd2] (22+26/48) Accurately ripped
08 [bfc504f9|69d2489a] (22+26/48) Accurately ripped
09 [647999ba|57f649ce] (22+26/48) Accurately ripped
10 [35c4bc51|7de635c2] (22+26/48) Accurately ripped
11 [a007e7e8|44b61bfd] (22+26/48) Accurately ripped
12 [f8589850|46ad5598] (22+26/48) Accurately ripped
13 [b380326b|5b9e3e93] (22+26/48) Accurately ripped
14 [f16845b7|8a27f8b1] (21+26/47) Accurately ripped
15 [5e174d42|7193ab1d] (22+26/48) Accurately ripped
16 [3480c426|648a5bef] (21+26/47) Accurately ripped
17 [97f8f5bc|8c4966fb] (21+26/47) Accurately ripped
18 [e6223027|0fc2e066] (18+23/41) Accurately ripped

Track Peak [ CRC32 ] [W/O NULL] [ LOG ]
– 99,2 [58203404] [9682AD56]
01 99,1 [2E987898] [44822086] CRC32
02 99,1 [F0BFDA0F] [2D4E5974] CRC32
03 99,1 [34A286FA] [5633EE28] CRC32
04 94,1 [C0F60217] [AB9F2A21] CRC32
05 99,1 [3FA2616E] [649BF028] CRC32
06 98,5 [B8E74ABE] [94BD338C] CRC32
07 99,1 [CF699235] [43A9BAF0] CRC32
08 99,2 [D51E525F] [D3FB9417] CRC32
09 99,1 [3BA55497] [EC45DADD] CRC32
10 99,2 [2141DE43] [F1C79ECB] CRC32
11 99,0 [BA9541C2] [5175189B] CRC32
12 98,6 [863E0744] [4AB383AF] CRC32
13 99,2 [0B220182] [0412E239] CRC32
14 99,2 [8080FD81] [F8E77690] CRC32
15 99,1 [388E8C23] [83DD9825] CRC32
16 99,1 [3AF2278A] [DB6C4143] CRC32
17 98,3 [321179A5] [D814BA97] CRC32
18 83,8 [0B46CB8D] [7173CC3B] CRC32


Tracklist CD2 - Mk 1 and Mk 2:

1. Why Didn't Rosemary (Blackmore/Lord/Evans/Simper/Paice) 5:02
2. Hallelujah (Greenaway/Cook) 3:40 (single A-side)
3. Ricochet 3:04 (BBC session Aug 11 1969)
4. The Bird Has Flown (Blackmore/Lord/Evans) 3:03 (BBC session)
5. Hush (South) 4:16 (Live, Royal Albert Hall, 24 Sep 1969)
6. Concerto Third Movement reprise (Lord) 5:36 (Live, Royal Albert Hall)
7. Wring that Neck (Lord/Blackmore/Simper/Paice) 20:43 (Live, Montreux Casino, Oct 4 1969)
8. Jam Stew 3:54 (BBC session Oct 31, 1969)
9. Speed King 3:23 (BBC session)
10. Cry Free 3:08 (Deep Purple in Rock out-take)
11. Hard Lovin' Man 4:12 (BBC session Apr 21 1970)
12. Bloodsucker 3:14 (BBC session)
13. Living Wreck 2:58 (BBC session)
14. Studio Chat / Jam 0:40
15. Flight of the Rat 7:53 (95 remix)

Exact Audio Copy V1.0 beta 3 from 29. August 2011

EAC extraction logfile from 20. February 2012, 17:38

Deep Purple / Listen Learn Read On - Disc 2: Mk 1 and Mk 2

Used drive : HL-DT-STRW/DVD GCC-4241N Adapter: 1 ID: 0

Read mode : Secure
Utilize accurate stream : Yes
Defeat audio cache : Yes
Make use of C2 pointers : No

Read offset correction : 102
Overread into Lead-In and Lead-Out : No
Fill up missing offset samples with silence : Yes
Delete leading and trailing silent blocks : No
Null samples used in CRC calculations : Yes
Used interface : Native Win32 interface for Win NT & 2000
Gap handling : Appended to previous track

Used output format : User Defined Encoder
Selected bitrate : 1024 kBit/s
Quality : High
Add ID3 tag : No
Command line compressor : C:\Program Files\Exact Audio Copy\Flac\flac.exe
Additional command line options : -8 -V -T "ARTIST=%artist%" -T "TITLE=%title%" -T "ALBUM=%albumtitle%" -T "DATE=%year%" -T "TRACKNUMBER=%tracknr%" -T "GENRE=%genre%" -T "PERFORMER=%albuminterpret%" -T "COMPOSER=%composer%" %haslyrics%–tag-from-file=LYRICS="%lyricsfile%"%haslyrics% -T "ALBUMARTIST=%albumartist%" -T "DISCNUMBER=%cdnumber%" -T "TOTALDISCS=%totalcds%" -T "TOTALTRACKS=%numtracks%" -T "COMMENT=%comment%" %source% -o %dest%


TOC of the extracted CD

Track | Start | Length | Start sector | End sector
––––––––––––––––––––––––––––-
1 | 0:00.00 | 5:04.65 | 0 | 22864
2 | 5:04.65 | 3:42.30 | 22865 | 39544
3 | 8:47.20 | 3:07.32 | 39545 | 53601
4 | 11:54.52 | 3:05.60 | 53602 | 67536
5 | 15:00.37 | 4:20.40 | 67537 | 87076
6 | 19:21.02 | 5:37.73 | 87077 | 112424
7 | 24:59.00 | 20:46.42 | 112425 | 205916
8 | 45:45.42 | 3:56.65 | 205917 | 223681
9 | 49:42.32 | 3:26.00 | 223682 | 239131
10 | 53:08.32 | 3:11.30 | 239132 | 253486
11 | 56:19.62 | 4:14.10 | 253487 | 272546
12 | 60:33.72 | 3:18.05 | 272547 | 287401
13 | 63:52.02 | 2:58.53 | 287402 | 300804
14 | 66:50.55 | 0:41.22 | 300805 | 303901
15 | 67:32.02 | 7:54.10 | 303902 | 339461


Track 1

Filename S:\Deep Purple - Listen, Learn, Read On (6CD Box Set)\Disc 2\01 - Deep Purple - Why Didn't Rosemary.wav

Pre-gap length 0:00:02.00

Peak level 88.1 %
Extraction speed 2.6 X
Track quality 100.0 %
Test CRC 29EC1CFF
Copy CRC 29EC1CFF
Accurately ripped (confidence 20) [28D06997] (AR v1)
Copy OK

Track 2

Filename S:\Deep Purple - Listen, Learn, Read On (6CD Box Set)\Disc 2\02 - Deep Purple - Hallelujah.wav

Pre-gap length 0:00:01.40

Peak level 97.5 %
Extraction speed 2.4 X
Track quality 99.9 %
Test CRC 2A7825B8
Copy CRC 2A7825B8
Accurately ripped (confidence 20) [08720BC3] (AR v1)
Copy OK

Track 3

Filename S:\Deep Purple - Listen, Learn, Read On (6CD Box Set)\Disc 2\03 - Deep Purple - Ricochet.wav

Pre-gap length 0:00:01.04

Peak level 95.5 %
Extraction speed 2.8 X
Track quality 100.0 %
Test CRC DBD94BEF
Copy CRC DBD94BEF
Accurately ripped (confidence 20) [721E9F56] (AR v1)
Copy OK

Track 4

Filename S:\Deep Purple - Listen, Learn, Read On (6CD Box Set)\Disc 2\04 - Deep Purple - The Bird Has Flown.wav

Pre-gap length 0:00:01.93

Peak level 93.6 %
Extraction speed 3.0 X
Track quality 100.0 %
Test CRC 9F9AD80F
Copy CRC 9F9AD80F
Accurately ripped (confidence 20) [CEA79767] (AR v1)
Copy OK

Track 5

Filename S:\Deep Purple - Listen, Learn, Read On (6CD Box Set)\Disc 2\05 - Deep Purple - Hush.wav

Pre-gap length 0:00:02.00

Peak level 99.9 %
Extraction speed 3.2 X
Track quality 100.0 %
Test CRC 06869FBC
Copy CRC 06869FBC
Accurately ripped (confidence 20) [D67364EB] (AR v1)
Copy OK

Track 6

Filename S:\Deep Purple - Listen, Learn, Read On (6CD Box Set)\Disc 2\06 - Deep Purple - Concerto Third Movement Reprise.wav

Pre-gap length 0:00:03.06

Peak level 99.4 %
Extraction speed 3.3 X
Track quality 99.9 %
Test CRC D2745BAC
Copy CRC D2745BAC
Accurately ripped (confidence 20) [D73FB6E2] (AR v1)
Copy OK

Track 7

Filename S:\Deep Purple - Listen, Learn, Read On (6CD Box Set)\Disc 2\07 - Deep Purple - Wring That Neck.wav

Pre-gap length 0:00:01.26

Peak level 99.2 %
Extraction speed 4.4 X
Track quality 100.0 %
Test CRC 6B9E1DF6
Copy CRC 6B9E1DF6
Accurately ripped (confidence 21) [AE10FB1D] (AR v1)
Copy OK

Track 8

Filename S:\Deep Purple - Listen, Learn, Read On (6CD Box Set)\Disc 2\08 - Deep Purple - Jam Stew.wav

Pre-gap length 0:00:02.62

Peak level 97.6 %
Extraction speed 4.3 X
Track quality 100.0 %
Test CRC 40E05C31
Copy CRC 40E05C31
Accurately ripped (confidence 19) [4A53B6DA] (AR v1)
Copy OK

Track 9

Filename S:\Deep Purple - Listen, Learn, Read On (6CD Box Set)\Disc 2\09 - Deep Purple - Speed King.wav

Pre-gap length 0:00:01.56

Peak level 97.7 %
Extraction speed 4.4 X
Track quality 100.0 %
Test CRC D069CB54
Copy CRC D069CB54
Accurately ripped (confidence 20) [19116FA0] (AR v1)
Copy OK

Track 10

Filename S:\Deep Purple - Listen, Learn, Read On (6CD Box Set)\Disc 2\10 - Deep Purple - Cry Free.wav

Pre-gap length 0:00:01.49

Peak level 98.6 %
Extraction speed 4.4 X
Track quality 100.0 %
Test CRC E8C8F6B1
Copy CRC E8C8F6B1
Accurately ripped (confidence 20) [A54456FE] (AR v1)
Copy OK

Track 11

Filename S:\Deep Purple - Listen, Learn, Read On (6CD Box Set)\Disc 2\11 - Deep Purple - Hard Lovin' Man.wav

Pre-gap length 0:00:02.13

Peak level 99.0 %
Extraction speed 4.5 X
Track quality 100.0 %
Test CRC 6BC474B3
Copy CRC 6BC474B3
Accurately ripped (confidence 20) [A5CB922E] (AR v1)
Copy OK

Track 12

Filename S:\Deep Purple - Listen, Learn, Read On (6CD Box Set)\Disc 2\12 - Deep Purple - Bloodsucker.wav

Pre-gap length 0:00:01.29

Peak level 99.1 %
Extraction speed 4.6 X
Track quality 100.0 %
Test CRC A721659E
Copy CRC A721659E
Accurately ripped (confidence 20) [3EECF88F] (AR v1)
Copy OK

Track 13

Filename S:\Deep Purple - Listen, Learn, Read On (6CD Box Set)\Disc 2\13 - Deep Purple - Living Wreck.wav

Pre-gap length 0:00:02.80

Peak level 99.1 %
Extraction speed 4.6 X
Track quality 100.0 %
Test CRC 48822627
Copy CRC 48822627
Accurately ripped (confidence 20) [B211BF17] (AR v1)
Copy OK

Track 14

Filename S:\Deep Purple - Listen, Learn, Read On (6CD Box Set)\Disc 2\14 - Studio Chat - Jam.wav

Pre-gap length 0:00:01.40

Peak level 98.8 %
Extraction speed 2.9 X
Track quality 100.0 %
Test CRC 31A2597F
Copy CRC 31A2597F
Accurately ripped (confidence 19) [F5955C8F] (AR v1)
Copy OK

Track 15

Filename S:\Deep Purple - Listen, Learn, Read On (6CD Box Set)\Disc 2\15 - Deep Purple - Flight Of The Rat.wav

Peak level 100.0 %
Extraction speed 5.3 X
Track quality 100.0 %
Test CRC 3E3E6912
Copy CRC 3E3E6912
Accurately ripped (confidence 18) [C05AFC3C] (AR v1)
Copy OK


All tracks accurately ripped

No errors occurred

End of status report

==== Log checksum 7EC2108C51DDB58A717D1D5E1B99542867506B9134B34ECF3CD6228B1535002E ====


[CUETools log; Date: 10.03.2020 10:46:29; Version: 2.1.4]
[AccurateRip ID: 002ade2b-01e9692d-c411ae0f] found.
Track [ CRC | V2 ] Status
01 [28d06997|9b12a0d7] (22+25/47) Accurately ripped
02 [08720bc3|cd70f205] (23+25/48) Accurately ripped
03 [721e9f56|e09a18f6] (23+26/49) Accurately ripped
04 [cea79767|0b67407f] (23+26/49) Accurately ripped
05 [d67364eb|501680cf] (23+25/48) Accurately ripped
06 [d73fb6e2|4a27f4a6] (22+25/47) Accurately ripped
07 [ae10fb1d|24ab729b] (23+25/48) Accurately ripped
08 [4a53b6da|d2da9f7f] (22+26/48) Accurately ripped
09 [19116fa0|2ecec8fd] (22+26/48) Accurately ripped
10 [a54456fe|39a0b09b] (23+25/48) Accurately ripped
11 [a5cb922e|cb75f65a] (22+26/48) Accurately ripped
12 [3eecf88f|ca552b90] (22+26/48) Accurately ripped
13 [b211bf17|a7844798] (22+26/48) Accurately ripped
14 [f5955c8f|bfab1224] (21+25/46) Accurately ripped
15 [c05afc3c|f2f57ec6] (20+23/43) Accurately ripped

Track Peak [ CRC32 ] [W/O NULL] [ LOG ]
– 100,0 [A1D3FDB1] [E9F46185]
01 88,1 [29EC1CFF] [EA773250] CRC32
02 97,5 [2A7825B8] [A9E8B883] CRC32
03 95,5 [DBD94BEF] [87D0E8B9] CRC32
04 93,6 [9F9AD80F] [9E612488] CRC32
05 99,9 [06869FBC] [C7B764AA] CRC32
06 99,4 [D2745BAC] [5F9F264C] CRC32
07 99,2 [6B9E1DF6] [922072CE] CRC32
08 97,6 [40E05C31] [E112C1CE] CRC32
09 97,7 [D069CB54] [47A0EB59] CRC32
10 98,6 [E8C8F6B1] [9FF79FDC] CRC32
11 99,0 [6BC474B3] [F9D3ABA1] CRC32
12 99,1 [A721659E] [5A1B898F] CRC32
13 99,1 [48822627] [4AC3C9F1] CRC32
14 98,8 [31A2597F] [2A33A07C] CRC32
15 100,0 [3E3E6912] [AAC41822] CRC32


Tracklist CD3 - Mk 2:

1. Mandrake Root (Blackmore/Evans) 30:02 (Live, Stockholm, Nov 12, 1970)
2. Grabsplatter 4:30 (BBC session Sep 23 1970)
3. Child in Time 10:47 (BBC session)
4. Jon Lord Interview 1:35
5. Black Night 3:28 (BBC session)
6. Into the Fire 3:48 (BBC session)
7. Fools 5:19
8. Fireball 3:23
9. No One Came 6:24
10. Demon's Eye 6:08 (96 remix)

Exact Audio Copy V1.0 beta 3 from 29. August 2011

EAC extraction logfile from 20. February 2012, 19:37

Deep Purpl / Listen, Learn, Read On - CD 3 MK2

Used drive : HL-DT-STDVD+-RW GS30N Adapter: 1 ID: 0

Read mode : Secure
Utilize accurate stream : Yes
Defeat audio cache : Yes
Make use of C2 pointers : No

Read offset correction : 667
Overread into Lead-In and Lead-Out : No
Fill up missing offset samples with silence : Yes
Delete leading and trailing silent blocks : No
Null samples used in CRC calculations : Yes
Used interface : Native Win32 interface for Win NT & 2000
Gap handling : Appended to previous track

Used output format : User Defined Encoder
Selected bitrate : 1024 kBit/s
Quality : High
Add ID3 tag : No
Command line compressor : C:\Program Files (x86)\Exact Audio Copy\Flac\flac.exe
Additional command line options : -8 -V -T "ARTIST=%artist%" -T "TITLE=%title%" -T "ALBUM=%albumtitle%" -T "DATE=%year%" -T "TRACKNUMBER=%tracknr%" -T "GENRE=%genre%" -T "PERFORMER=%albuminterpret%" -T "COMPOSER=%composer%" %haslyrics%–tag-from-file=LYRICS="%lyricsfile%"%haslyrics% -T "ALBUMARTIST=%albumartist%" -T "DISCNUMBER=%cdnumber%" -T "TOTALDISCS=%totalcds%" -T "TOTALTRACKS=%numtracks%" -T "COMMENT=%comment%" %source% -o %dest%


TOC of the extracted CD

Track | Start | Length | Start sector | End sector
––––––––––––––––––––––––––––-
1 | 0:00.00 | 30:05.32 | 0 | 135406
2 | 30:05.32 | 4:34.08 | 135407 | 155964
3 | 34:39.40 | 10:50.27 | 155965 | 204741
4 | 45:29.67 | 1:37.33 | 204742 | 212049
5 | 47:07.25 | 3:29.42 | 212050 | 227766
6 | 50:36.67 | 3:49.55 | 227767 | 244996
7 | 54:26.47 | 5:22.10 | 244997 | 269156
8 | 59:48.57 | 3:25.35 | 269157 | 284566
9 | 63:14.17 | 6:26.30 | 284567 | 313546
10 | 69:40.47 | 6:09.43 | 313547 | 341264


Track 1

Filename S:\Deep Purple - Listen, Learn, Read On (6CD Box Set)\Disc 3\01 Mandrake Root.wav

Pre-gap length 0:00:02.00

Peak level 98.0 %
Extraction speed 4.0 X
Track quality 99.9 %
Test CRC C805340A
Copy CRC C805340A
Accurately ripped (confidence 19) [1B635358] (AR v1)
Copy OK

Track 2

Filename S:\Deep Purple - Listen, Learn, Read On (6CD Box Set)\Disc 3\02 Grabsplatter.wav

Pre-gap length 0:00:01.96

Peak level 98.8 %
Extraction speed 4.5 X
Track quality 100.0 %
Test CRC 1CDCC698
Copy CRC 1CDCC698
Accurately ripped (confidence 20) [3772628E] (AR v1)
Copy OK

Track 3

Filename S:\Deep Purple - Listen, Learn, Read On (6CD Box Set)\Disc 3\03 Child In Time.wav

Pre-gap length 0:00:02.66

Peak level 97.9 %
Extraction speed 4.9 X
Track quality 99.9 %
Test CRC 127DCFA8
Copy CRC 127DCFA8
Accurately ripped (confidence 19) [84C99925] (AR v1)
Copy OK

Track 4

Filename S:\Deep Purple - Listen, Learn, Read On (6CD Box Set)\Disc 3\04 John Lord Interview.wav

Pre-gap length 0:00:02.00

Peak level 44.4 %
Extraction speed 4.2 X
Track quality 100.0 %
Test CRC 2AECCD40
Copy CRC 2AECCD40
Accurately ripped (confidence 19) [8EB9261E] (AR v1)
Copy OK

Track 5

Filename S:\Deep Purple - Listen, Learn, Read On (6CD Box Set)\Disc 3\05 Black Night.wav

Pre-gap length 0:00:01.00

Peak level 98.0 %
Extraction speed 5.1 X
Track quality 100.0 %
Test CRC F0A32859
Copy CRC F0A32859
Accurately ripped (confidence 20) [9B7F9934] (AR v1)
Copy OK

Track 6

Filename S:\Deep Purple - Listen, Learn, Read On (6CD Box Set)\Disc 3\06 Into The Fire.wav

Pre-gap length 0:00:00.73

Peak level 98.0 %
Extraction speed 4.2 X
Track quality 99.9 %
Test CRC BFDF812D
Copy CRC BFDF812D
Accurately ripped (confidence 20) [E8803452] (AR v1)
Copy OK

Track 7

Filename S:\Deep Purple - Listen, Learn, Read On (6CD Box Set)\Disc 3\07 Fools.wav

Pre-gap length 0:00:00.86

Peak level 98.0 %
Extraction speed 5.6 X
Track quality 100.0 %
Test CRC 9AABF829
Copy CRC 9AABF829
Accurately ripped (confidence 19) [19A10BA7] (AR v1)
Copy OK

Track 8

Filename S:\Deep Purple - Listen, Learn, Read On (6CD Box Set)\Disc 3\08 Fireball.wav

Pre-gap length 0:00:01.76

Peak level 84.3 %
Extraction speed 5.3 X
Track quality 100.0 %
Test CRC 04C61B51
Copy CRC 04C61B51
Accurately ripped (confidence 19) [B52233F7] (AR v1)
Copy OK

Track 9

Filename S:\Deep Purple - Listen, Learn, Read On (6CD Box Set)\Disc 3\09 No One Came.wav

Pre-gap length 0:00:01.56

Peak level 96.4 %
Extraction speed 5.2 X
Track quality 99.9 %
Test CRC 7B649D0B
Copy CRC 7B649D0B
Accurately ripped (confidence 18) [0DD4C94A] (AR v1)
Copy OK

Track 10

Filename S:\Deep Purple - Listen, Learn, Read On (6CD Box Set)\Disc 3\10 Demon's Eye.wav

Pre-gap length 0:00:01.73

Peak level 82.8 %
Extraction speed 6.0 X
Track quality 100.0 %
Test CRC 4FCAAD83
Copy CRC 4FCAAD83
Accurately ripped (confidence 16) [353129BC] (AR v1)
Copy OK


All tracks accurately ripped

No errors occurred

End of status report

==== Log checksum 37003C96971EB32E4CF080E63BA9EFD79AE4061C84330FEA714D179A09BEE6BE ====


[CUETools log; Date: 10.03.2020 10:50:03; Version: 2.1.4]
[AccurateRip ID: 002475d8-010806d5-9911c60a] found.
Track [ CRC | V2 ] Status
01 [1b635358|0a56f328] (22+26/48) Accurately ripped
02 [3772628e|93c00f84] (22+28/50) Accurately ripped
03 [84c99925|16aabdbd] (21+28/49) Accurately ripped
04 [8eb9261e|7aae8ed7] (21+27/48) Accurately ripped
05 [9b7f9934|eb3a2d3c] (22+28/50) Accurately ripped
06 [e8803452|2bbb56f1] (22+28/50) Accurately ripped
07 [19a10ba7|b81add95] (21+28/49) Accurately ripped
08 [b52233f7|375e614f] (21+27/48) Accurately ripped
09 [0dd4c94a|2e4778c9] (20+27/47) Accurately ripped
10 [353129bc|d78b70f8] (17+26/43) Accurately ripped

Track Peak [ CRC32 ] [W/O NULL] [ LOG ]
– 98,8 [0733268E] [A71BB116]
01 98,0 [C805340A] [A4CFD47D] CRC32
02 98,8 [1CDCC698] [8C90C468] CRC32
03 97,9 [127DCFA8] [BE078627] CRC32
04 44,4 [2AECCD40] [112532D9] CRC32
05 98,0 [F0A32859] [482C439A] CRC32
06 98,0 [BFDF812D] [83915A19] CRC32
07 97,9 [9AABF829] [B46ECF8D] CRC32
08 84,3 [04C61B51] [2FFFD622] CRC32
09 96,4 [7B649D0B] [3089899B] CRC32
10 82,8 [4FCAAD83] [3E081F04] CRC32


Tracklist CD4 - Mk 2 and Mk 3:

1. No No No 7:16 (Live, Beat Club, German TV Sep 1971)
2. Highway Star 6:08 (Live, Beat Club)
3. Smoke on the Water 5:49 (Quad Mix UK 1974)
4. Never Before 4:01 (Quad Mix)
5. When a Blind Man Cries 3:27 (97 remix)
6. Strange Kind of Woman 8:44 (BBC in Concert, Paris Theatre Mar 9 1972)
7. Lazy 11:13 (Live, Tokyo, Aug 17 1972)
8. Black Night 5:47 (Live, Osaka, Aug 16 1972)
9. Woman from Tokyo 6:24 (99 remix)
10. Smooth Dancer 4:08
11. Mary Long 4:26 (99 remix)
12. Burn (Blackmore/Lord/Paice/Coverdale) 6:00
13. Might Just Take Your Life (Blackmore/Lord/Paice/Coverdale) 4:36

Exact Audio Copy V1.0 beta 3 from 29. August 2011

EAC extraction logfile from 20. February 2012, 19:36

Deep Purple / Listen, Learn, Read On - CD 4 MK 2 & MK3

Used drive : HL-DT-STRW/DVD GCC-4241N Adapter: 1 ID: 0

Read mode : Secure
Utilize accurate stream : Yes
Defeat audio cache : Yes
Make use of C2 pointers : No

Read offset correction : 102
Overread into Lead-In and Lead-Out : No
Fill up missing offset samples with silence : Yes
Delete leading and trailing silent blocks : No
Null samples used in CRC calculations : Yes
Used interface : Native Win32 interface for Win NT & 2000
Gap handling : Appended to previous track

Used output format : User Defined Encoder
Selected bitrate : 1024 kBit/s
Quality : High
Add ID3 tag : No
Command line compressor : C:\Program Files\Exact Audio Copy\Flac\flac.exe
Additional command line options : -8 -V -T "ARTIST=%artist%" -T "TITLE=%title%" -T "ALBUM=%albumtitle%" -T "DATE=%year%" -T "TRACKNUMBER=%tracknr%" -T "GENRE=%genre%" -T "PERFORMER=%albuminterpret%" -T "COMPOSER=%composer%" %haslyrics%–tag-from-file=LYRICS="%lyricsfile%"%haslyrics% -T "ALBUMARTIST=%albumartist%" -T "DISCNUMBER=%cdnumber%" -T "TOTALDISCS=%totalcds%" -T "TOTALTRACKS=%numtracks%" -T "COMMENT=%comment%" %source% -o %dest%


TOC of the extracted CD

Track | Start | Length | Start sector | End sector
––––––––––––––––––––––––––––-
1 | 0:00.00 | 7:19.22 | 0 | 32946
2 | 7:19.22 | 6:04.03 | 32947 | 60249
3 | 13:23.25 | 5:52.10 | 60250 | 86659
4 | 19:15.35 | 4:03.40 | 86660 | 104924
5 | 23:19.00 | 3:30.07 | 104925 | 120681
6 | 26:49.07 | 8:46.48 | 120682 | 160179
7 | 35:35.55 | 11:15.00 | 160180 | 210804
8 | 46:50.55 | 5:50.35 | 210805 | 237089
9 | 52:41.15 | 6:24.62 | 237090 | 265951
10 | 59:06.02 | 4:11.45 | 265952 | 284821
11 | 63:17.47 | 4:28.53 | 284822 | 304974
12 | 67:46.25 | 6:01.62 | 304975 | 332111
13 | 73:48.12 | 4:37.35 | 332112 | 352921


Track 1

Filename S:\Deep Purple - Listen, Learn, Read On (6CD Box Set)\Disc 4\01 No No No.wav

Pre-gap length 0:00:02.00

Peak level 97.2 %
Extraction speed 2.7 X
Track quality 100.0 %
Test CRC E32B2882
Copy CRC E32B2882
Accurately ripped (confidence 19) [9E32E7CB] (AR v1)
Copy OK

Track 2

Filename S:\Deep Purple - Listen, Learn, Read On (6CD Box Set)\Disc 4\02 Higway Star.wav

Pre-gap length 0:00:01.93

Peak level 92.5 %
Extraction speed 3.1 X
Track quality 100.0 %
Test CRC 63026293
Copy CRC 63026293
Accurately ripped (confidence 19) [CA0E6512] (AR v1)
Copy OK

Track 3

Filename S:\Deep Purple - Listen, Learn, Read On (6CD Box Set)\Disc 4\03 Smoke On The Water.wav

Pre-gap length 0:00:01.46

Peak level 98.0 %
Extraction speed 3.4 X
Track quality 100.0 %
Test CRC 19836BE8
Copy CRC 19836BE8
Accurately ripped (confidence 19) [DA625F13] (AR v1)
Copy OK

Track 4

Filename S:\Deep Purple - Listen, Learn, Read On (6CD Box Set)\Disc 4\04 Never Before.wav

Pre-gap length 0:00:01.50

Peak level 97.9 %
Extraction speed 3.4 X
Track quality 100.0 %
Test CRC 82A34672
Copy CRC 82A34672
Accurately ripped (confidence 19) [6A4549A5] (AR v1)
Copy OK

Track 5

Filename S:\Deep Purple - Listen, Learn, Read On (6CD Box Set)\Disc 4\05 When A Blind Man Cries.wav

Pre-gap length 0:00:01.86

Peak level 97.0 %
Extraction speed 3.3 X
Track quality 100.0 %
Test CRC 91341899
Copy CRC 91341899
Accurately ripped (confidence 19) [0D8F77F1] (AR v1)
Copy OK

Track 6

Filename S:\Deep Purple - Listen, Learn, Read On (6CD Box Set)\Disc 4\06 Strange Kind Of Woman.wav

Pre-gap length 0:00:01.86

Peak level 98.0 %
Extraction speed 4.1 X
Track quality 100.0 %
Test CRC 4E283848
Copy CRC 4E283848
Accurately ripped (confidence 19) [DAB874FE] (AR v1)
Copy OK

Track 7

Filename S:\Deep Purple - Listen, Learn, Read On (6CD Box Set)\Disc 4\07 Lazy.wav

Pre-gap length 0:00:01.20

Peak level 98.8 %
Extraction speed 4.5 X
Track quality 100.0 %
Test CRC 56EAC42B
Copy CRC 56EAC42B
Accurately ripped (confidence 18) [44CAB2CE] (AR v1)
Copy OK

Track 8

Filename S:\Deep Purple - Listen, Learn, Read On (6CD Box Set)\Disc 4\08 Black Night.wav

Pre-gap length 0:00:01.10

Peak level 98.0 %
Extraction speed 4.5 X
Track quality 100.0 %
Test CRC DEBBCD9D
Copy CRC DEBBCD9D
Accurately ripped (confidence 19) [FDBB42AA] (AR v1)
Copy OK

Track 9

Filename S:\Deep Purple - Listen, Learn, Read On (6CD Box Set)\Disc 4\09 Woman From Tokyo.wav

Pre-gap length 0:00:02.44

Peak level 92.9 %
Extraction speed 4.7 X
Track quality 100.0 %
Test CRC 31951C07
Copy CRC 31951C07
Accurately ripped (confidence 19) [8E016C16] (AR v1)
Copy OK

Track 10

Filename S:\Deep Purple - Listen, Learn, Read On (6CD Box Set)\Disc 4\10 Smooth Dancer.wav

Peak level 98.8 %
Extraction speed 4.8 X
Track quality 100.0 %
Test CRC 6A5F9D5A
Copy CRC 6A5F9D5A
Accurately ripped (confidence 19) [0BF59F93] (AR v1)
Copy OK

Track 11

Filename S:\Deep Purple - Listen, Learn, Read On (6CD Box Set)\Disc 4\11 Mary Long.wav

Pre-gap length 0:00:02.42

Peak level 98.0 %
Extraction speed 4.9 X
Track quality 100.0 %
Test CRC 6A0D184C
Copy CRC 6A0D184C
Accurately ripped (confidence 19) [54E96229] (AR v1)
Copy OK

Track 12

Filename S:\Deep Purple - Listen, Learn, Read On (6CD Box Set)\Disc 4\12 Burn.wav

Pre-gap length 0:00:01.17

Peak level 98.8 %
Extraction speed 5.2 X
Track quality 100.0 %
Test CRC 6F6B331F
Copy CRC 6F6B331F
Accurately ripped (confidence 18) [0051DAC4] (AR v1)
Copy OK

Track 13

Filename S:\Deep Purple - Listen, Learn, Read On (6CD Box Set)\Disc 4\13 Might Just Take Your Life.wav

Pre-gap length 0:00:01.02

Peak level 97.9 %
Extraction speed 5.2 X
Track quality 100.0 %
Test CRC F7C58BF7
Copy CRC F7C58BF7
Accurately ripped (confidence 13) [245EA566] (AR v1)
Copy OK


All tracks accurately ripped

No errors occurred

End of status report

==== Log checksum 73FD8C20C84B120F8F012194291A1B8D3ABCF23CFAC9B21BCBB2428699849999 ====


[CUETools log; Date: 10.03.2020 10:54:24; Version: 2.1.4]
[AccurateRip ID: 0026f9d2-0185027a-a912610d] found.
Track [ CRC | V2 ] Status
01 [9e32e7cb|1bb4ef4d] (22+28/50) Accurately ripped
02 [ca0e6512|769deae0] (22+28/50) Accurately ripped
03 [da625f13|f7ace040] (21+27/48) Accurately ripped
04 [6a4549a5|2a5a928d] (21+27/48) Accurately ripped
05 [0d8f77f1|b1e45df7] (21+27/48) Accurately ripped
06 [dab874fe|2ec1d143] (21+27/48) Accurately ripped
07 [44cab2ce|27459c96] (20+26/46) Accurately ripped
08 [fdbb42aa|545c8e21] (21+28/49) Accurately ripped
09 [8e016c16|9b390443] (21+27/48) Accurately ripped
10 [0bf59f93|4aa43eb1] (21+27/48) Accurately ripped
11 [54e96229|8586690a] (21+27/48) Accurately ripped
12 [0051dac4|35f85ec7] (20+27/47) Accurately ripped
13 [245ea566|ce0d6f4c] (14+27/41) Accurately ripped

Track Peak [ CRC32 ] [W/O NULL] [ LOG ]
– 98,8 [8A0D2B9C] [0031B146]
01 97,2 [E32B2882] [ECD9860F] CRC32
02 92,5 [63026293] [C9AFE88C] CRC32
03 98,0 [19836BE8] [73897451] CRC32
04 97,9 [82A34672] [83ABE32B] CRC32
05 97,0 [91341899] [FFB8DE38] CRC32
06 98,0 [4E283848] [9E554D28] CRC32
07 98,8 [56EAC42B] [399ED6CB] CRC32
08 98,0 [DEBBCD9D] [56B356C7] CRC32
09 92,9 [31951C07] [F6FBB870] CRC32
10 98,8 [6A5F9D5A] [679C356B] CRC32
11 98,0 [6A0D184C] [720D38F7] CRC32
12 98,8 [6F6B331F] [675E9911] CRC32
13 97,9 [F7C58BF7] [E763F39A] CRC32


Tracklist CD5 - Mk 3:

1. Sail Away (Blackmore/Coverdale) 5:47
2. Coronarias Redig (Blackmore/Lord/Paice) 4:52 (single B-side)
3. You Fool No One (Blackmore/Lord/Paice/Coverdale) 18:58 (Live, Ontario Speedway, Apr 6 1974)
4. Mistreated (Blackmore/Coverdale) 12:02 (Live, San Diego Sports Arena, Apr 9 1974)
5. Space Truckin 29:52 (Live, Kilburn Gaumont, May 22, 1974)

Exact Audio Copy V1.0 beta 3 from 29. August 2011

EAC extraction logfile from 21. February 2012, 0:32

Deep Purple / Listen, Learn, Read On - CD5

Used drive : HL-DT-STDVD+-RW GS30N Adapter: 1 ID: 0

Read mode : Secure
Utilize accurate stream : Yes
Defeat audio cache : Yes
Make use of C2 pointers : No

Read offset correction : 667
Overread into Lead-In and Lead-Out : No
Fill up missing offset samples with silence : Yes
Delete leading and trailing silent blocks : No
Null samples used in CRC calculations : Yes
Used interface : Native Win32 interface for Win NT & 2000
Gap handling : Appended to previous track

Used output format : User Defined Encoder
Selected bitrate : 1024 kBit/s
Quality : High
Add ID3 tag : No
Command line compressor : C:\Program Files (x86)\Exact Audio Copy\Flac\flac.exe
Additional command line options : -8 -V -T "ARTIST=%artist%" -T "TITLE=%title%" -T "ALBUM=%albumtitle%" -T "DATE=%year%" -T "TRACKNUMBER=%tracknr%" -T "GENRE=%genre%" -T "PERFORMER=%albuminterpret%" -T "COMPOSER=%composer%" %haslyrics%–tag-from-file=LYRICS="%lyricsfile%"%haslyrics% -T "ALBUMARTIST=%albumartist%" -T "DISCNUMBER=%cdnumber%" -T "TOTALDISCS=%totalcds%" -T "TOTALTRACKS=%numtracks%" -T "COMMENT=%comment%" %source% -o %dest%


TOC of the extracted CD

Track | Start | Length | Start sector | End sector
––––––––––––––––––––––––––––-
1 | 0:00.00 | 5:50.22 | 0 | 26271
2 | 5:50.22 | 4:54.03 | 26272 | 48324
3 | 10:44.25 | 18:59.22 | 48325 | 133771
4 | 29:43.47 | 12:03.35 | 133772 | 188031
5 | 41:47.07 | 29:53.03 | 188032 | 322509


Track 1

Filename S:\Deep Purple - Listen, Learn, Read On (6CD Box Set)\Disc 5\01 Sail Away.wav

Pre-gap length 0:00:02.00

Peak level 98.6 %
Extraction speed 3.1 X
Track quality 100.0 %
Test CRC 85CA0BC1
Copy CRC 85CA0BC1
Accurately ripped (confidence 17) [507DD3E2] (AR v1)
Copy OK

Track 2

Filename S:\Deep Purple - Listen, Learn, Read On (6CD Box Set)\Disc 5\02 Coronarias Redig.wav

Pre-gap length 0:00:01.20

Peak level 99.1 %
Extraction speed 3.3 X
Track quality 100.0 %
Test CRC CE4A8A15
Copy CRC CE4A8A15
Accurately ripped (confidence 17) [C24B5621] (AR v1)
Copy OK

Track 3

Filename S:\Deep Purple - Listen, Learn, Read On (6CD Box Set)\Disc 5\03 You Fool No One.wav

Pre-gap length 0:00:00.86

Peak level 99.1 %
Extraction speed 4.4 X
Track quality 100.0 %
Test CRC 72B69ADE
Copy CRC 72B69ADE
Accurately ripped (confidence 17) [027B6030] (AR v1)
Copy OK

Track 4

Filename S:\Deep Purple - Listen, Learn, Read On (6CD Box Set)\Disc 5\04 Mistreated.wav

Peak level 100.0 %
Extraction speed 5.1 X
Track quality 100.0 %
Test CRC A2A9B7DA
Copy CRC A2A9B7DA
Accurately ripped (confidence 16) [19F337B5] (AR v1)
Copy OK

Track 5

Filename S:\Deep Purple - Listen, Learn, Read On (6CD Box Set)\Disc 5\05 Space Truckin'.wav

Pre-gap length 0:00:01.00

Peak level 100.0 %
Extraction speed 6.1 X
Track quality 100.0 %
Test CRC 516F52A4
Copy CRC 516F52A4
Accurately ripped (confidence 16) [DD24B28B] (AR v1)
Copy OK


All tracks accurately ripped

No errors occurred

End of status report

==== Log checksum 34F9728E190028E6A6677ACE543B71CCC58F9CE218423075BDE63208542F7DF7 ====


[CUETools log; Date: 10.03.2020 11:17:00; Version: 2.1.4]
[AccurateRip ID: 000af83f-00370d14-4110cc05] found.
Track [ CRC | V2 ] Status
01 [507dd3e2|d3633a44] (19+28/47) Accurately ripped
02 [c24b5621|6b15c5af] (19+28/47) Accurately ripped
03 [027b6030|c9197d8b] (19+28/47) Accurately ripped
04 [19f337b5|380d029b] (18+28/46) Accurately ripped
05 [dd24b28b|e949ef0e] (18+26/44) Accurately ripped

Track Peak [ CRC32 ] [W/O NULL] [ LOG ]
– 100,0 [523C6EA4] [9B79D49E]
01 98,6 [85CA0BC1] [20A6DDF2] CRC32
02 99,1 [CE4A8A15] [37A2BB26] CRC32
03 99,1 [72B69ADE] [D5678BAE] CRC32
04 100,0 [A2A9B7DA] [B3081F23] CRC32
05 100,0 [516F52A4] [7636D311] CRC32


Tracklist CD6 - Mk 3 & Mk 4:

1. Stormbringer (Blackmore/Coverdale) 4:04 (Quad Mix)
2. Soldier of Fortune (Blackmore/Coverdale) 3:14 (Quad Mix)
3. Hold On (Coverdale/Hughes/Lord/Paice) 5:08 (Quad Mix)
4. High Ball Shooter (Blackmore/Coverdale/Hughes/Lord/Paice) 4:30 (Instrumental mix)
5. The Gypsy (Blackmore/Coverdale/Hughes/Lord/Paice) 5:43 (Live, Paris Palais des Sports, Apr 7 1975)
6. Drifter (Bolin/Coverdale) 3:58 (California live rehearsal, June 1975)
7. Dance to the Rock 'n' Roll (Bolin/Coverdale/Hughes/Lord/Paice) 10:59 (California live rehearsal, Jam)
8. This Time Around/Owed to 'G' (Hughes/Lord; Bolin) 6:06
9. Love Child (Bolin/Coverdale) 3:03
10. Wild Dogs (Bolin/Tesar) 5:54 (Live, Tokyo Budokan, Dec 15 1975)
11. Lady Luck (Cook/Coverdale) 3:24 (Live, Long Beach Arena, Feb 27 1976)
12. Gettin' Tighter (Bolin/Hughes) 13:18 (Live, Long Beach Arena)
13. You Keep on Moving (Coverdale/Hughes) 5:18

Exact Audio Copy V1.0 beta 3 from 29. August 2011

EAC extraction logfile from 21. February 2012, 0:32

Deep Purple / Listen, Learn, Read On - Disc 6

Used drive : HL-DT-STRW/DVD GCC-4241N Adapter: 1 ID: 0

Read mode : Secure
Utilize accurate stream : Yes
Defeat audio cache : Yes
Make use of C2 pointers : No

Read offset correction : 102
Overread into Lead-In and Lead-Out : No
Fill up missing offset samples with silence : Yes
Delete leading and trailing silent blocks : No
Null samples used in CRC calculations : Yes
Used interface : Native Win32 interface for Win NT & 2000
Gap handling : Appended to previous track

Used output format : User Defined Encoder
Selected bitrate : 1024 kBit/s
Quality : High
Add ID3 tag : No
Command line compressor : C:\Program Files\Exact Audio Copy\Flac\flac.exe
Additional command line options : -8 -V -T "ARTIST=%artist%" -T "TITLE=%title%" -T "ALBUM=%albumtitle%" -T "DATE=%year%" -T "TRACKNUMBER=%tracknr%" -T "GENRE=%genre%" -T "PERFORMER=%albuminterpret%" -T "COMPOSER=%composer%" %haslyrics%–tag-from-file=LYRICS="%lyricsfile%"%haslyrics% -T "ALBUMARTIST=%albumartist%" -T "DISCNUMBER=%cdnumber%" -T "TOTALDISCS=%totalcds%" -T "TOTALTRACKS=%numtracks%" -T "COMMENT=%comment%" %source% -o %dest%


TOC of the extracted CD

Track | Start | Length | Start sector | End sector
––––––––––––––––––––––––––––-
1 | 0:00.00 | 4:07.60 | 0 | 18584
2 | 4:07.60 | 3:16.67 | 18585 | 33351
3 | 7:24.52 | 5:12.20 | 33352 | 56771
4 | 12:36.72 | 4:31.68 | 56772 | 77164
5 | 17:08.65 | 5:45.57 | 77165 | 103096
6 | 22:54.47 | 4:01.00 | 103097 | 121171
7 | 26:55.47 | 11:01.63 | 121172 | 170809
8 | 37:57.35 | 6:08.50 | 170810 | 198459
9 | 44:06.10 | 3:05.65 | 198460 | 212399
10 | 47:12.00 | 5:56.50 | 212400 | 239149
11 | 53:08.50 | 3:25.02 | 239150 | 254526
12 | 56:33.52 | 13:20.28 | 254527 | 314554
13 | 69:54.05 | 5:18.55 | 314555 | 338459


Track 1

Filename S:\Deep Purple - Listen, Learn, Read On (6CD Box Set)\Disc 6\01 - Deep Purple - Stormbringer.wav

Pre-gap length 0:00:02.00

Peak level 92.8 %
Extraction speed 2.5 X
Track quality 100.0 %
Test CRC AC5A5CE9
Copy CRC AC5A5CE9
Accurately ripped (confidence 17) [6ED55473] (AR v1)
Copy OK

Track 2

Filename S:\Deep Purple - Listen, Learn, Read On (6CD Box Set)\Disc 6\02 - Deep Purple - Soldier Of Fortune.wav

Pre-gap length 0:00:02.30

Peak level 89.8 %
Extraction speed 2.3 X
Track quality 99.9 %
Test CRC 5DFDA2CB
Copy CRC 5DFDA2CB
Accurately ripped (confidence 17) [4A51BBD3] (AR v1)
Copy OK

Track 3

Filename S:\Deep Purple - Listen, Learn, Read On (6CD Box Set)\Disc 6\03 - Deep Purple - Hold On.wav

Pre-gap length 0:00:02.06

Peak level 96.9 %
Extraction speed 3.0 X
Track quality 100.0 %
Test CRC 4F138AD4
Copy CRC 4F138AD4
Accurately ripped (confidence 17) [A4A47B49] (AR v1)
Copy OK

Track 4

Filename S:\Deep Purple - Listen, Learn, Read On (6CD Box Set)\Disc 6\04 - Deep Purple - Highball Shooter (Instrumental).wav

Pre-gap length 0:00:03.09

Peak level 98.0 %
Extraction speed 2.9 X
Track quality 99.9 %
Test CRC 1807CD9B
Copy CRC 1807CD9B
Accurately ripped (confidence 17) [A74219CE] (AR v1)
Copy OK

Track 5

Filename S:\Deep Purple - Listen, Learn, Read On (6CD Box Set)\Disc 6\05 - Deep Purple - The Gypsy.wav

Pre-gap length 0:00:01.10

Peak level 97.9 %
Extraction speed 3.5 X
Track quality 100.0 %
Test CRC 43BF4243
Copy CRC 43BF4243
Accurately ripped (confidence 17) [61CF571F] (AR v1)
Copy OK

Track 6

Filename S:\Deep Purple - Listen, Learn, Read On (6CD Box Set)\Disc 6\06 - Deep Purple - Drifter.wav

Pre-gap length 0:00:01.69

Peak level 97.8 %
Extraction speed 3.1 X
Track quality 99.9 %
Test CRC 4C52A5D8
Copy CRC 4C52A5D8
Accurately ripped (confidence 17) [03AFE57E] (AR v1)
Copy OK

Track 7

Filename S:\Deep Purple - Listen, Learn, Read On (6CD Box Set)\Disc 6\07 - Deep Purple - Dance To The Rock 'n' Roll (Jam).wav

Pre-gap length 0:00:01.76

Peak level 97.9 %
Extraction speed 4.3 X
Track quality 100.0 %
Test CRC 7310F63C
Copy CRC 7310F63C
Accurately ripped (confidence 17) [6D2C4699] (AR v1)
Copy OK

Track 8

Filename S:\Deep Purple - Listen, Learn, Read On (6CD Box Set)\Disc 6\08 - This Time Around - Owed To 'G'.wav

Pre-gap length 0:00:01.33

Peak level 98.0 %
Extraction speed 4.3 X
Track quality 100.0 %
Test CRC 8DA93B00
Copy CRC 8DA93B00
Accurately ripped (confidence 17) [F76D6F16] (AR v1)
Copy OK

Track 9

Filename S:\Deep Purple - Listen, Learn, Read On (6CD Box Set)\Disc 6\09 - Deep Purple - Love Child.wav

Pre-gap length 0:00:01.17

Peak level 98.0 %
Extraction speed 4.0 X
Track quality 100.0 %
Test CRC D88C957B
Copy CRC D88C957B
Accurately ripped (confidence 17) [EE763ABB] (AR v1)
Copy OK

Track 10

Filename S:\Deep Purple - Listen, Learn, Read On (6CD Box Set)\Disc 6\10 - Deep Purple - Wild Dogs.wav

Pre-gap length 0:00:01.30

Peak level 97.4 %
Extraction speed 4.7 X
Track quality 100.0 %
Test CRC 75B50D53
Copy CRC 75B50D53
Accurately ripped (confidence 17) [252C867C] (AR v1)
Copy OK

Track 11

Filename S:\Deep Purple - Listen, Learn, Read On (6CD Box Set)\Disc 6\11 - Deep Purple - Lady Luck.wav

Pre-gap length 0:00:01.84

Peak level 97.7 %
Extraction speed 4.5 X
Track quality 100.0 %
Test CRC FD379EE1
Copy CRC FD379EE1
Accurately ripped (confidence 16) [4BB287A9] (AR v1)
Copy OK

Track 12

Filename S:\Deep Purple - Listen, Learn, Read On (6CD Box Set)\Disc 6\12 - Deep Purple - Gettin' Tighter.wav

Peak level 98.8 %
Extraction speed 5.3 X
Track quality 100.0 %
Test CRC 11157792
Copy CRC 11157792
Accurately ripped (confidence 15) [772DB06C] (AR v1)
Copy OK

Track 13

Filename S:\Deep Purple - Listen, Learn, Read On (6CD Box Set)\Disc 6\13 - Deep Purple - You Keep On Moving.wav

Pre-gap length 0:00:01.57

Peak level 98.0 %
Extraction speed 4.1 X
Track quality 99.9 %
Test CRC 62325CD4
Copy CRC 62325CD4
Accurately ripped (confidence 16) [54137249] (AR v1)
Copy OK


All tracks accurately ripped

No errors occurred

End of status report

==== Log checksum 47B28122F4BE0A3D4D9AC62B4EAF658F3F3F977614F3FD938544CB59D583AA2E ====


[CUETools log; Date: 10.03.2020 12:15:40; Version: 2.1.4]
[AccurateRip ID: 0020a189-014fc99f-c511a00d] found.
Track [ CRC | V2 ] Status
01 [6ed55473|9ea78374] (19+25/44) Accurately ripped
02 [4a51bbd3|70cc02d2] (19+25/44) Accurately ripped
03 [a4a47b49|6120d055] (19+25/44) Accurately ripped
04 [a74219ce|faaa652e] (19+25/44) Accurately ripped
05 [61cf571f|e2907d5b] (19+24/43) Accurately ripped
06 [03afe57e|3b3ddc2a] (19+25/44) Accurately ripped
07 [6d2c4699|03f3ed7d] (19+25/44) Accurately ripped
08 [f76d6f16|286b6e52] (19+25/44) Accurately ripped
09 [ee763abb|f0d8aee1] (19+25/44) Accurately ripped
10 [252c867c|b0b723ee] (18+24/42) Accurately ripped
11 [4bb287a9|7940a300] (18+26/44) Accurately ripped
12 [772db06c|96938689] (16+25/41) Accurately ripped
13 [54137249|e60e81f9] (18+25/43) Accurately ripped

Track Peak [ CRC32 ] [W/O NULL] [ LOG ]
– 98,8 [3718A16D] [C48C7CA9]
01 92,8 [AC5A5CE9] [276E3FA2] CRC32
02 89,8 [5DFDA2CB] [1D2A18D9] CRC32
03 96,9 [4F138AD4] [743C5743] CRC32
04 98,0 [1807CD9B] [71246BD8] CRC32
05 97,9 [43BF4243] [A2C0757B] CRC32
06 97,8 [4C52A5D8] [B0BF4932] CRC32
07 97,9 [7310F63C] [74C50829] CRC32
08 98,0 [8DA93B00] [E39E7FF4] CRC32
09 98,0 [D88C957B] [9D6EBE3C] CRC32
10 97,4 [75B50D53] [3BFB5380] CRC32
11 97,7 [FD379EE1] [4485550A] CRC32
12 98,8 [11157792] [25ABCA1E] CRC32
13 98,0 [62325CD4] [0ADBF4D9] CRC32


Mk 1: 1968-1969 - Ritchie Blackmore, Rod Evans, Jon Lord, Ian Paice, Nick Simper
Mk 2: 1969-1973 - Ritchie Blackmore, Ian Gillan, Roger Glover, Jon Lord, Ian Paice
Mk 3: 1973-1975 - Ritchie Blackmore, David Coverdale, Glenn Hughes, Jon Lord, Ian Paice
Mk 4: 1975-1976 - Tommy Bolin, David Coverdale, Glenn Hughes, Jon Lord, Ian Paice

Deep Purple - Listen, Learn, Read On (2002) [6CD Box Set]

All thanks go to gramsk

Deep Purple in my Blog

Download Deep Purple - Listen, Learn, Read On (2002):