Tags
Language
Tags

Deep Purple - The Complete Albums 1970-1976 [2013, 10CD, Rhino 8122796348] Re-up

Posted By: v3122
Deep Purple - The Complete Albums 1970-1976 [2013, 10CD, Rhino 8122796348] Re-up

Deep Purple - The Complete Albums 1970-1976
EAC | Flac(Image) + Cue + Log & MP3 CBR 320Kbps
2013 | 10CD | Rhino 8122796348 | ~ 2938 or 1059 Mb | Scans(jpg, 600dpi) -> 119 Mb
Hard Rock

The set kicks off with the 1969 live album Concerto For Group and Orchestra and also includes In Rock (1970), Fireball (1971), Machine Head (1972), Made In Japan (1972), Who Do We Think We Are (1973), Burn (1974), Stormbringer (1974), Come Taste The Band (1975) and Made In Europe (1976).
Deep Purple - The Complete Albums 1970-1976:

Deep Purple - The Complete Albums 1970-1976 [2013, 10CD, Rhino 8122796348] Re-up

CD1: Deep Purple - Concerto For Group & Orchestra (1969)
EAC | Flac(Image) + Cue + Log & MP3 CBR 320Kbps
2013 | Rhino 8122796348-1 | ~ 309 or 127 Mb | Scans(jpg, 600dpi) -> 119 Mb
Hard Rock

This Deep Purple 1969 live album Concerto for Group and Orchestra, which finds Purple's Mk II lineup (Jon Lord, Ritchie Blackmore, Ian Gillan, Roger Glover, and Ian Paice) performing at London's Royal Albert Hall with the Royal Philharmonic Orchestra, conducted by Malcolm Arnold. The music has been newly mixed in both stereo and surround versions, and several parts of the show that were missing from the original release are now included (however, a three-minute drum solo has been inexplicably edited out of "Third Movement").

by by Christian Genzel, AMG
Tracklist:

01. First Movement a) Moderato b) Allegro c) Vivace - 19:12
02. Second Movement Andante Part One - 6:36
03. Second Movement Andante Part Two - 12:30
04. Third Movement. a) Vivace b) Presto - 15:31

Exact Audio Copy V1.0 beta 3 from 29. August 2011

EAC extraction logfile from 27. November 2013, 10:27

Deep Purple / Concerto For Group & Orchestra, with Royal Philharmonic Orchestra

Used drive : ATAPI iHAS124 B Adapter: 2 ID: 0

Read mode : Secure
Utilize accurate stream : Yes
Defeat audio cache : Yes
Make use of C2 pointers : No

Read offset correction : 6
Overread into Lead-In and Lead-Out : No
Fill up missing offset samples with silence : Yes
Delete leading and trailing silent blocks : No
Null samples used in CRC calculations : Yes
Used interface : Native Win32 interface for Win NT & 2000

Used output format : User Defined Encoder
Selected bitrate : 1024 kBit/s
Quality : High
Add ID3 tag : No
Command line compressor : C:\Program Files (x86)\Exact Audio Copy\FLAC\FLAC.EXE
Additional command line options : -8 -V -T "ARTIST=%artist%" -T "TITLE=%title%" -T "ALBUM=%albumtitle%" -T "DATE=%year%" -T "TRACKNUMBER=%tracknr%" -T "GENRE=%genre%" -T "PERFORMER=%albuminterpret%" -T "COMPOSER=%composer%" %haslyrics%–tag-from-file=LYRICS="%lyricsfile%"%haslyrics% -T "ALBUMARTIST=%albumartist%" -T "DISCNUMBER=%cdnumber%" -T "TOTALDISCS=%totalcds%" -T "TOTALTRACKS=%numtracks%" -T "COMMENT=%comment%" %source% -o %dest%


TOC of the extracted CD

Track | Start | Length | Start sector | End sector
––––––––––––––––––––––––––––-
1 | 0:00.00 | 19:12.10 | 0 | 86409
2 | 19:12.10 | 6:35.51 | 86410 | 116085
3 | 25:47.61 | 12:30.02 | 116086 | 172337
4 | 38:17.63 | 15:31.04 | 172338 | 242166


Range status and errors

Selected range

Filename G:\CD\CD1 - Concerto For Group & Orchestra.wav

Peak level 89.8 %
Extraction speed 5.6 X
Range quality 100.0 %
Test CRC F67093C6
Copy CRC F67093C6
Copy OK

No errors occurred


AccurateRip summary

Track 1 accurately ripped (confidence 1) [85119F17] (AR v2)
Track 2 accurately ripped (confidence 1) [D2622CA5] (AR v2)
Track 3 accurately ripped (confidence 1) [BFE928B7] (AR v2)
Track 4 accurately ripped (confidence 1) [600B3ACB] (AR v2)

All tracks accurately ripped

End of status report

foobar2000 1.2.9 / Dynamic Range Meter 1.1.1
log date: 2013-12-30 09:28:16

––––––––––––––––––––––––––––––––––––––––
Analyzed: Deep Purple / Concerto For Group & Orchestra, with Royal Philharmonic Orchestra
––––––––––––––––––––––––––––––––––––––––

DR Peak RMS Duration Track
––––––––––––––––––––––––––––––––––––––––
DR11 -1.87 dB -16.99 dB 19:12 01-First Movement a) Moderato b) Allegro c) Vivace
DR11 -1.31 dB -20.03 dB 6:36 02-Second Movement Andante Part One
DR10 -2.14 dB -18.45 dB 12:30 03-Second Movement Andante Part Two
DR11 -0.93 dB -16.41 dB 15:31 04-Third Movement. a) Vivace b) Presto
––––––––––––––––––––––––––––––––––––––––

Number of tracks: 4
Official DR value: DR11

Samplerate: 44100 Hz
Channels: 2
Bits per sample: 16
Bitrate: 781 kbps
Codec: FLAC

===============

Deep Purple - The Complete Albums 1970-1976 [2013, 10CD, Rhino 8122796348] Re-up

CD2: Deep Purple - In Rock (1970)
EAC | Flac(Image) + Cue + Log & MP3 CBR 320Kbps
2013 | Rhino 8122796348-2 | ~ 278 or 104 Mb | Scans(jpg, 600dpi) -> 119 Mb
Hard Rock

After satisfying all of their classical music kinks with keyboard player Jon Lord's overblown Concerto for Group and Orchestra, Deep Purple's soon to be classic Mark II version made its proper debut and established the sonic blueprint that would immortalize this lineup of the band on 1970's awesome In Rock. The cacophony of sound (spearheaded by Ritchie Blackmore's blistering guitar solo) introducing opener "Speed King" made it immediately obvious that the band was no longer fooling around, but the slightly less intense "Bloodsucker" did afford stunned listeners a chance to catch their breaths before the band launched into the album's epic, ten-minute tour de force, "Child in Time." In what still stands as arguably his single greatest performance, singer Ian Gillan led his bandmates on a series of hypnotizing crescendos, from the song's gentle beginning through to its ear-shattering climax and then back again for an even more intense encore that brought the original vinyl album's seismic first side to a close. Side two opened with the searing power chords of "Flight of the Rat" – another example of the band's new take-no-prisoners hard rock stance, though at nearly eight minutes, it too found room for some extended soloing from Blackmore and Lord. Next, "Into the Fire" and "Living Wreck" proved more concise but equally appealing, and though closer "Hard Lovin' Man" finally saw the new-look Deep Purple waffling on a bit too long before descending into feedback, the die was cast for one of heavy metal's defining albums.

by Eduardo Rivadavia, AMG
Tracklist:

01. Speed King - 4:23
02. Bloodsucker - 4:16
03. Child In Time - 10:22
04. Flight Of The Rat - 7:57
05. Into The Fire - 3:30
06. Living Wreck - 4:33
07. Hard Lovin' Man - 7:13

Exact Audio Copy V1.0 beta 3 from 29. August 2011

EAC extraction logfile from 27. November 2013, 10:03

Deep Purple / In Rock

Used drive : ATAPI iHAS124 B Adapter: 2 ID: 0

Read mode : Secure
Utilize accurate stream : Yes
Defeat audio cache : Yes
Make use of C2 pointers : No

Read offset correction : 6
Overread into Lead-In and Lead-Out : No
Fill up missing offset samples with silence : Yes
Delete leading and trailing silent blocks : No
Null samples used in CRC calculations : Yes
Used interface : Native Win32 interface for Win NT & 2000

Used output format : User Defined Encoder
Selected bitrate : 1024 kBit/s
Quality : High
Add ID3 tag : No
Command line compressor : C:\Program Files (x86)\Exact Audio Copy\FLAC\FLAC.EXE
Additional command line options : -8 -V -T "ARTIST=%artist%" -T "TITLE=%title%" -T "ALBUM=%albumtitle%" -T "DATE=%year%" -T "TRACKNUMBER=%tracknr%" -T "GENRE=%genre%" -T "PERFORMER=%albuminterpret%" -T "COMPOSER=%composer%" %haslyrics%–tag-from-file=LYRICS="%lyricsfile%"%haslyrics% -T "ALBUMARTIST=%albumartist%" -T "DISCNUMBER=%cdnumber%" -T "TOTALDISCS=%totalcds%" -T "TOTALTRACKS=%numtracks%" -T "COMMENT=%comment%" %source% -o %dest%


TOC of the extracted CD

Track | Start | Length | Start sector | End sector
––––––––––––––––––––––––––––-
1 | 0:00.00 | 4:23.10 | 0 | 19734
2 | 4:23.10 | 4:15.45 | 19735 | 38904
3 | 8:38.55 | 10:21.65 | 38905 | 85544
4 | 19:00.45 | 7:57.02 | 85545 | 121321
5 | 26:57.47 | 3:30.00 | 121322 | 137071
6 | 30:27.47 | 4:32.48 | 137072 | 157519
7 | 35:00.20 | 7:13.15 | 157520 | 190009


Range status and errors

Selected range

Filename G:\CD\CD2 - In Rock.wav

Peak level 97.7 %
Extraction speed 5.2 X
Range quality 99.9 %
Test CRC B7495E4C
Copy CRC B7495E4C
Copy OK

No errors occurred


AccurateRip summary

Track 1 not present in database
Track 2 not present in database
Track 3 not present in database
Track 4 not present in database
Track 5 not present in database
Track 6 not present in database
Track 7 not present in database

None of the tracks are present in the AccurateRip database

End of status report

foobar2000 1.2.9 / Dynamic Range Meter 1.1.1
log date: 2013-12-30 09:28:39

––––––––––––––––––––––––––––––––––––––––
Analyzed: Deep Purple / In Rock
––––––––––––––––––––––––––––––––––––––––

DR Peak RMS Duration Track
––––––––––––––––––––––––––––––––––––––––
DR8 -0.62 dB -10.83 dB 4:23 01-Speed King
DR8 -1.04 dB -11.30 dB 4:16 02-Bloodsucker
DR7 -0.20 dB -9.96 dB 10:22 03-Child In Time
DR9 -0.20 dB -10.29 dB 7:57 04-Flight Of The Rat
DR9 -0.39 dB -10.45 dB 3:30 05-Into The Fire
DR9 -0.20 dB -11.78 dB 4:33 06-Living Wreck
DR9 -0.77 dB -11.79 dB 7:13 07-Hard Lovin' Man
––––––––––––––––––––––––––––––––––––––––

Number of tracks: 7
Official DR value: DR8

Samplerate: 44100 Hz
Channels: 2
Bits per sample: 16
Bitrate: 893 kbps
Codec: FLAC

===============

Deep Purple - The Complete Albums 1970-1976 [2013, 10CD, Rhino 8122796348] Re-up

CD3: Deep Purple - Fireball (1971)
EAC | Flac(Image) + Cue + Log & MP3 CBR 320Kbps
2013 | Rhino 8122796348-3 | ~ 253 or 92 Mb | Scans(jpg, 600dpi) -> 119 Mb
Hard Rock

One of Deep Purple's four indispensable albums (the others being In Rock, Machine Head, and Burn), 1971's Fireball saw the band broadening out from the no-holds-barred hard rock direction of the previous year's cacophonous In Rock. Metal machine noises introduced the sizzling title track – an unusually compact but explosively tight group effort on which Jon Lord's organ truly shined. The somewhat tiring repetitions of "No No No" actually threatened to drop the ball next, but the fantastic single "Strange Kind of Woman" nimbly caught and set it rolling again, just in time for the innuendo-encrusted hilarity of "Anyone's Daughter," featuring one of singer Ian Gillan's first (and still best) humorous storylines to go with one of guitarist Ritchie Blackmore's most uncharacteristic, bluesiest performances ever. "The Mule" opened the vinyl album's second side with what is perhaps Purple's finest instrumental, and on the hyper-extended "Fools," the bandmembers proved they could flirt with progressive rock without plunging off its cliff (although the song could probably have done without its drawn-out middle section). And closing the album was the exceptional "No One Came," where intertwining instrumental lines locked together beautifully, Gillan wove another entertaining yarn that was part autobiography and part Monty Python, and the often underrated skills of drummer Ian Paice helped the song sound so unreservedly fresh and intuitive that one could almost be convinced the band had winged it on the spot. Sure, the following year's Machine Head would provide Deep Purple with their commercial peak, but on Fireball, the formidable quintet was already firing on all cylinders.

by Eduardo Rivadavia, AMG
Tracklist:

01. Fireball - 3:24
02. No No No - 6:54
03. Strange Kind of Woman - 4:06
04. Anyone's Daughter - 4:45
05. The Mule - 5:21
06. Fools - 8:19
07. No One Came - 6:24

Exact Audio Copy V1.0 beta 3 from 29. August 2011

EAC extraction logfile from 27. November 2013, 9:45

Deep Purple / Fireball

Used drive : ATAPI iHAS124 B Adapter: 2 ID: 0

Read mode : Secure
Utilize accurate stream : Yes
Defeat audio cache : Yes
Make use of C2 pointers : No

Read offset correction : 6
Overread into Lead-In and Lead-Out : No
Fill up missing offset samples with silence : Yes
Delete leading and trailing silent blocks : No
Null samples used in CRC calculations : Yes
Used interface : Native Win32 interface for Win NT & 2000

Used output format : User Defined Encoder
Selected bitrate : 1024 kBit/s
Quality : High
Add ID3 tag : No
Command line compressor : C:\Program Files (x86)\Exact Audio Copy\FLAC\FLAC.EXE
Additional command line options : -8 -V -T "ARTIST=%artist%" -T "TITLE=%title%" -T "ALBUM=%albumtitle%" -T "DATE=%year%" -T "TRACKNUMBER=%tracknr%" -T "GENRE=%genre%" -T "PERFORMER=%albuminterpret%" -T "COMPOSER=%composer%" %haslyrics%–tag-from-file=LYRICS="%lyricsfile%"%haslyrics% -T "ALBUMARTIST=%albumartist%" -T "DISCNUMBER=%cdnumber%" -T "TOTALDISCS=%totalcds%" -T "TOTALTRACKS=%numtracks%" -T "COMMENT=%comment%" %source% -o %dest%


TOC of the extracted CD

Track | Start | Length | Start sector | End sector
––––––––––––––––––––––––––––-
1 | 0:00.00 | 3:24.06 | 0 | 15305
2 | 3:24.06 | 6:53.69 | 15306 | 46349
3 | 10:18.00 | 4:05.67 | 46350 | 64791
4 | 14:23.67 | 4:45.20 | 64792 | 86186
5 | 19:09.12 | 5:20.60 | 86187 | 110246
6 | 24:29.72 | 8:18.60 | 110247 | 147656
7 | 32:48.57 | 6:23.54 | 147657 | 176435


Range status and errors

Selected range

Filename G:\CD\CD3 - Fireball.wav

Peak level 89.3 %
Extraction speed 5.2 X
Range quality 100.0 %
Test CRC A3BB2B9A
Copy CRC A3BB2B9A
Copy OK

No errors occurred


AccurateRip summary

Track 1 not present in database
Track 2 not present in database
Track 3 not present in database
Track 4 not present in database
Track 5 not present in database
Track 6 not present in database
Track 7 not present in database

None of the tracks are present in the AccurateRip database

End of status report

foobar2000 1.2.9 / Dynamic Range Meter 1.1.1
log date: 2013-12-30 09:28:56

––––––––––––––––––––––––––––––––––––––––
Analyzed: Deep Purple / Fireball
––––––––––––––––––––––––––––––––––––––––

DR Peak RMS Duration Track
––––––––––––––––––––––––––––––––––––––––
DR9 -1.81 dB -13.47 dB 3:24 01-Fireball
DR10 -1.07 dB -13.69 dB 6:54 02-No No No
DR10 -0.97 dB -12.82 dB 4:06 03-Strange Kind of Woman
DR10 -2.10 dB -15.45 dB 4:45 04-Anyone's Daughter
DR11 -3.07 dB -15.67 dB 5:21 05-The Mule
DR11 -4.09 dB -19.44 dB 8:19 06-Fools
DR11 -1.50 dB -14.33 dB 6:24 07-No One Came
––––––––––––––––––––––––––––––––––––––––

Number of tracks: 7
Official DR value: DR10

Samplerate: 44100 Hz
Channels: 2
Bits per sample: 16
Bitrate: 837 kbps
Codec: FLAC

===============

Deep Purple - The Complete Albums 1970-1976 [2013, 10CD, Rhino 8122796348] Re-up

CD4: Deep Purple - Machine Head (1972)
EAC | Flac(Image) + Cue + Log & MP3 CBR 320Kbps
2013 | Rhino 8122796348-4 | ~ 256 or 89 Mb | Scans(jpg, 600dpi) -> 119 Mb
Hard Rock

Led Zeppelin's fourth album, Black Sabbath's Paranoid, and Deep Purple's Machine Head have stood the test of time as the Holy Trinity of English hard rock and heavy metal, serving as the fundamental blueprints followed by virtually every heavy rock & roll band since the early '70s. And, though it is probably the least celebrated of the three, Machine Head contains the "mother of all guitar riffs" – and one of the first learned by every beginning guitarist – in "Smoke on the Water." Inspired by real-life events in Montreux, Switzerland, where Deep Purple were recording the album when the Montreux Casino was burned to the ground during a Frank Zappa concert, neither the song, nor its timeless riff, should need any further description. However, Machine Head was anything but a one-trick pony, introducing the bona fide classic opener "Highway Star," which epitomized all of Deep Purple's intensity and versatility while featuring perhaps the greatest soloing duel ever between guitarist Ritchie Blackmore and organist Jon Lord. Also in top form was singer Ian Gillan, who crooned and exploded with amazing power and range throughout to establish himself once and for all as one of the finest voices of his generation, bar none. Yes, the plodding shuffle of "Maybe I'm a Leo" shows some signs of age, but punchy singles "Pictures of Home" and "Never Before" remain as vital as ever, displaying Purple at their melodic best. And finally, the spectacular "Space Truckin'" drove Machine Head home with yet another tremendous Blackmore riff, providing a fitting conclusion to one of the essential hard rock albums of all time.

by Eduardo Rivadavia, AMG
Tracklist:

01. Highway Star - 6:07
02. Maybe I'm A Leo - 4:52
03. Pictures Of Home - 5:07
04. Never Before - 4:01
05. Smoke On The Water - 5:41
06. Lazy - 7:22
07. Space Truckin' - 4:33

Exact Audio Copy V1.0 beta 3 from 29. August 2011

EAC extraction logfile from 27. November 2013, 9:25

Deep Purple / Machine Head

Used drive : ATAPI iHAS124 B Adapter: 2 ID: 0

Read mode : Secure
Utilize accurate stream : Yes
Defeat audio cache : Yes
Make use of C2 pointers : No

Read offset correction : 6
Overread into Lead-In and Lead-Out : No
Fill up missing offset samples with silence : Yes
Delete leading and trailing silent blocks : No
Null samples used in CRC calculations : Yes
Used interface : Native Win32 interface for Win NT & 2000

Used output format : User Defined Encoder
Selected bitrate : 1024 kBit/s
Quality : High
Add ID3 tag : No
Command line compressor : C:\Program Files (x86)\Exact Audio Copy\FLAC\FLAC.EXE
Additional command line options : -8 -V -T "ARTIST=%artist%" -T "TITLE=%title%" -T "ALBUM=%albumtitle%" -T "DATE=%year%" -T "TRACKNUMBER=%tracknr%" -T "GENRE=%genre%" -T "PERFORMER=%albuminterpret%" -T "COMPOSER=%composer%" %haslyrics%–tag-from-file=LYRICS="%lyricsfile%"%haslyrics% -T "ALBUMARTIST=%albumartist%" -T "DISCNUMBER=%cdnumber%" -T "TOTALDISCS=%totalcds%" -T "TOTALTRACKS=%numtracks%" -T "COMMENT=%comment%" %source% -o %dest%


TOC of the extracted CD

Track | Start | Length | Start sector | End sector
––––––––––––––––––––––––––––-
1 | 0:00.00 | 6:07.30 | 0 | 27554
2 | 6:07.30 | 4:51.70 | 27555 | 49449
3 | 10:59.25 | 5:06.57 | 49450 | 72456
4 | 16:06.07 | 4:01.00 | 72457 | 90531
5 | 20:07.07 | 5:41.23 | 90532 | 116129
6 | 25:48.30 | 7:22.10 | 116130 | 149289
7 | 33:10.40 | 4:32.49 | 149290 | 169738


Range status and errors

Selected range

Filename G:\CD\CD4 - Machine Head.wav

Peak level 99.8 %
Extraction speed 5.1 X
Range quality 100.0 %
Test CRC A802A007
Copy CRC A802A007
Copy OK

No errors occurred


AccurateRip summary

Track 1 not present in database
Track 2 not present in database
Track 3 not present in database
Track 4 not present in database
Track 5 not present in database
Track 6 not present in database
Track 7 not present in database

None of the tracks are present in the AccurateRip database

End of status report

foobar2000 1.2.9 / Dynamic Range Meter 1.1.1
log date: 2013-12-30 09:29:13

––––––––––––––––––––––––––––––––––––––––
Analyzed: Deep Purple / Machine Head
––––––––––––––––––––––––––––––––––––––––

DR Peak RMS Duration Track
––––––––––––––––––––––––––––––––––––––––
DR10 -0.07 dB -13.35 dB 6:07 01-Highway Star
DR12 -0.02 dB -14.40 dB 4:52 02-Maybe I'm A Leo
DR11 -0.04 dB -13.53 dB 5:07 03-Pictures Of Home
DR10 -1.08 dB -14.44 dB 4:01 04-Never Before
DR12 -0.64 dB -14.84 dB 5:41 05-Smoke On The Water
DR11 -1.10 dB -14.80 dB 7:22 06-Lazy
DR12 -0.02 dB -14.17 dB 4:33 07-Space Truckin'
––––––––––––––––––––––––––––––––––––––––

Number of tracks: 7
Official DR value: DR11

Samplerate: 44100 Hz
Channels: 2
Bits per sample: 16
Bitrate: 895 kbps
Codec: FLAC

===============

Deep Purple - The Complete Albums 1970-1976 [2013, 10CD, Rhino 8122796348] Re-up

CD5: Deep Purple - Made In Japan (1972)
EAC | Flac(Image) + Cue + Log & MP3 CBR 320Kbps
2013 | Rhino 8122796348-5 | ~ 493 or 181 Mb | Scans(jpg, 600dpi) -> 119 Mb
Hard Rock

Recorded over three nights in August 1972, Deep Purple's Made in Japan was the record that brought the band to headliner status in the U.S. and elsewhere, and it remains a landmark in the history of heavy metal music. Since reorganizing with singer Ian Gillan and bassist Roger Glover in 1969, Deep Purple had recorded three important albums – Deep Purple in Rock, Fireball, and Machine Head – and used the material to build a fierce live show. Made in Japan, its selections drawn from those albums, documented that show, in which songs were drawn out to ten and even nearly 20 minutes with no less intensity, as guitarist Ritchie Blackmore and organist Jon Lord soloed extensively and Gillan sang in a screech that became the envy of all metal bands to follow. The signature song, of course, was "Smoke on the Water," with its memorable riff, which went on to become an American hit single. But those extended workouts, particularly the moody "Child in Time," with Gillan's haunting falsetto wail and Blackmore's amazingly fast playing, and "Space Truckin'," with Lord's organ effects, maintained the onslaught, making this a definitive treatment of the band's catalog and its most impressive album. By stretching out and going to extremes, Deep Purple pushed its music into the kind of deliberate excess that made heavy metal what it became, and their audience recognized the breakthrough, propelling the original double LP into the U.S. Top Ten and sales over a million copies.

by William Ruhlmann, AMG
Tracklist:

01. Highway Star - 6:51
02. Child In Time - 12:26
03. Smoke On The Water - 7:33
04. The Mule - 9:50
05. Strange Kind Of Woman - 9:27
06. Lazy - 11:01
07. Space Truckin' - 19:54

Exact Audio Copy V1.0 beta 3 from 29. August 2011

EAC extraction logfile from 27. November 2013, 18:54

Deep Purple / Made In Japan

Used drive : ATAPI iHAS124 B Adapter: 2 ID: 0

Read mode : Secure
Utilize accurate stream : Yes
Defeat audio cache : Yes
Make use of C2 pointers : No

Read offset correction : 6
Overread into Lead-In and Lead-Out : No
Fill up missing offset samples with silence : Yes
Delete leading and trailing silent blocks : No
Null samples used in CRC calculations : Yes
Used interface : Native Win32 interface for Win NT & 2000

Used output format : User Defined Encoder
Selected bitrate : 1024 kBit/s
Quality : High
Add ID3 tag : No
Command line compressor : C:\Program Files (x86)\Exact Audio Copy\FLAC\FLAC.EXE
Additional command line options : -8 -V -T "ARTIST=%artist%" -T "TITLE=%title%" -T "ALBUM=%albumtitle%" -T "DATE=%year%" -T "TRACKNUMBER=%tracknr%" -T "GENRE=%genre%" -T "PERFORMER=%albuminterpret%" -T "COMPOSER=%composer%" %haslyrics%–tag-from-file=LYRICS="%lyricsfile%"%haslyrics% -T "ALBUMARTIST=%albumartist%" -T "DISCNUMBER=%cdnumber%" -T "TOTALDISCS=%totalcds%" -T "TOTALTRACKS=%numtracks%" -T "COMMENT=%comment%" %source% -o %dest%


TOC of the extracted CD

Track | Start | Length | Start sector | End sector
––––––––––––––––––––––––––––-
1 | 0:00.00 | 6:51.06 | 0 | 30830
2 | 6:51.06 | 12:26.34 | 30831 | 86814
3 | 19:17.40 | 7:33.17 | 86815 | 120806
4 | 26:50.57 | 9:50.08 | 120807 | 165064
5 | 36:40.65 | 9:26.67 | 165065 | 207581
6 | 46:07.57 | 11:01.28 | 207582 | 257184
7 | 57:09.10 | 19:53.46 | 257185 | 346705


Range status and errors

Selected range

Filename G:\CD\CD5 - Made In Japan.wav

Peak level 98.2 %
Extraction speed 6.8 X
Range quality 99.9 %
Test CRC 60CDC287
Copy CRC 60CDC287
Copy OK

No errors occurred


AccurateRip summary

Track 1 not present in database
Track 2 not present in database
Track 3 not present in database
Track 4 not present in database
Track 5 not present in database
Track 6 not present in database
Track 7 not present in database

None of the tracks are present in the AccurateRip database

End of status report

foobar2000 1.2.9 / Dynamic Range Meter 1.1.1
log date: 2013-12-30 09:29:34

––––––––––––––––––––––––––––––––––––––––
Analyzed: Deep Purple / Made In Japan
––––––––––––––––––––––––––––––––––––––––

DR Peak RMS Duration Track
––––––––––––––––––––––––––––––––––––––––
DR10 -0.15 dB -12.12 dB 6:51 01-Highway Star
DR10 -0.84 dB -14.60 dB 12:26 02-Child In Time
DR12 -0.68 dB -15.38 dB 7:33 03-Smoke On The Water
DR13 -1.33 dB -17.75 dB 9:50 04-The Mule
DR10 -1.20 dB -14.39 dB 9:27 05-Strange Kind Of Woman
DR11 -1.25 dB -16.63 dB 11:01 06-Lazy
DR11 -0.28 dB -14.04 dB 19:54 07-Space Truckin'
––––––––––––––––––––––––––––––––––––––––

Number of tracks: 7
Official DR value: DR11

Samplerate: 44100 Hz
Channels: 2
Bits per sample: 16
Bitrate: 870 kbps
Codec: FLAC

===============

Deep Purple - The Complete Albums 1970-1976 [2013, 10CD, Rhino 8122796348] Re-up

CD6: Deep Purple - Who Do We Think We Are (1973)
EAC | Flac(Image) + Cue + Log & MP3 CBR 320Kbps
2013 | Rhino 8122796348-6 | ~ 256 or 82 Mb | Scans(jpg, 600dpi) -> 119 Mb
Hard Rock

Deep Purple had kicked off the '70s with a new lineup and a string of brilliant albums that quickly established them (along with fellow British giants Led Zeppelin and Black Sabbath) as a major force in the popularization of hard rock and heavy metal. All the while, their reputation as one of the decade's fiercest live units complemented this body of work and earned them almost instant legendary status. But with 1973's disappointing Who Do We Think We Are – the fourth and final studio outing by the original run of Purple's classic Mark II lineup – all the fire and inspiration that had made the previous year's Machine Head their greatest triumph mysteriously vanished from sight. Vastly inferior to all three of its famous predecessors, the album revealed an exhausted band clearly splintering at the seams. Except for opener "Woman From Tokyo," which hinted at glories past with its signature Ritchie Blackmore riff, the album's remaining cuts are wildly inconsistent and find the band simply going through the motions. In fact, many of these don't so much resemble songs as loose jam sessions quickly thrown together in the studio with varying degrees of enthusiasm. "Mary Long" and "Super Trouper" are prime examples, featuring generic solos from Blackmore and organist Jon Lord, and uncharacteristically inane lyrics from soon-to-be former singer Ian Gillan. With its start-stop rhythm and Gillan's fine scat singing, the energetic "Rat Bat Blue" is a memorable exception to the rule, but the yawn-inducing blues of "Place in the Line" and the gospel mediocrity of "Our Lady" bring the album to a close with a whimper rather than a shout.

by Eduardo Rivadavia, AMG
Tracklist:

01. Woman From Tokyo - 5:51
02. Mary Long - 4:27
03. Super Trouper - 2:57
04. Smooth Dancer - 4:12
05. Rat Rat Blue - 5:28
06. Place in Line - 6:33
07. Our Lady - 5:13

Exact Audio Copy V1.0 beta 3 from 29. August 2011

EAC extraction logfile from 29. November 2013, 11:32

Deep Purple / Who Do We Think We Are

Used drive : ATAPI iHAS124 B Adapter: 2 ID: 0

Read mode : Secure
Utilize accurate stream : Yes
Defeat audio cache : Yes
Make use of C2 pointers : No

Read offset correction : 6
Overread into Lead-In and Lead-Out : No
Fill up missing offset samples with silence : Yes
Delete leading and trailing silent blocks : No
Null samples used in CRC calculations : Yes
Used interface : Native Win32 interface for Win NT & 2000

Used output format : User Defined Encoder
Selected bitrate : 1024 kBit/s
Quality : High
Add ID3 tag : No
Command line compressor : C:\Program Files (x86)\Exact Audio Copy\FLAC\FLAC.EXE
Additional command line options : -8 -V -T "ARTIST=%artist%" -T "TITLE=%title%" -T "ALBUM=%albumtitle%" -T "DATE=%year%" -T "TRACKNUMBER=%tracknr%" -T "GENRE=%genre%" -T "PERFORMER=%albuminterpret%" -T "COMPOSER=%composer%" %haslyrics%–tag-from-file=LYRICS="%lyricsfile%"%haslyrics% -T "ALBUMARTIST=%albumartist%" -T "DISCNUMBER=%cdnumber%" -T "TOTALDISCS=%totalcds%" -T "TOTALTRACKS=%numtracks%" -T "COMMENT=%comment%" %source% -o %dest%


TOC of the extracted CD

Track | Start | Length | Start sector | End sector
––––––––––––––––––––––––––––-
1 | 0:00.00 | 5:50.72 | 0 | 26321
2 | 5:50.72 | 4:26.60 | 26322 | 46331
3 | 10:17.57 | 2:56.60 | 46332 | 59591
4 | 13:14.42 | 4:11.73 | 59592 | 78489
5 | 17:26.40 | 5:27.42 | 78490 | 103056
6 | 22:54.07 | 6:32.65 | 103057 | 132521
7 | 29:26.72 | 5:12.46 | 132522 | 155967


Range status and errors

Selected range

Filename G:\CD\CD6 - Who Do We Think We Are.wav

Peak level 97.7 %
Extraction speed 5.0 X
Range quality 100.0 %
Test CRC E8A6EE05
Copy CRC E8A6EE05
Copy OK

No errors occurred


AccurateRip summary

Track 1 not present in database
Track 2 not present in database
Track 3 not present in database
Track 4 not present in database
Track 5 not present in database
Track 6 not present in database
Track 7 not present in database

None of the tracks are present in the AccurateRip database

End of status report

foobar2000 1.2.9 / Dynamic Range Meter 1.1.1
log date: 2013-12-30 09:29:52

––––––––––––––––––––––––––––––––––––––––
Analyzed: Deep Purple / Who Do We Think We Are
––––––––––––––––––––––––––––––––––––––––

DR Peak RMS Duration Track
––––––––––––––––––––––––––––––––––––––––
DR11 -0.32 dB -14.36 dB 5:51 01-Woman From Tokyo
DR10 -0.96 dB -13.00 dB 4:27 02-Mary Long
DR11 -0.31 dB -13.96 dB 2:57 03-Super Trouper
DR11 -0.20 dB -12.85 dB 4:12 04-Smooth Dancer
DR12 -0.20 dB -13.84 dB 5:28 05-Rat Rat Blue
DR12 -0.20 dB -15.43 dB 6:33 06-Place in Line
DR12 -0.55 dB -14.85 dB 5:13 07-Our Lady
––––––––––––––––––––––––––––––––––––––––

Number of tracks: 7
Official DR value: DR11

Samplerate: 44100 Hz
Channels: 2
Bits per sample: 16
Bitrate: 957 kbps
Codec: FLAC

===============

Deep Purple - The Complete Albums 1970-1976 [2013, 10CD, Rhino 8122796348] Re-up

CD7: Deep Purple - Burn (1974)
EAC | Flac(Image) + Cue + Log & MP3 CBR 320Kbps
2013 | Rhino 8122796348-7 | ~ 300 or 103 Mb | Scans(jpg, 600dpi) -> 119 Mb
Hard Rock

Although it shook the band's fan base to its core, the acrimonious departure of vocalist Ian Gillan and bassist Roger Glover served to rejuvenate Deep Purple in time for 1973's aptly named Burn album, which unquestionably showed huge improvement over their lackluster previous effort, Who Do We Think We Are. And in an interesting twist rarely attempted before or since, new recruits David Coverdale (vocals) and Glenn Hughes (bass and vocals, ex-Trapeze) traded lead singing duties on virtually every one of its songs – an enviable tag team, as both possessed exceptional pipes. The phenomenal title track started things off at full throttle, actually challenging the seminal "Highway Star" for the honor of best opener to any Deep Purple album, while showcasing the always impressive drumming of Ian Paice. Up next, the intro to the equally timeless "Might Just Take Your Life," however simple from a technical perspective, remains one of organist Jon Lord's signature moments; and the downright nasty "Lay Down, Stay Down" roared behind wildly careening starts and stops and a fantastic Ritchie Blackmore guitar solo which left no doubt as to who was the band's primal force, regardless of lineup. Moving right along, though it was rarely included in later-day greatest hits sets, "What's Going on Here" was about as good a single as Purple ever wrote; "You Fool No One" was compelling for its sheer intensity; and the funky "Sail Away" was a sign of the band's direction in years to come. Lastly, the fantastic slow-boiling blues of "Mistreated" closed the album proper (let's ignore the record's only throw-away track – boring final instrumental "A 200") with a command solo performance from Coverdale, as nuanced and sensitive as it was devastating. So impassioned was the singer's delivery, in fact, that the song would remain his personal, in-concert trademark with Whitesnake, long after his tenure with Deep Purple came to a close. Like the vast majority of Burn this song's greatness qualifies it for the highest echelons of hard rock achievement, and therefore ranks as an essential item in the discography of any self-respecting music fan.

by Eduardo Rivadavia, AMG
Tracklist:

01. Burn - 6:03
02. Might Just Take Your Life - 4:40
03. Lay Down, Stay Down - 4:21
04. Sail Away - 5:51
05. You Fool No One - 4:48
06. What's Goin' On Here - 4:58
07. Mistreated - 7:30
08. -A- 200 - 4:06

Exact Audio Copy V1.0 beta 3 from 29. August 2011

EAC extraction logfile from 29. November 2013, 21:55

Deep Purple / Burn

Used drive : ATAPI iHAS124 B Adapter: 2 ID: 0

Read mode : Secure
Utilize accurate stream : Yes
Defeat audio cache : Yes
Make use of C2 pointers : No

Read offset correction : 6
Overread into Lead-In and Lead-Out : No
Fill up missing offset samples with silence : Yes
Delete leading and trailing silent blocks : No
Null samples used in CRC calculations : Yes
Used interface : Native Win32 interface for Win NT & 2000

Used output format : User Defined Encoder
Selected bitrate : 1024 kBit/s
Quality : High
Add ID3 tag : No
Command line compressor : C:\Program Files (x86)\Exact Audio Copy\FLAC\FLAC.EXE
Additional command line options : -8 -V -T "ARTIST=%artist%" -T "TITLE=%title%" -T "ALBUM=%albumtitle%" -T "DATE=%year%" -T "TRACKNUMBER=%tracknr%" -T "GENRE=%genre%" -T "PERFORMER=%albuminterpret%" -T "COMPOSER=%composer%" %haslyrics%–tag-from-file=LYRICS="%lyricsfile%"%haslyrics% -T "ALBUMARTIST=%albumartist%" -T "DISCNUMBER=%cdnumber%" -T "TOTALDISCS=%totalcds%" -T "TOTALTRACKS=%numtracks%" -T "COMMENT=%comment%" %source% -o %dest%


TOC of the extracted CD

Track | Start | Length | Start sector | End sector
––––––––––––––––––––––––––––-
1 | 0:00.00 | 6:03.34 | 0 | 27258
2 | 6:03.34 | 4:40.13 | 27259 | 48271
3 | 10:43.47 | 4:20.65 | 48272 | 67836
4 | 15:04.37 | 5:51.03 | 67837 | 94164
5 | 20:55.40 | 4:48.12 | 94165 | 115776
6 | 25:43.52 | 4:58.20 | 115777 | 138146
7 | 30:41.72 | 7:30.00 | 138147 | 171896
8 | 38:11.72 | 4:06.25 | 171897 | 190371


Range status and errors

Selected range

Filename G:\CD\CD7 - Burn.wav

Peak level 97.7 %
Extraction speed 5.3 X
Range quality 100.0 %
Test CRC 349065FF
Copy CRC 349065FF
Copy OK

No errors occurred


AccurateRip summary

Track 1 not present in database
Track 2 not present in database
Track 3 not present in database
Track 4 not present in database
Track 5 not present in database
Track 6 not present in database
Track 7 not present in database
Track 8 not present in database

None of the tracks are present in the AccurateRip database

End of status report

foobar2000 1.2.9 / Dynamic Range Meter 1.1.1
log date: 2013-12-30 09:30:08

––––––––––––––––––––––––––––––––––––––––
Analyzed: Deep Purple / Burn
––––––––––––––––––––––––––––––––––––––––

DR Peak RMS Duration Track
––––––––––––––––––––––––––––––––––––––––
DR11 -0.20 dB -13.55 dB 6:03 01-Burn
DR10 -0.20 dB -12.40 dB 4:40 02-Might Just Take Your Life
DR11 -0.20 dB -12.67 dB 4:21 03-Lay Down, Stay Down
DR10 -0.20 dB -12.38 dB 5:51 04-Sail Away
DR11 -0.20 dB -12.97 dB 4:48 05-You Fool No One
DR11 -0.20 dB -13.18 dB 4:58 06-What's Goin' On Here
DR12 -0.20 dB -14.88 dB 7:30 07-Mistreated
DR10 -1.20 dB -13.38 dB 4:06 08–A- 200
––––––––––––––––––––––––––––––––––––––––

Number of tracks: 8
Official DR value: DR11

Samplerate: 44100 Hz
Channels: 2
Bits per sample: 16
Bitrate: 962 kbps
Codec: FLAC

===============

Deep Purple - The 			  		  		  	 			   		  	   		   	  		 	 	  	 			   		   	  		 			  		 			  	 			   		   	  		 			  		   				 Complete Albums 1970-1976 [2013, 10CD, Rhino 8122796348] Re-up

CD8: Deep Purple - Stormbringer (1974)
EAC | Flac(Image) + Cue + Log & MP3 CBR 320Kbps
2013 | Rhino 8122796348-8 | ~ 252 or 86 Mb | Scans(jpg, 600dpi) -> 119 Mb
Hard Rock

Stormbringer falls short of the excellence of Machine Head and Who Do We Think We Are, but nonetheless boasts some definite classics – including the fiery "Lady Double Dealer," the ominous title song (a goth metal treasure), the sweaty "High Ball Shooter," and the melancholy ballad "Soldier of Fortune." Most of the other songs on the decent, if uneven, Stormbringer (which Metal Blade reissued on CD in the early '90s) are not essential. Like Come Taste the Band, Stormbringer will be of interest to Deep Purple's more enthusiastic fans, rather than casual listeners who would be much better off starting out with either of the above-mentioned studio projects or the live Made in Japan.

by Alex Henderson, AMG
Tracklist:

01. Stormbringer - 4:05
02. Love Don't Mean A Thing - 4:23
03. Holy Man - 4:29
04. Hold On - 5:05
05. Lady Double Dealer - 3:21
06. You Can't Do It Right (With The One You Love) - 3:25
07. High Ball Shooter - 4:28
08. The Gypsy - 4:04
09. Soldier Of Fortune - 3:14

Exact Audio Copy V1.0 beta 3 from 29. August 2011

EAC extraction logfile from 30. November 2013, 1:40

Deep Purple / Stormbringer

Used drive : ATAPI iHAS124 B Adapter: 2 ID: 0

Read mode : Secure
Utilize accurate stream : Yes
Defeat audio cache : Yes
Make use of C2 pointers : No

Read offset correction : 6
Overread into Lead-In and Lead-Out : No
Fill up missing offset samples with silence : Yes
Delete leading and trailing silent blocks : No
Null samples used in CRC calculations : Yes
Used interface : Native Win32 interface for Win NT & 2000

Used output format : User Defined Encoder
Selected bitrate : 1024 kBit/s
Quality : High
Add ID3 tag : No
Command line compressor : C:\Program Files (x86)\Exact Audio Copy\FLAC\FLAC.EXE
Additional command line options : -8 -V -T "ARTIST=%artist%" -T "TITLE=%title%" -T "ALBUM=%albumtitle%" -T "DATE=%year%" -T "TRACKNUMBER=%tracknr%" -T "GENRE=%genre%" -T "PERFORMER=%albuminterpret%" -T "COMPOSER=%composer%" %haslyrics%–tag-from-file=LYRICS="%lyricsfile%"%haslyrics% -T "ALBUMARTIST=%albumartist%" -T "DISCNUMBER=%cdnumber%" -T "TOTALDISCS=%totalcds%" -T "TOTALTRACKS=%numtracks%" -T "COMMENT=%comment%" %source% -o %dest%


TOC of the extracted CD

Track | Start | Length | Start sector | End sector
––––––––––––––––––––––––––––-
1 | 0:00.00 | 4:04.60 | 0 | 18359
2 | 4:04.60 | 4:22.40 | 18360 | 38049
3 | 8:27.25 | 4:28.52 | 38050 | 58201
4 | 12:56.02 | 5:05.13 | 58202 | 81089
5 | 18:01.15 | 3:20.72 | 81090 | 96161
6 | 21:22.12 | 3:25.13 | 96162 | 111549
7 | 24:47.25 | 4:27.50 | 111550 | 131624
8 | 29:15.00 | 4:04.02 | 131625 | 149926
9 | 33:19.02 | 3:14.03 | 149927 | 164479


Range status and errors

Selected range

Filename G:\CD\CD8 - Stormbringer.wav

Peak level 96.4 %
Extraction speed 5.1 X
Range quality 100.0 %
Test CRC 5C40A8BC
Copy CRC 5C40A8BC
Copy OK

No errors occurred


AccurateRip summary

Track 1 not present in database
Track 2 not present in database
Track 3 not present in database
Track 4 not present in database
Track 5 not present in database
Track 6 not present in database
Track 7 not present in database
Track 8 not present in database
Track 9 not present in database

None of the tracks are present in the AccurateRip database

End of status report

foobar2000 1.2.9 / Dynamic Range Meter 1.1.1
log date: 2013-12-30 09:30:24

––––––––––––––––––––––––––––––––––––––––
Analyzed: Deep Purple / Stormbringer
––––––––––––––––––––––––––––––––––––––––

DR Peak RMS Duration Track
––––––––––––––––––––––––––––––––––––––––
DR12 -0.97 dB -14.89 dB 4:05 01-Stormbringer
DR12 -0.31 dB -15.35 dB 4:23 02-Love Don't Mean A Thing
DR11 -0.89 dB -15.94 dB 4:29 03-Holy Man
DR12 -1.65 dB -15.95 dB 5:05 04-Hold On
DR11 -1.35 dB -14.31 dB 3:21 05-Lady Double Dealer
DR12 -0.62 dB -14.52 dB 3:25 06-You Can't Do It Right (With The One You Love)
DR12 -1.75 dB -15.28 dB 4:28 07-High Ball Shooter
DR12 -1.66 dB -15.18 dB 4:04 08-The Gypsy
DR13 -1.14 dB -16.10 dB 3:14 09-Soldier Of Fortune
––––––––––––––––––––––––––––––––––––––––

Number of tracks: 9
Official DR value: DR12

Samplerate: 44100 Hz
Channels: 2
Bits per sample: 16
Bitrate: 894 kbps
Codec: FLAC

===============

Deep Purple - The Complete Albums 1970-1976 [2013, 10CD, Rhino 8122796348] Re-up

CD9: Deep Purple - Come Taste The Band (1975)
EAC | Flac(Image) + Cue + Log & MP3 CBR 320Kbps
2013 | Rhino 8122796348-9 | ~ 255 or 87 Mb | Scans(jpg, 600dpi) -> 119 Mb
Hard Rock

When Ritchie Blackmore departed Deep Purple in the mid-'70s and formed Rainbow (which featured Ronnie James Dio), his replacement was Tommy Bolin. To be sure, Blackmore was a darn tough act to follow, but Bolin proved himself to be a fine guitarist in his own right on Come Taste the Band, his first album with Deep Purple. But unfortunately, Bolin didn't have exceptional material to work with – decent and likable, but hardly exceptional. While sweaty yet melodic cuts like "Dealer," "Lady Luck," and "You Keep on Moving" are far from bad, nothing here is in a class with "Smoke on the Water" or "Highway Star." Deep Purple's more hardcore devotees will want this album, though it's far from the best representation of their '70s work.

by Alex Henderson, AMG
Tracklist:

01. Comin' Home - 3:52
02. Lady Luck - 2:46
03. Gettin' Tighter - 3:36
04. Dealer - 3:49
05. I Need Love - 4:21
06. Drifter - 4:01
07. Love Child - 3:06
08. This Time Around / Owed To 'G' (Instrumental) - 6:09
09. You Keep On Moving - 5:19

Exact Audio Copy V1.0 beta 3 from 29. August 2011

EAC extraction logfile from 3. December 2013, 21:17

Deep Purple / Come Taste The Band

Used drive : ATAPI iHAS124 B Adapter: 2 ID: 0

Read mode : Secure
Utilize accurate stream : Yes
Defeat audio cache : Yes
Make use of C2 pointers : No

Read offset correction : 6
Overread into Lead-In and Lead-Out : No
Fill up missing offset samples with silence : Yes
Delete leading and trailing silent blocks : No
Null samples used in CRC calculations : Yes
Used interface : Native Win32 interface for Win NT & 2000

Used output format : User Defined Encoder
Selected bitrate : 1024 kBit/s
Quality : High
Add ID3 tag : No
Command line compressor : C:\Program Files (x86)\Exact Audio Copy\FLAC\FLAC.EXE
Additional command line options : -8 -V -T "ARTIST=%artist%" -T "TITLE=%title%" -T "ALBUM=%albumtitle%" -T "DATE=%year%" -T "TRACKNUMBER=%tracknr%" -T "GENRE=%genre%" -T "PERFORMER=%albuminterpret%" -T "COMPOSER=%composer%" %haslyrics%–tag-from-file=LYRICS="%lyricsfile%"%haslyrics% -T "ALBUMARTIST=%albumartist%" -T "DISCNUMBER=%cdnumber%" -T "TOTALDISCS=%totalcds%" -T "TOTALTRACKS=%numtracks%" -T "COMMENT=%comment%" %source% -o %dest%


TOC of the extracted CD

Track | Start | Length | Start sector | End sector
––––––––––––––––––––––––––––-
1 | 0:00.00 | 3:52.15 | 0 | 17414
2 | 3:52.15 | 2:46.07 | 17415 | 29871
3 | 6:38.22 | 3:35.53 | 29872 | 46049
4 | 10:14.00 | 3:48.65 | 46050 | 63214
5 | 14:02.65 | 4:21.25 | 63215 | 82814
6 | 18:24.15 | 4:01.11 | 82815 | 100900
7 | 22:25.26 | 3:05.74 | 100901 | 114849
8 | 25:31.25 | 6:08.42 | 114850 | 142491
9 | 31:39.67 | 5:18.73 | 142492 | 166414


Range status and errors

Selected range

Filename G:\CD\CD9 - Come Taste The Band.wav

Peak level 96.6 %
Extraction speed 5.1 X
Range quality 100.0 %
Test CRC C16FF225
Copy CRC C16FF225
Copy OK

No errors occurred


AccurateRip summary

Track 1 accurately ripped (confidence 1) [9643EDBC] (AR v2)
Track 2 accurately ripped (confidence 1) [BE3C61AB] (AR v2)
Track 3 accurately ripped (confidence 1) [A9ECC9EE] (AR v2)
Track 4 accurately ripped (confidence 1) [75F1FDE9] (AR v2)
Track 5 accurately ripped (confidence 1) [2CB38392] (AR v2)
Track 6 accurately ripped (confidence 1) [1185B005] (AR v2)
Track 7 accurately ripped (confidence 1) [DFDA00BD] (AR v2)
Track 8 accurately ripped (confidence 1) [8A9BB21C] (AR v2)
Track 9 accurately ripped (confidence 1) [8DD7A1DA] (AR v2)

All tracks accurately ripped

End of status report

foobar2000 1.2.9 / Dynamic Range Meter 1.1.1
log date: 2013-12-30 09:30:41

––––––––––––––––––––––––––––––––––––––––
Analyzed: Deep Purple / Come Taste The Band
––––––––––––––––––––––––––––––––––––––––

DR Peak RMS Duration Track
––––––––––––––––––––––––––––––––––––––––
DR11 -0.29 dB -13.95 dB 3:52 01-Comin' Home
DR12 -0.86 dB -14.61 dB 2:46 02-Lady Luck
DR12 -0.39 dB -15.46 dB 3:36 03-Gettin' Tighter
DR12 -1.42 dB -15.81 dB 3:49 04-Dealer
DR13 -0.81 dB -16.76 dB 4:21 05-I Need Love
DR12 -1.08 dB -16.03 dB 4:01 06-Drifter
DR13 -2.43 dB -16.60 dB 3:06 07-Love Child
DR13 -1.45 dB -17.33 dB 6:09 08-This Time Around / Owed To 'G' (Instrumental)
DR12 -0.43 dB -17.21 dB 5:19 09-You Keep On Moving
––––––––––––––––––––––––––––––––––––––––

Number of tracks: 9
Official DR value: DR12

Samplerate: 44100 Hz
Channels: 2
Bits per sample: 16
Bitrate: 911 kbps
Codec: FLAC

===============

Deep Purple - The Complete Albums 1970-1976 [2013, 10CD, Rhino 8122796348] Re-up

CD10: Deep Purple - Made in Europe (1976)
EAC | Flac(Image) + Cue + Log & MP3 CBR 320Kbps
2013 | Rhino 8122796348-10 | ~ 286 or 108 Mb | Scans(jpg, 600dpi) -> 119 Mb
Hard Rock

This live recording, made in 1975, comes from Ritchie Blackmore's last three concerts with the band before leaving to form Rainbow. It features Deep Purple Mark III, with David Coverdale on vocals and Glenn Hughes on bass and vocals. Coverdale is a convincing hard rock singer, though he lacks the winning quirkiness of Ian Gillan, while Hughes is a busier and more up-front player than Roger Glover. While "Burn" and "Mistreated" are worthy successors to previous Deep Purple tunes, the remaining material is weaker, and overall, this stuff is definitely a couple of notches below the glory days of Made in Japan. But Blackmore, for his swan song, still manages to inject a good deal of excitement, and his invention and fire raise the proceedings up somewhat.

by Stephen Raiteri, AMG
Tracklist:

01. Burn - 7:30
02. Mistreated - 11:44
03. Lady Double Dealer - 4:18
04. You Fool No One - 16:45
05. Stormbringer - 5:35

Exact Audio Copy V1.0 beta 3 from 29. August 2011

EAC extraction logfile from 30. November 2013, 8:46

Deep Purple / Made in Europe

Used drive : ATAPI iHAS124 B Adapter: 2 ID: 0

Read mode : Secure
Utilize accurate stream : Yes
Defeat audio cache : Yes
Make use of C2 pointers : No

Read offset correction : 6
Overread into Lead-In and Lead-Out : No
Fill up missing offset samples with silence : Yes
Delete leading and trailing silent blocks : No
Null samples used in CRC calculations : Yes
Used interface : Native Win32 interface for Win NT & 2000

Used output format : User Defined Encoder
Selected bitrate : 1024 kBit/s
Quality : High
Add ID3 tag : No
Command line compressor : C:\Program Files (x86)\Exact Audio Copy\FLAC\FLAC.EXE
Additional command line options : -8 -V -T "ARTIST=%artist%" -T "TITLE=%title%" -T "ALBUM=%albumtitle%" -T "DATE=%year%" -T "TRACKNUMBER=%tracknr%" -T "GENRE=%genre%" -T "PERFORMER=%albuminterpret%" -T "COMPOSER=%composer%" %haslyrics%–tag-from-file=LYRICS="%lyricsfile%"%haslyrics% -T "ALBUMARTIST=%albumartist%" -T "DISCNUMBER=%cdnumber%" -T "TOTALDISCS=%totalcds%" -T "TOTALTRACKS=%numtracks%" -T "COMMENT=%comment%" %source% -o %dest%


TOC of the extracted CD

Track | Start | Length | Start sector | End sector
––––––––––––––––––––––––––––-
1 | 0:00.00 | 7:29.62 | 0 | 33736
2 | 7:29.62 | 11:44.20 | 33737 | 86556
3 | 19:14.07 | 4:18.23 | 86557 | 105929
4 | 23:32.30 | 16:44.45 | 105930 | 181274
5 | 40:17.00 | 5:34.40 | 181275 | 206364


Range status and errors

Selected range

Filename G:\CD\CD10 - Made in Europe.wav

Peak level 98.8 %
Extraction speed 5.4 X
Range quality 100.0 %
Test CRC 5A23E3D0
Copy CRC 5A23E3D0
Copy OK

No errors occurred


AccurateRip summary

Track 1 not present in database
Track 2 not present in database
Track 3 not present in database
Track 4 not present in database
Track 5 not present in database

None of the tracks are present in the AccurateRip database

End of status report

foobar2000 1.2.9 / Dynamic Range Meter 1.1.1
log date: 2013-12-30 09:30:57

––––––––––––––––––––––––––––––––––––––––
Analyzed: Deep Purple / Made in Europe
––––––––––––––––––––––––––––––––––––––––

DR Peak RMS Duration Track
––––––––––––––––––––––––––––––––––––––––
DR13 -0.10 dB -14.83 dB 7:30 01-Burn
DR12 -0.27 dB -16.17 dB 11:44 02-Mistreated
DR12 -0.41 dB -13.79 dB 4:18 03-Lady Double Dealer
DR12 -0.10 dB -16.07 dB 16:45 04-You Fool No One
DR11 -0.10 dB -13.68 dB 5:35 05-Stormbringer
––––––––––––––––––––––––––––––––––––––––

Number of tracks: 5
Official DR value: DR12

Samplerate: 44100 Hz
Channels: 2
Bits per sample: 16
Bitrate: 848 kbps
Codec: FLAC

Deep Purple - The Complete Albums 1970-1976 [2013, 10CD, Rhino 8122796348] Re-up

–––-

All thanks go to gerrV