Subcategories

Delaney & Bonnie & Friends - On Tour With Eric Clapton (1970)

Posted By: Designol
Delaney & Bonnie & Friends - On Tour With Eric Clapton (1970)

Delaney & Bonnie & Friends - On Tour With Eric Clapton (1970)
EAC | FLAC | Image (Cue&Log) ~ 300 Mb | Mp3 (CBR320) ~ 132 Mb | Scans included
Blue-Eyed Soul, Blues Rock, Classic Rock | Label: ATCO | # 7567-90397-2 | Time: 00:42:36

This 42-minute, eight-song live album, cut at Croydon late in 1969, is not only the peak of Delaney & Bonnie's output, but also the nexus in the recording and performing careers of Eric Clapton and George Harrison. On Tour features Clapton performing the same blend of country, blues, and gospel that would characterize his own early solo ventures in 1970. He rises to the occasion with dazzling displays of virtuosity throughout, highlighted by a dizzying solo on "I Don't Want to Discuss," a long, languid part on "Only You Know and I Know," and searing, soulful lead on the beautifully harmonized "Coming Home." Vocally, Delaney & Bonnie were never better than they come off on this live set, and the 11-piece band sounds tighter musically than a lot of quartets that were working at the time, whether they're playing extended blues or ripping through a medley of Little Richard songs. It's no accident that the band featured here would become Clapton's own studio outfit for his debut solo LP, or that the core of this group – Bobby Whitlock, Carl Radle, and Jim Gordon – would transform itself into Derek & the Dominoes as well; or that most of the full band here would also comprise the group that played with George Harrison on All Things Must Pass and at the Concert for Bangladesh, except that the playing here (not to mention the recording) is better. Half the musicians on this record achieved near-superstar status less than a year later, and although the reasons behind their fame didn't last, listening to their work decades later, it all seems justified.

Review by Bruce Eder, Allmusic.com

Delaney & Bonnie & Friends - On Tour With Eric Clapton (1970)



Tracklist:

01. Things Get Better (04:19)
02. Poor Elijah - Tribute To Johnson (Medley) (05:09)
03. Only You Know And I Know (04:43)
04. I Don't Want To Discuss It (05:35)
05. That's What My Man Is For (04:37)
06. Where There's A Will, There's A Way (05:20)
07. Coming Home (06:52)
08. Little Richard Medley (05:57)


Exact Audio Copy V1.1 from 23. June 2015

Отчёт EAC об извлечении, выполненном 25. мая 2016, 19:06

Delaney & Bonnie & Friends / On Tour With Eric Clapton

Дисковод: SONY CD-RW CRX230ED Adapter: 1 ID: 0

Режим чтения : Достоверность
Использование точного потока : Да
Отключение кэша аудио : Да
Использование указателей C2 : Нет

Коррекция смещения при чтении : 6
Способность читать области Lead-in и Lead-out : Нет
Заполнение пропущенных сэмплов тишиной : Да
Удаление блоков с тишиной в начале и конце : Нет
При вычислениях CRC использовались нулевые сэмплы : Да
Интерфейс : Встроенный Win32-интерфейс для Win NT/2000

Выходной формат : Внутренние WAV-операции
Формат сэмплов : 44.100 Гц; 16 бит; стерео


TOC извлечённого CD

Трек | Старт | Длительность | Начальный сектор | Конечный сектор
––––––––––––––––––––––––––––––––––-
1 | 0:00.00 | 4:19.62 | 0 | 19486
2 | 4:19.62 | 5:09.68 | 19487 | 42729
3 | 9:29.55 | 4:43.02 | 42730 | 63956
4 | 14:12.57 | 5:35.45 | 63957 | 89126
5 | 19:48.27 | 4:37.38 | 89127 | 109939
6 | 24:25.65 | 5:20.15 | 109940 | 133954
7 | 29:46.05 | 6:52.20 | 133955 | 164874
8 | 36:38.25 | 5:57.62 | 164875 | 191711


Характеристики диапазона извлечения и сообщения об ошибках

Выбранный диапазон

Имя файла F:\MusicCD\Torrent\Delaney & Bonnie & Friends - On Tour With Eric Clapton\Delaney & Bonnie & Friends - On Tour With Eric Clapton.wav

Пиковый уровень 100.0 %
Скорость извлечения 7.0 X
Качество диапазона 100.0 %
CRC теста AAAC61A5
CRC копии AAAC61A5
Копирование… OK

Ошибок не произошло


AccurateRip: сводка

Трек 1 : извлечено точно (доверие 27) [5B2F5203] (AR v2)
Трек 2 : извлечено точно (доверие 27) [05B4E8E8] (AR v2)
Трек 3 : извлечено точно (доверие 27) [F48062BD] (AR v2)
Трек 4 : извлечено точно (доверие 27) [4245A085] (AR v2)
Трек 5 : извлечено точно (доверие 27) [DC62D5D1] (AR v2)
Трек 6 : извлечено точно (доверие 27) [06D5B3DB] (AR v2)
Трек 7 : извлечено точно (доверие 27) [235BDD56] (AR v2)
Трек 8 : извлечено точно (доверие 27) [F1F8A92D] (AR v2)

Все треки извлечены точно

Конец отчёта

–– CUETools DB Plugin V2.1.6

[CTDB TOCID: dzX8JT1H2r1nwJxri5wJMqpmAWE-] found
Submit result: already submitted
Track | CTDB Status
1 | (47/47) Accurately ripped
2 | (47/47) Accurately ripped
3 | (46/47) Accurately ripped
4 | (47/47) Accurately ripped
5 | (46/47) Accurately ripped
6 | (47/47) Accurately ripped
7 | (47/47) Accurately ripped
8 | (46/47) Accurately ripped


==== Контрольная сумма отчёта 57B533D68B034C2C289CCB188AF312ADC944D7118E387391C4B6032A6C5D268A ====

foobar2000 1.2 / Dynamic Range Meter 1.1.1
log date: 2016-05-27 12:18:33

––––––––––––––––––––––––––––––––––––––––
Analyzed: Delaney & Bonnie & Friends / On Tour With Eric Clapton
––––––––––––––––––––––––––––––––––––––––

DR Peak RMS Duration Track
––––––––––––––––––––––––––––––––––––––––
DR10 -1.25 dB -14.06 dB 4:20 01-Things Get Better
DR11 -0.94 dB -15.35 dB 5:10 02-Poor Elijah - Tribute To Johnson (Medley)
DR10 -1.20 dB -13.54 dB 4:43 03-Only You Know And I Know
DR11 -0.71 dB -13.13 dB 5:36 04-I Don't Want To Discuss It
DR12 -0.94 dB -15.06 dB 4:38 05-That's What My Man Is For
DR12 -0.58 dB -15.41 dB 5:20 06-Where There's A Will, There's A Way
DR12 0.00 dB -14.83 dB 6:52 07-Coming Home
DR12 0.00 dB -13.49 dB 5:58 08-Little Richard Medley
––––––––––––––––––––––––––––––––––––––––

Number of tracks: 8
Official DR value: DR11

Samplerate: 44100 Hz
Channels: 2
Bits per sample: 16
Bitrate: 873 kbps
Codec: FLAC
================================================================================

Delaney & Bonnie & Friends - On Tour With Eric Clapton (1970)

Delaney & Bonnie & Friends - On Tour With Eric Clapton (1970)