Tags
Language
Tags

Deodato - Knights Of Fantasy / Night Cruiser (1979/1980) {Wounded Bird}

Posted By: tiburon
Deodato - Knights Of Fantasy / Night Cruiser (1979/1980) {Wounded Bird}

Deodato - Knights Of Fantasy / Night Cruiser (1979/1980) {Wounded Bird}
EAC 0.99pb5 | FLAC tracks level 8 | Cue+Log+M3U | Full Scans 300dpi | 404MB + 5% Recovery
MP3 CBR 320 Kbps | 160MB + 5% Recovery
Genre: Jazz-Funk, Funk
Deodato - Knights Of Fantasy / Night Cruiser (1979/1980) {Wounded Bird}

This Wounded Bird two-fer packages together two of Deodato's transitional albums from 1979 and 1980, when he was actively pursuing chart success and radio play in the United States. Knights of Fantasy, from 1979, contains trace elements of the Brazilian producer and composer's fusion persona while melding them with disco and lite funk – as many other jazzmen were also doing at the time, from Lonnie Liston Smith to the Crusaders. Fine for the dancefloor or the listening room, Night Cruiser is easily Deodato's most consistent effort of that decade.
Track List

Knights Of Fantasy 1979
01. Space Dust/Sherlock 7:59
02. Shazam Listen 7:58
03. Bachmania 7:00
04. Knights Of Fantasy 6:29
05. Lovely Lady 4:00

Night Cruiser 1980
06. Night Cruiser 6:18
07. East Side Strut 5:35
08. Skatin' 5:16
09. Uncle Funk 6:29
10. Love Magic 4:40
11. Groovitation 6:11

musicians
Eumir Deodato - keyboards, bass drums, synths, guitar
John Tropea - guitar
Neil Jason - bass
John Sussewell - drums
Jeff Layton - guitar
Rubens Bassini - congas, bongos, percussion
Gary Granger - bass
Crusher Bennet - congas, percussion
Lou Martini - flute
Ray Gomez - guitar
Cliff Morris - guitars
Fransisco Ceteno - bass
Stephen Daniels - drums
George Parrish, Jr. - guitar
Jimmy Maelen - percussion
Platinum Hook - vocals, claps
Sergio Dias - guitar
David Bravo - Fender Rhodes piano
Skipp Ingram - bass
Victor Jones - rhythm guitar
Ronald Bell aka Khalis Baayan (Kool & The Gang) - tenor sax

Produced by Eumir Deodato


Exact Audio Copy V0.99 prebeta 5 from 4. May 2009

EAC extraction logfile from 12. April 2010, 18:06

Deodato / Knights Of Fantasy + Night Cruiser

Used drive : PIONEER DVD-RW DVR-112D Adapter: 0 ID: 1

Read mode : Secure
Utilize accurate stream : Yes
Defeat audio cache : Yes
Make use of C2 pointers : No

Read offset correction : 48
Overread into Lead-In and Lead-Out : No
Fill up missing offset samples with silence : Yes
Delete leading and trailing silent blocks : No
Null samples used in CRC calculations : Yes
Used interface : Installed external ASPI interface
Gap handling : Appended to previous track

Used output format : User Defined Encoder
Selected bitrate : 128 kBit/s
Quality : High
Add ID3 tag : No
Command line compressor : C:\Programmi\Exact Audio Copy\Flac\flac.exe
Additional command line options : -8 -V -T "artist=%a" -T "title=%t" -T "album=%g" -T "date=%y" -T "tracknumber=%n" -T "genre=%m" %s


TOC of the extracted CD

Track | Start | Length | Start sector | End sector
––––––––––––––––––––––––––––-
1 | 0:00.00 | 7:58.43 | 0 | 35892
2 | 7:58.43 | 7:58.15 | 35893 | 71757
3 | 15:56.58 | 7:07.74 | 71758 | 103856
4 | 23:04.57 | 6:28.54 | 103857 | 133010
5 | 29:33.36 | 3:59.59 | 133011 | 150994
6 | 33:33.20 | 6:18.07 | 150995 | 179351
7 | 39:51.27 | 5:35.08 | 179352 | 204484
8 | 45:26.35 | 5:16.23 | 204485 | 228207
9 | 50:42.58 | 6:29.07 | 228208 | 257389
10 | 57:11.65 | 4:39.33 | 257390 | 278347
11 | 61:51.23 | 6:11.25 | 278348 | 306197


Track 1

Filename C:\WCD\Deodato - Knights Of Fantasy + Night Cruiser\Music\01 - Space Dust,Sherlock.wav

Pre-gap length 0:00:02.00

Peak level 100.0 %
Track quality 100.0 %
Test CRC 375D22EA
Copy CRC 375D22EA
Accurately ripped (confidence 3) [58291D46]
Copy OK

Track 2

Filename C:\WCD\Deodato - Knights Of Fantasy + Night Cruiser\Music\02 - Shazam.wav

Peak level 96.8 %
Track quality 100.0 %
Test CRC D94B7C32
Copy CRC D94B7C32
Accurately ripped (confidence 3) [595398E4]
Copy OK

Track 3

Filename C:\WCD\Deodato - Knights Of Fantasy + Night Cruiser\Music\03 - Bachmania.wav

Peak level 100.0 %
Track quality 100.0 %
Test CRC 1BCBC486
Copy CRC 1BCBC486
Accurately ripped (confidence 3) [F4252793]
Copy OK

Track 4

Filename C:\WCD\Deodato - Knights Of Fantasy + Night Cruiser\Music\04 - Knight Of Fantasy.wav

Peak level 100.0 %
Track quality 100.0 %
Test CRC 99740A14
Copy CRC 99740A14
Accurately ripped (confidence 3) [FB918613]
Copy OK

Track 5

Filename C:\WCD\Deodato - Knights Of Fantasy + Night Cruiser\Music\05 - Lovely Lady.wav

Pre-gap length 0:03:12.24

Peak level 77.5 %
Track quality 100.0 %
Test CRC 1815F801
Copy CRC 1815F801
Accurately ripped (confidence 3) [F12DB393]
Copy OK

Track 6

Filename C:\WCD\Deodato - Knights Of Fantasy + Night Cruiser\Music\06 - Night Cruiser.wav

Peak level 100.0 %
Track quality 100.0 %
Test CRC 95D26B4E
Copy CRC 95D26B4E
Accurately ripped (confidence 3) [B0CC7ACC]
Copy OK

Track 7

Filename C:\WCD\Deodato - Knights Of Fantasy + Night Cruiser\Music\07 - East Side Strut.wav

Peak level 91.9 %
Track quality 100.0 %
Test CRC 76C8553F
Copy CRC 76C8553F
Accurately ripped (confidence 3) [A9476DA0]
Copy OK

Track 8

Filename C:\WCD\Deodato - Knights Of Fantasy + Night Cruiser\Music\08 - Skatin'.wav

Peak level 87.1 %
Track quality 100.0 %
Test CRC 14AFDAAB
Copy CRC 14AFDAAB
Accurately ripped (confidence 3) [17178032]
Copy OK

Track 9

Filename C:\WCD\Deodato - Knights Of Fantasy + Night Cruiser\Music\09 - Uncle Funk.wav

Peak level 100.0 %
Track quality 100.0 %
Test CRC AF109BB9
Copy CRC AF109BB9
Accurately ripped (confidence 3) [B5463486]
Copy OK

Track 10

Filename C:\WCD\Deodato - Knights Of Fantasy + Night Cruiser\Music\10 - Love Magic.wav

Peak level 82.1 %
Track quality 100.0 %
Test CRC F8C45F88
Copy CRC F8C45F88
Accurately ripped (confidence 3) [13FCAE27]
Copy OK

Track 11

Filename C:\WCD\Deodato - Knights Of Fantasy + Night Cruiser\Music\11 - Groovitation.wav

Peak level 79.6 %
Track quality 100.0 %
Test CRC 08C50E0D
Copy CRC 08C50E0D
Accurately ripped (confidence 3) [ED7FA1F9]
Copy OK


All tracks accurately ripped

No errors occurred

End of status report


––––––––––––––––––––––––––––––––––––––––
Analyzed: Deodato / Knights Of Fantasy + Night Cruiser
––––––––––––––––––––––––––––––––––––––––

DR Peak RMS Duration Track
––––––––––––––––––––––––––––––––––––––––
DR15 0.00 dB -16.80 dB 7:59 01-Space Dust/Sherlock
DR14 -0.28 dB -16.63 dB 7:58 02-Shazam
DR13 0.00 dB -15.75 dB 7:08 03-Bachmania
DR14 0.00 dB -16.27 dB 6:29 04-Knight Of Fantasy
DR14 -2.21 dB -18.83 dB 4:00 05-Lovely Lady
DR15 0.00 dB -17.35 dB 6:18 06-Night Cruiser
DR15 -0.73 dB -18.05 dB 5:35 07-East Side Strut
DR16 -1.19 dB -19.49 dB 5:16 08-Skatin'
DR15 0.00 dB -17.02 dB 6:29 09-Uncle Funk
DR15 -1.71 dB -19.62 dB 4:39 10-Love Magic
DR16 -1.98 dB -19.92 dB 6:11 11-Groovitation
––––––––––––––––––––––––––––––––––––––––

Number of tracks: 11
Official DR value: DR15

Samplerate: 44100 Hz
Channels: 2
Bits per sample: 16
Bitrate: 757 kbps
Codec: FLAC
================================================================================

Deodato - Knights Of Fantasy / Night Cruiser (1979/1980) {Wounded Bird}
Deodato - Knights Of Fantasy / Night Cruiser (1979/1980) {Wounded Bird}


Thanks to the original ripper