Tags
Language
Tags

Depeche Mode - Singles Collection [13 CD] (2001-2013)

Posted By:
Depeche Mode - Singles Collection [13 CD] (2001-2013)

Depeche Mode - Singles Collection [13 CD] (2001-2013)
EAC Rip | FLAC (tracks+.cue+log) - 2,41 GB | MP3 CBR 320 kbps (LAME 3.93) - 853 MB | Covers - 268 MB
Genre: Synth-pop, House | RAR 3% Rec. | Label: Mute, Columbia Records

Pioneering English band Depeche Mode took the underground electronic club sounds of the early '80s and expanded them to stadium-sized levels within a decade, becoming one of the best-selling international groups in the process. One of the first acts to establish a musical identity based completely around the use of synthesizers, they debuted with a bouncy electro-pop spirit which gradually developed into a darker, more dramatic synth-rock style that ultimately positioned them as one of the most quintessential alternative bands of their era. Earning a modest European following with early releases like 1981's Speak & Spell and 1983's Construction Time Again, they made their U.S. breakthrough in 1984 with their platinum-certified fourth LP, Some Great Reward. From there, Depeche Mode remained a fixture on the international Top Ten with hit '90s albums such as the classic Violator and their first U.S./U.K. number one, the grunge-influenced Songs of Faith and Devotion. While internal drama and struggles with substance abuse threatened to derail them by the late '90s, their ever-evolving sound adapted with the times, whether diving into moody trip-hop on 1997's Ultra or digitizing with experimental electronic on 2001's Exciter. By the late 2000s, the trio experienced a popular resurgence and renewed drive with the chart-topping electro-rock Playing the Angel, which kicked off a new era that poised Depeche Mode as elder statesmen of the genre, dominating sales with each subsequent release and even embarking on their longest tour to date, in support of their 14th album, 2017's Spirit.

Depeche Mode - Singles Collection [13 CD] (2001-2013)

Depeche Mode - I Feel Loved (2001)
EAC Rip | FLAC (tracks+.cue+log) - 128 MB | MP3 CBR 320 kbps (LAME 3.93) - 41 MB | Covers - 16 MB
Genre: Synth-pop, House | RAR 3% Rec. | Label: Mute (CDBONG31)

Tracklist:
01. I Feel Loved (Single Version)
02. Dirt
03. I Feel Loved (Extended Instrumental)

Total time: 17:10

Exact Audio Copy V1.3 from 2. September 2016

EAC extraction logfile from 27. January 2020, 22:01

Depeche Mode / I Feel Loved

Used drive : PIONEER DVD-RW DVR-221L Adapter: 1 ID: 0

Read mode : Secure
Utilize accurate stream : Yes
Defeat audio cache : Yes
Make use of C2 pointers : No

Read offset correction : 6
Overread into Lead-In and Lead-Out : No
Fill up missing offset samples with silence : Yes
Delete leading and trailing silent blocks : No
Null samples used in CRC calculations : Yes
Used interface : Native Win32 interface for Win NT & 2000
Gap handling : Appended to previous track

Used output format : User Defined Encoder
Selected bitrate : 1024 kBit/s
Quality : High
Add ID3 tag : No
Command line compressor : C:\Program Files (x86)\Exact Audio Copy\FLAC\FLAC.EXE
Additional command line options : -6 -V -T "COMMENT=ripped by RRC" -T "ARTIST=%artist%" -T "TITLE=%title%" -T "ALBUM=%albumtitle%" -T "DATE=%year%" -T "TRACKNUMBER=%tracknr%" -T "GENRE=%genre%" %source%


TOC of the extracted CD

Track | Start | Length | Start sector | End sector
––––––––––––––––––––––––––––-
1 | 0:00.00 | 3:41.10 | 0 | 16584
2 | 3:41.10 | 5:00.15 | 16585 | 39099
3 | 8:41.25 | 8:28.47 | 39100 | 77246


Track 1

Filename E:\RRCLtd Rip\01 - I Feel Loved (Single Version).wav

Pre-gap length 0:00:02.00

Peak level 100.0 %
Extraction speed 2.8 X
Track quality 100.0 %
Test CRC FE216FC6
Copy CRC FE216FC6
Accurately ripped (confidence 31) [87946BEE] (AR v2)
Copy OK

Track 2

Filename E:\RRCLtd Rip\02 - Dirt.wav

Pre-gap length 0:00:02.13

Peak level 100.0 %
Extraction speed 3.2 X
Track quality 100.0 %
Test CRC BC70DABB
Copy CRC BC70DABB
Accurately ripped (confidence 31) [DFA0AF6C] (AR v2)
Copy OK

Track 3

Filename E:\RRCLtd Rip\03 - I Feel Loved (Extended Instrumental).wav

Pre-gap length 0:00:01.30

Peak level 100.0 %
Extraction speed 3.4 X
Track quality 99.9 %
Test CRC 2CFB3DBD
Copy CRC 2CFB3DBD
Accurately ripped (confidence 31) [1078794D] (AR v2)
Copy OK


All tracks accurately ripped

No errors occurred

End of status report

–– CUETools DB Plugin V2.1.6

[CTDB TOCID: 6AUmxpOdWk57GkzB7sgbxm6r4B4-] found
Submit result: 6AUmxpOdWk57GkzB7sgbxm6r4B4- has been confirmed
Track | CTDB Status
1 | (58/58) Accurately ripped
2 | (58/58) Accurately ripped
3 | (58/58) Accurately ripped


==== Log checksum 72A86FFED483277405AB17B22DC456B2984BDC8CACCD96C9DFC6A51A260C8E55 ====

[CUETools log; Date: 14.07.2021 21:15:44; Version: 2.1.4]
[CTDB TOCID: 6AUmxpOdWk57GkzB7sgbxm6r4B4-] found.
Track | CTDB Status
1 | (81/81) Accurately ripped
2 | (81/81) Accurately ripped
3 | (81/81) Accurately ripped
[AccurateRip ID: 00020744-000702c3-13040503] found.
Track [ CRC | V2 ] Status
01 [096b9401|87946bee] (17+39/56) Accurately ripped
02 [1cbfc790|dfa0af6c] (17+39/56) Accurately ripped
03 [8de3b73d|1078794d] (17+39/56) Accurately ripped

Track Peak [ CRC32 ] [W/O NULL] [ LOG ]
– 100,0 [6F77EF0D] [88E30531]
01 100,0 [FE216FC6] [B1A6EB13] CRC32
02 100,0 [BC70DABB] [62260B10] CRC32
03 100,0 [2CFB3DBD] [9C640DAC] CRC32

Depeche Mode - Singles Collection [13 CD] (2001-2013)

Depeche Mode - Freelove (2001)
EAC Rip | FLAC (tracks+.cue+log) - 94 MB | MP3 CBR 320 kbps (LAME 3.93) - 38 MB | Covers - 29 MB
Genre: Synth-pop, House | RAR 3% Rec. | Label: Mute (CDBONG32)

Tracklist:
01. Freelove (Flood Mix)
02. Zenstation
03. Zenstation (Atom's Stereonerd Remix)

Total time: 16:06

Exact Audio Copy V1.3 from 2. September 2016

EAC extraction logfile from 27. January 2020, 22:52

Depeche Mode / Freelove

Used drive : PIONEER DVD-RW DVR-221L Adapter: 1 ID: 0

Read mode : Secure
Utilize accurate stream : Yes
Defeat audio cache : Yes
Make use of C2 pointers : No

Read offset correction : 6
Overread into Lead-In and Lead-Out : No
Fill up missing offset samples with silence : Yes
Delete leading and trailing silent blocks : No
Null samples used in CRC calculations : Yes
Used interface : Native Win32 interface for Win NT & 2000
Gap handling : Appended to previous track

Used output format : User Defined Encoder
Selected bitrate : 1024 kBit/s
Quality : High
Add ID3 tag : No
Command line compressor : C:\Program Files (x86)\Exact Audio Copy\FLAC\FLAC.EXE
Additional command line options : -6 -V -T "COMMENT=ripped by RRC" -T "ARTIST=%artist%" -T "TITLE=%title%" -T "ALBUM=%albumtitle%" -T "DATE=%year%" -T "TRACKNUMBER=%tracknr%" -T "GENRE=%genre%" %source%


TOC of the extracted CD

Track | Start | Length | Start sector | End sector
––––––––––––––––––––––––––––-
1 | 0:00.00 | 4:03.32 | 0 | 18256
2 | 4:03.32 | 6:26.63 | 18257 | 47269
3 | 10:30.20 | 5:36.12 | 47270 | 72481


Track 1

Filename E:\RRCLtd Rip\01 - Freelove (Flood Mix).wav

Pre-gap length 0:00:02.00

Peak level 100.0 %
Extraction speed 2.8 X
Track quality 100.0 %
Test CRC 2FAEDD96
Copy CRC 2FAEDD96
Accurately ripped (confidence 28) [56CDA0D9] (AR v2)
Copy OK

Track 2

Filename E:\RRCLtd Rip\02 - Zenstation.wav

Pre-gap length 0:00:03.00

Peak level 100.0 %
Extraction speed 3.4 X
Track quality 100.0 %
Test CRC EAB65B65
Copy CRC EAB65B65
Accurately ripped (confidence 28) [89B60E2B] (AR v2)
Copy OK

Track 3

Filename E:\RRCLtd Rip\03 - Zenstation (Atom's Stereonerd Remix).wav

Pre-gap length 0:00:02.13

Peak level 100.0 %
Extraction speed 3.7 X
Track quality 100.0 %
Test CRC EFA82B43
Copy CRC EFA82B43
Accurately ripped (confidence 27) [46505762] (AR v2)
Copy OK


All tracks accurately ripped

No errors occurred

End of status report

–– CUETools DB Plugin V2.1.6

[CTDB TOCID: Yr0DcciWSM_Ro2tpqVcWibyCeIk-] found
Submit result: Yr0DcciWSM_Ro2tpqVcWibyCeIk- has been confirmed
Track | CTDB Status
1 | (67/70) Accurately ripped
2 | (69/70) Accurately ripped
3 | (67/70) Accurately ripped


==== Log checksum BD5573F3B34EE09A7AE3581B9F99010AE63223CBD13B6AD493EEFD6A65D40853 ====

[CUETools log; Date: 14.07.2021 21:16:08; Version: 2.1.4]
[CTDB TOCID: Yr0DcciWSM_Ro2tpqVcWibyCeIk-] found.
Track | CTDB Status
1 | ( 97/100) Accurately ripped
2 | ( 99/100) Accurately ripped
3 | ( 97/100) Accurately ripped
[AccurateRip ID: 00021b19-0007251d-1803c603] found.
Track [ CRC | V2 ] Status
01 [c2f55ff7|56cda0d9] (23+36/59) Accurately ripped
02 [c703f173|89b60e2b] (22+36/58) Accurately ripped
03 [61f795e6|46505762] (22+35/57) Accurately ripped

Track Peak [ CRC32 ] [W/O NULL] [ LOG ]
– 100,0 [41DF0A83] [6A428213]
01 100,0 [2FAEDD96] [E0D3A2EA] CRC32
02 100,0 [EAB65B65] [75833D14] CRC32
03 100,0 [EFA82B43] [B6D5CCF8] CRC32

Depeche Mode - Singles Collection [13 CD] (2001-2013)

Depeche Mode - Goodnight Lovers (2001)
EAC Rip | FLAC (tracks+.cue+log) - 136 MB | MP3 CBR 320 kbps (LAME 3.93) - 56 MB | Covers - 22 MB
Genre: Synth-pop | RAR 3% Rec. | Label: Mute (CDBONG33)

Tracklist:
01. Goodnight Lovers
02. When The Body Speaks (Acoustic Version)
03. The Dead Of Night (Electronicat Remix)
04. Goodnight Lovers (Isan Falling Leaf Mix)

Total time: 23:25

Exact Audio Copy V1.3 from 2. September 2016

EAC extraction logfile from 27. January 2020, 22:40

Depeche Mode / Goodnight Lovers

Used drive : PIONEER DVD-RW DVR-221L Adapter: 1 ID: 0

Read mode : Secure
Utilize accurate stream : Yes
Defeat audio cache : Yes
Make use of C2 pointers : No

Read offset correction : 6
Overread into Lead-In and Lead-Out : No
Fill up missing offset samples with silence : Yes
Delete leading and trailing silent blocks : No
Null samples used in CRC calculations : Yes
Used interface : Native Win32 interface for Win NT & 2000
Gap handling : Appended to previous track

Used output format : User Defined Encoder
Selected bitrate : 1024 kBit/s
Quality : High
Add ID3 tag : No
Command line compressor : C:\Program Files (x86)\Exact Audio Copy\FLAC\FLAC.EXE
Additional command line options : -6 -V -T "COMMENT=ripped by RRC" -T "ARTIST=%artist%" -T "TITLE=%title%" -T "ALBUM=%albumtitle%" -T "DATE=%year%" -T "TRACKNUMBER=%tracknr%" -T "GENRE=%genre%" %source%


TOC of the extracted CD

Track | Start | Length | Start sector | End sector
––––––––––––––––––––––––––––-
1 | 0:00.00 | 3:50.47 | 0 | 17296
2 | 3:50.47 | 6:02.18 | 17297 | 44464
3 | 9:52.65 | 7:38.17 | 44465 | 78831
4 | 17:31.07 | 5:53.48 | 78832 | 105354


Track 1

Filename E:\RRCLtd Rip\01 - Goodnight Lovers.wav

Pre-gap length 0:00:02.00

Peak level 99.1 %
Extraction speed 2.6 X
Track quality 100.0 %
Test CRC E0D3991E
Copy CRC E0D3991E
Accurately ripped (confidence 21) [EE7F1CF0] (AR v2)
Copy OK

Track 2

Filename E:\RRCLtd Rip\02 - When The Body Speaks (Acoustic Version).wav

Peak level 100.0 %
Extraction speed 3.1 X
Track quality 100.0 %
Test CRC 6FEFC192
Copy CRC 6FEFC192
Accurately ripped (confidence 22) [EEE31EBB] (AR v2)
Copy OK

Track 3

Filename E:\RRCLtd Rip\03 - The Dead Of Night (Electronicat Remix).wav

Peak level 100.0 %
Extraction speed 3.7 X
Track quality 100.0 %
Test CRC 743D4303
Copy CRC 743D4303
Accurately ripped (confidence 21) [AE90B582] (AR v2)
Copy OK

Track 4

Filename E:\RRCLtd Rip\04 - Goodnight Lovers (Isan Falling Leaf Mix).wav

Peak level 99.8 %
Extraction speed 4.0 X
Track quality 100.0 %
Test CRC 043E0B10
Copy CRC 043E0B10
Accurately ripped (confidence 22) [3E897BDC] (AR v2)
Copy OK


All tracks accurately ripped

No errors occurred

End of status report

–– CUETools DB Plugin V2.1.6

[CTDB TOCID: 4uRh9Cx8BSMZVq8eXILiqURDmsY-] found
Submit result: 4uRh9Cx8BSMZVq8eXILiqURDmsY- has been confirmed
Track | CTDB Status
1 | (79/79) Accurately ripped
2 | (79/79) Accurately ripped
3 | (79/79) Accurately ripped
4 | (79/79) Accurately ripped


==== Log checksum 17BB3DD9D0A97C904F0E47A106BA60DCC2DD335028AFCEF7D41DE6E62088FA1C ====

[CUETools log; Date: 14.07.2021 21:16:34; Version: 2.1.4]
[CTDB TOCID: 4uRh9Cx8BSMZVq8eXILiqURDmsY-] found.
Track | CTDB Status
1 | (112/112) Accurately ripped
2 | (112/112) Accurately ripped
3 | (112/112) Accurately ripped
4 | (111/112) Accurately ripped
[AccurateRip ID: 0003c0bd-000f69ad-24057c04] found.
Track [ CRC | V2 ] Status
01 [2495ed2a|ee7f1cf0] (15+28/88) Accurately ripped
02 [f10811ff|eee31ebb] (15+29/90) Accurately ripped
03 [750eea68|ae90b582] (15+28/89) Accurately ripped
04 [4ea196bc|3e897bdc] (15+29/90) Accurately ripped
Offsetted by 92:
01 [ac605f16] (21/88) Accurately ripped
02 [2146b2ff] (22/90) Accurately ripped
03 [4e83d0a0] (22/89) Accurately ripped
04 [e3d4b97c] (22/90) Accurately ripped

Track Peak [ CRC32 ] [W/O NULL] [ LOG ]
– 100,0 [3D48D9EC] [2F097D30]
01 99,1 [E0D3991E] [B760ABCC] CRC32
02 100,0 [6FEFC192] [C5830F76] CRC32
03 100,0 [743D4303] [9698655C] CRC32
04 99,8 [043E0B10] [C20C77AA] CRC32

Depeche Mode - Singles Collection [13 CD] (2001-2013)

Depeche Mode - Enjoy The Silence 04 (2004)
EAC Rip | FLAC (tracks+.cue+log) - 226 MB | MP3 CBR 320 kbps (LAME 3.93) - 72 MB | Covers - 44 MB
Genre: Synth-pop, House | RAR 3% Rec. | Label: Mute (XLCDBong34)

Tracklist:
01. Enjoy The Silence (Richard X Extended Mix)
02. Enjoy The Silence (Ewan Pearson Extended Remix)
03. World In My Eyes (Cicada Remix)
04. Mercy In You (The BRAT Mix)

Total time: 30:28

Exact Audio Copy V1.3 from 2. September 2016

EAC extraction logfile from 28. January 2020, 19:30

Depeche Mode / Enjoy The Silence 04 (Disc 3)

Used drive : PIONEER DVD-RW DVR-221L Adapter: 1 ID: 0

Read mode : Secure
Utilize accurate stream : Yes
Defeat audio cache : Yes
Make use of C2 pointers : No

Read offset correction : 6
Overread into Lead-In and Lead-Out : No
Fill up missing offset samples with silence : Yes
Delete leading and trailing silent blocks : No
Null samples used in CRC calculations : Yes
Used interface : Native Win32 interface for Win NT & 2000
Gap handling : Appended to previous track

Used output format : User Defined Encoder
Selected bitrate : 1024 kBit/s
Quality : High
Add ID3 tag : No
Command line compressor : C:\Program Files (x86)\Exact Audio Copy\FLAC\FLAC.EXE
Additional command line options : -6 -V -T "COMMENT=ripped by RRC" -T "ARTIST=%artist%" -T "TITLE=%title%" -T "ALBUM=%albumtitle%" -T "DATE=%year%" -T "TRACKNUMBER=%tracknr%" -T "GENRE=%genre%" %source%


TOC of the extracted CD

Track | Start | Length | Start sector | End sector
––––––––––––––––––––––––––––-
1 | 0:00.00 | 8:25.23 | 0 | 37897
2 | 8:25.23 | 8:39.08 | 37898 | 76830
3 | 17:04.31 | 6:19.52 | 76831 | 105307
4 | 23:24.08 | 7:04.37 | 105308 | 137144


Track 1

Filename E:\RRCLtd Rip\01 - Enjoy The Silence (Richard X Extended Mix).wav

Pre-gap length 0:00:02.00

Peak level 100.0 %
Extraction speed 2.7 X
Track quality 99.9 %
Test CRC 68F5958D
Copy CRC 68F5958D
Accurately ripped (confidence 40) [B94F9944] (AR v2)
Copy OK

Track 2

Filename E:\RRCLtd Rip\02 - Enjoy The Silence (Ewan Pearson Extended Remix).wav

Pre-gap length 0:00:02.10

Peak level 100.0 %
Extraction speed 3.7 X
Track quality 100.0 %
Test CRC B591C6D5
Copy CRC B591C6D5
Accurately ripped (confidence 40) [123005BE] (AR v2)
Copy OK

Track 3

Filename E:\RRCLtd Rip\03 - World In My Eyes (Cicada Remix).wav

Pre-gap length 0:00:00.12

Peak level 100.0 %
Extraction speed 3.9 X
Track quality 100.0 %
Test CRC 2F429AE7
Copy CRC 2F429AE7
Accurately ripped (confidence 41) [6F7024B5] (AR v2)
Copy OK

Track 4

Filename E:\RRCLtd Rip\04 - Mercy In You (The BRAT Mix).wav

Pre-gap length 0:00:01.74

Peak level 100.0 %
Extraction speed 4.4 X
Track quality 100.0 %
Test CRC D9961FB0
Copy CRC D9961FB0
Accurately ripped (confidence 40) [51684ADD] (AR v2)
Copy OK


All tracks accurately ripped

No errors occurred

End of status report

–– CUETools DB Plugin V2.1.6

[CTDB TOCID: Ib2rIUFu_2IerNF6.xc9DvxIPIs-] found
Submit result: Ib2rIUFu_2IerNF6.xc9DvxIPIs- has been confirmed
Track | CTDB Status
1 | (60/63) Accurately ripped
2 | (62/63) Accurately ripped
3 | (63/63) Accurately ripped
4 | (63/63) Accurately ripped


==== Log checksum 4EF2FBBDB5A9332517CD6748F04312D8C016C8BFF506169E7F4DEC9D3E9CAC32 ====

[CUETools log; Date: 14.07.2021 21:17:17; Version: 2.1.4]
[CTDB TOCID: Ib2rIUFu_2IerNF6.xc9DvxIPIs-] found.
Track | CTDB Status
1 | (80/84) Accurately ripped
2 | (83/84) Accurately ripped
3 | (84/84) Accurately ripped
4 | (84/84) Accurately ripped
[AccurateRip ID: 0005733e-0015907f-22072404] found.
Track [ CRC | V2 ] Status
01 [d95805e1|b94f9944] (46+44/90) Accurately ripped
02 [cfb3725b|123005be] (47+44/93) Accurately ripped
03 [1e7b724c|6f7024b5] (49+45/94) Accurately ripped
04 [4e1143b4|51684add] (49+44/93) Accurately ripped

Track Peak [ CRC32 ] [W/O NULL] [ LOG ]
– 100,0 [3B3BE7A3] [561ABE47]
01 100,0 [68F5958D] [27562714] CRC32
02 100,0 [B591C6D5] [4E3EBB68] CRC32
03 100,0 [2F429AE7] [479F5C94] CRC32
04 100,0 [D9961FB0] [9C8D1083] CRC32

Depeche Mode - Singles Collection [13 CD] (2001-2013)

Depeche Mode - Suffer Well (2006)
EAC Rip | FLAC (tracks+.cue+log) - 238 MB | MP3 CBR 320 kbps (LAME 3.93) - 89 MB | Covers - 14 MB
Genre: Synth-pop, House | RAR 3% Rec. | Label: Mute (LCDBONG37)

Tracklist:
01. Suffer Well (Tiga Remix)
02. Suffer Well (Narcotic Thrust Vocal Dub)
03. Suffer Well (Alter Ego Remix)
04. Suffer Well (M83 Remix)
05. Suffer Well (Metope Vocal Remix)
06. Suffer Well (Metope Remix)

Total time: 37:22

Exact Audio Copy V1.3 from 2. September 2016

EAC extraction logfile from 28. January 2020, 21:07

Depeche Mode / Suffer Well (Limited)

Used drive : PIONEER DVD-RW DVR-215 Adapter: 1 ID: 2

Read mode : Secure
Utilize accurate stream : Yes
Defeat audio cache : Yes
Make use of C2 pointers : No

Read offset correction : 48
Overread into Lead-In and Lead-Out : No
Fill up missing offset samples with silence : Yes
Delete leading and trailing silent blocks : No
Null samples used in CRC calculations : Yes
Used interface : Native Win32 interface for Win NT & 2000
Gap handling : Appended to previous track

Used output format : User Defined Encoder
Selected bitrate : 1024 kBit/s
Quality : High
Add ID3 tag : No
Command line compressor : C:\Program Files (x86)\Exact Audio Copy\FLAC\FLAC.EXE
Additional command line options : -6 -V -T "COMMENT=ripped by RRC" -T "ARTIST=%artist%" -T "TITLE=%title%" -T "ALBUM=%albumtitle%" -T "DATE=%year%" -T "TRACKNUMBER=%tracknr%" -T "GENRE=%genre%" %source%


TOC of the extracted CD

Track | Start | Length | Start sector | End sector
––––––––––––––––––––––––––––-
1 | 0:00.00 | 6:30.65 | 0 | 29314
2 | 6:30.65 | 6:44.71 | 29315 | 59685
3 | 13:15.61 | 6:09.48 | 59686 | 87408
4 | 19:25.34 | 4:33.47 | 87409 | 107930
5 | 23:59.06 | 6:29.48 | 107931 | 137153
6 | 30:28.54 | 6:53.22 | 137154 | 168150
7 | 39:54.01 | 34:03.74 | 179551 | 332849


Track 1

Filename E:\RRCLtd Rip\01 - Suffer Well (Tiga Remix).wav

Pre-gap length 0:00:02.00

Peak level 98.2 %
Extraction speed 5.1 X
Track quality 100.0 %
Test CRC 32EA5C54
Copy CRC 32EA5C54
Accurately ripped (confidence 8) [6FEB01AD] (AR v2)
Copy OK

Track 2

Filename E:\RRCLtd Rip\02 - Suffer Well (Narcotic Thrust Vocal dub).wav

Pre-gap length 0:00:01.58

Peak level 98.3 %
Extraction speed 5.9 X
Track quality 100.0 %
Test CRC C840A520
Copy CRC C840A520
Accurately ripped (confidence 6) [1A581E8E] (AR v2)
Copy OK

Track 3

Filename E:\RRCLtd Rip\03 - Suffer Well (Alter Ego Remix).wav

Pre-gap length 0:00:01.58

Peak level 99.8 %
Extraction speed 6.4 X
Track quality 100.0 %
Test CRC 567CDF3A
Copy CRC 567CDF3A
Accurately ripped (confidence 7) [19421B82] (AR v2)
Copy OK

Track 4

Filename E:\RRCLtd Rip\04 - Suffer Well (M83 Remix).wav

Pre-gap length 0:00:01.58

Peak level 98.3 %
Extraction speed 6.4 X
Track quality 100.0 %
Test CRC 4B5A7068
Copy CRC 4B5A7068
Accurately ripped (confidence 7) [508BD389] (AR v2)
Copy OK

Track 5

Filename E:\RRCLtd Rip\05 - Suffer Well (Metope Vocal Remix).wav

Pre-gap length 0:00:01.58

Peak level 98.3 %
Extraction speed 7.3 X
Track quality 100.0 %
Test CRC 06F22C93
Copy CRC 06F22C93
Accurately ripped (confidence 5) [E263B053] (AR v2)
Copy OK

Track 6

Filename E:\RRCLtd Rip\06 - Suffer Well (Metope Remix).wav

Pre-gap length 0:00:01.58

Peak level 98.3 %
Extraction speed 7.7 X
Track quality 100.0 %
Test CRC 8883EDC0
Copy CRC 8883EDC0
Accurately ripped (confidence 7) [5B87EC55] (AR v2)
Copy OK


All tracks accurately ripped

No errors occurred

End of status report

–– CUETools DB Plugin V2.1.6

[CTDB TOCID: __sV_1XtZ3hCW9HImh0rZb4fWWk-] found
Submit result: __sV_1XtZ3hCW9HImh0rZb4fWWk- has been confirmed
Track | CTDB Status
1 | (45/56) Accurately ripped
2 | (45/56) Accurately ripped
3 | (45/56) Accurately ripped
4 | (46/56) Accurately ripped
5 | (47/56) Accurately ripped
6 | (45/56) Accurately ripped


==== Log checksum 62C55804F6FF25FCFBC08E802C7D910B7B357B31434C512D4FBE2ECF0E6B3508 ====

[CUETools log; Date: 14.07.2021 21:19:19; Version: 2.1.4]
CD-Extra data track length 34:03:74.
[CTDB TOCID: __sV_1XtZ3hCW9HImh0rZb4fWWk-] found.
Track | CTDB Status
1 | (61/75) Accurately ripped
2 | (62/75) Accurately ripped
3 | (62/75) Accurately ripped
4 | (63/75) Accurately ripped
5 | (64/75) Accurately ripped
6 | (62/75) Accurately ripped
[AccurateRip ID: 000b82a9-00414e2e-60115607] found.
Track [ CRC | V2 ] Status
01 [62ae109e|6feb01ad] (07+09/16) Accurately ripped
02 [45d6fe6f|1a581e8e] (07+07/14) Accurately ripped
03 [b3167dbc|19421b82] (08+08/16) Accurately ripped
04 [8450a0aa|508bd389] (08+08/16) Accurately ripped
05 [ccb1fff1|e263b053] (07+06/13) Accurately ripped
06 [27bf29ee|5b87ec55] (08+08/16) Accurately ripped

Track Peak [ CRC32 ] [W/O NULL] [ LOG ]
– 99,8 [DE376FC5] [0D4714B9]
01 98,2 [32EA5C54] [469E6D45] CRC32
02 98,3 [C840A520] [3147A80A] CRC32
03 99,8 [567CDF3A] [4CC53504] CRC32
04 98,3 [4B5A7068] [8E17921E] CRC32
05 98,3 [06F22C93] [0C393169] CRC32
06 98,3 [8883EDC0] [13E09864] CRC32

Depeche Mode - Singles Collection [13 CD] (2001-2013)

Depeche Mode - John The Revelator (2006)
EAC Rip | FLAC (tracks+.cue+log) - 203 MB | MP3 CBR 320 kbps (LAME 3.93) - 79 MB | Covers - 30 MB
Genre: Synth-pop, House | RAR 3% Rec. | Label: Mute (LCDBONG38)

Tracklist:
01. John The Revelator (Dave Is In The Disco Tiefschwarz Remix)
02. John The Revelator (Murk Mode Remix)
03. John The Revelator (UNKLE Re Construction)
04. John The Revelator (Boosta Club Remix)
05. John The Revelator (Tiefschwarz Dub)

Total time: 33:18

Exact Audio Copy V1.3 from 2. September 2016

EAC extraction logfile from 28. January 2020, 21:25

Depeche Mode / John The Revelator (Limited)

Used drive : PIONEER DVD-RW DVR-215 Adapter: 1 ID: 2

Read mode : Secure
Utilize accurate stream : Yes
Defeat audio cache : Yes
Make use of C2 pointers : No

Read offset correction : 48
Overread into Lead-In and Lead-Out : No
Fill up missing offset samples with silence : Yes
Delete leading and trailing silent blocks : No
Null samples used in CRC calculations : Yes
Used interface : Native Win32 interface for Win NT & 2000
Gap handling : Appended to previous track

Used output format : User Defined Encoder
Selected bitrate : 1024 kBit/s
Quality : High
Add ID3 tag : No
Command line compressor : C:\Program Files (x86)\Exact Audio Copy\FLAC\FLAC.EXE
Additional command line options : -6 -V -T "COMMENT=ripped by RRC" -T "ARTIST=%artist%" -T "TITLE=%title%" -T "ALBUM=%albumtitle%" -T "DATE=%year%" -T "TRACKNUMBER=%tracknr%" -T "GENRE=%genre%" %source%


TOC of the extracted CD

Track | Start | Length | Start sector | End sector
––––––––––––––––––––––––––––-
1 | 0:00.00 | 7:54.01 | 0 | 35550
2 | 7:54.01 | 7:16.72 | 35551 | 68322
3 | 15:10.73 | 5:02.64 | 68323 | 91036
4 | 20:13.62 | 4:50.72 | 91037 | 112858
5 | 25:04.59 | 8:13.47 | 112859 | 149880


Track 1

Filename E:\RRCLtd Rip\01 - John The Revelator (Dave Is In The Disco Tiefschwarz Remix).wav

Pre-gap length 0:00:02.00

Peak level 98.3 %
Extraction speed 4.9 X
Track quality 100.0 %
Test CRC E7C1D70D
Copy CRC E7C1D70D
Accurately ripped (confidence 41) [5CD7F7F6] (AR v2)
Copy OK

Track 2

Filename E:\RRCLtd Rip\02 - John The Revelator (Murk Mode Remix).wav

Pre-gap length 0:00:03.58

Peak level 98.3 %
Extraction speed 5.7 X
Track quality 100.0 %
Test CRC 055754F2
Copy CRC 055754F2
Accurately ripped (confidence 42) [5AA6B099] (AR v2)
Copy OK

Track 3

Filename E:\RRCLtd Rip\03 - John The Revelator (UNKLE Re Construction).wav

Pre-gap length 0:00:03.58

Peak level 98.5 %
Extraction speed 6.0 X
Track quality 100.0 %
Test CRC A321E436
Copy CRC A321E436
Accurately ripped (confidence 42) [1F558DC9] (AR v2)
Copy OK

Track 4

Filename E:\RRCLtd Rip\04 - John The Revelator (Boosta Club Remix).wav

Pre-gap length 0:00:03.58

Peak level 98.3 %
Extraction speed 6.1 X
Track quality 100.0 %
Test CRC 9B8EB7D5
Copy CRC 9B8EB7D5
Accurately ripped (confidence 42) [64D24D43] (AR v2)
Copy OK

Track 5

Filename E:\RRCLtd Rip\05 - John The Revelator (Tiefschwarz dub).wav

Pre-gap length 0:00:03.58

Peak level 98.3 %
Extraction speed 6.9 X
Track quality 100.0 %
Test CRC AA78A0FF
Copy CRC AA78A0FF
Accurately ripped (confidence 42) [4D635ECC] (AR v2)
Copy OK


All tracks accurately ripped

No errors occurred

End of status report

–– CUETools DB Plugin V2.1.6

[CTDB TOCID: cQQTIUr7WBYgaSONGwZuP0DF3Pw-] found
Submit result: cQQTIUr7WBYgaSONGwZuP0DF3Pw- has been confirmed
Track | CTDB Status
1 | (64/64) Accurately ripped
2 | (64/64) Accurately ripped
3 | (64/64) Accurately ripped
4 | (64/64) Accurately ripped
5 | (64/64) Accurately ripped


==== Log checksum C5C385CAE13ADFF1134BAABAD1399DEAE002C6741FAC918BAC284A00A8D87E8B ====

[CUETools log; Date: 14.07.2021 21:20:22; Version: 2.1.4]
[CTDB TOCID: cQQTIUr7WBYgaSONGwZuP0DF3Pw-] found.
Track | CTDB Status
1 | (82/82) Accurately ripped
2 | (82/82) Accurately ripped
3 | (82/82) Accurately ripped
4 | (82/82) Accurately ripped
5 | (82/82) Accurately ripped
[AccurateRip ID: 0006fbb3-002019f9-3407ce05] found.
Track [ CRC | V2 ] Status
01 [92e8b45c|5cd7f7f6] (36+47/83) Accurately ripped
02 [df2da214|5aa6b099] (34+48/82) Accurately ripped
03 [eaad591a|1f558dc9] (36+48/84) Accurately ripped
04 [ab22b5de|64d24d43] (36+48/84) Accurately ripped
05 [46d8d5bc|4d635ecc] (37+48/85) Accurately ripped

Track Peak [ CRC32 ] [W/O NULL] [ LOG ]
– 98,5 [91B1FC86] [650CAE96]
01 98,3 [E7C1D70D] [BE29A625] CRC32
02 98,3 [055754F2] [D11F4A99] CRC32
03 98,5 [A321E436] [42DCECF7] CRC32
04 98,3 [9B8EB7D5] [40E7AB25] CRC32
05 98,3 [AA78A0FF] [35F7BA6A] CRC32

Depeche Mode - Singles Collection [13 CD] (2001-2013)

Depeche Mode - Martyr (2006)
EAC Rip | FLAC (tracks+.cue+log) - 115 MB | MP3 CBR 320 kbps (LAME 3.93) - 44 MB | Covers - 39 MB
Genre: Synth-pop, House | RAR 3% Rec. | Label: Mute (LCDBONG39)

Tracklist:
01. Martyr (Paul Van Dyk Remix Edit)
02. Martyr (Alex Smoke Gravel Mix)
03. Never Let Me Down Again (Digitalism Remix)

Total time: 18:38

Exact Audio Copy V1.3 from 2. September 2016

EAC extraction logfile from 28. January 2020, 21:35

Depeche Mode / Martyr (Limited)

Used drive : PIONEER DVD-RW DVR-215 Adapter: 1 ID: 2

Read mode : Secure
Utilize accurate stream : Yes
Defeat audio cache : Yes
Make use of C2 pointers : No

Read offset correction : 48
Overread into Lead-In and Lead-Out : No
Fill up missing offset samples with silence : Yes
Delete leading and trailing silent blocks : No
Null samples used in CRC calculations : Yes
Used interface : Native Win32 interface for Win NT & 2000
Gap handling : Appended to previous track

Used output format : User Defined Encoder
Selected bitrate : 1024 kBit/s
Quality : High
Add ID3 tag : No
Command line compressor : C:\Program Files (x86)\Exact Audio Copy\FLAC\FLAC.EXE
Additional command line options : -6 -V -T "COMMENT=ripped by RRC" -T "ARTIST=%artist%" -T "TITLE=%title%" -T "ALBUM=%albumtitle%" -T "DATE=%year%" -T "TRACKNUMBER=%tracknr%" -T "GENRE=%genre%" %source%


TOC of the extracted CD

Track | Start | Length | Start sector | End sector
––––––––––––––––––––––––––––-
1 | 0:00.00 | 7:18.65 | 0 | 32914
2 | 7:18.65 | 6:40.38 | 32915 | 62952
3 | 13:59.28 | 4:38.65 | 62953 | 83867


Track 1

Filename E:\RRCLtd Rip\01 - Martyr (Paul Van Dyk Remix Edit).wav

Pre-gap length 0:00:02.00

Peak level 98.5 %
Extraction speed 4.5 X
Track quality 99.9 %
Test CRC 0191DFA0
Copy CRC 0191DFA0
Accurately ripped (confidence 39) [312D71E6] (AR v2)
Copy OK

Track 2

Filename E:\RRCLtd Rip\02 - Martyr (Alex Smoke Gravel Mix).wav

Pre-gap length 0:00:03.23

Peak level 100.0 %
Extraction speed 5.5 X
Track quality 100.0 %
Test CRC E37CC107
Copy CRC E37CC107
Accurately ripped (confidence 39) [66133BBA] (AR v2)
Copy OK

Track 3

Filename E:\RRCLtd Rip\03 - Never Let Me Down Again (Digitalism Remix).wav

Pre-gap length 0:00:02.39

Peak level 92.9 %
Extraction speed 5.3 X
Track quality 99.9 %
Test CRC 06B216BE
Copy CRC 06B216BE
Accurately ripped (confidence 40) [C1792B9F] (AR v2)
Copy OK


All tracks accurately ripped

No errors occurred

End of status report

–– CUETools DB Plugin V2.1.6

[CTDB TOCID: HKSiFeQU4451vDGwZ2qElDdHJPw-] found
Submit result: HKSiFeQU4451vDGwZ2qElDdHJPw- has been confirmed
Track | CTDB Status
1 | (74/75) Accurately ripped
2 | (74/75) Accurately ripped
3 | (75/75) Accurately ripped


==== Log checksum 55269E1F204C2F29BA3BEB99CC9A3D2C44D67F18E2259A6E293917FED55197D5 ====

[CUETools log; Date: 14.07.2021 21:20:46; Version: 2.1.4]
[CTDB TOCID: HKSiFeQU4451vDGwZ2qElDdHJPw-] found.
Track | CTDB Status
1 | ( 98/102) Accurately ripped
2 | (101/102) Accurately ripped
3 | (102/102) Accurately ripped
[AccurateRip ID: 0002be18-00090152-17045e03] found.
Track [ CRC | V2 ] Status
01 [a00edb23|312d71e6] (36+46/82) Accurately ripped
02 [cc17f717|66133bba] (36+46/82) Accurately ripped
03 [20c18bbf|c1792b9f] (36+47/83) Accurately ripped

Track Peak [ CRC32 ] [W/O NULL] [ LOG ]
– 100,0 [13981A54] [2FCDC08D]
01 98,5 [0191DFA0] [754A4386] CRC32
02 100,0 [E37CC107] [A78897C1] CRC32
03 92,9 [06B216BE] [BDFBB0AD] CRC32

Depeche Mode - Singles Collection [13 CD] (2001-2013)

Depeche Mode - Wrong (Remixes) (2009)
EAC Rip | FLAC (tracks+.cue+log) - 202 MB | MP3 CBR 320 kbps (LAME 3.93) - 70 MB | Covers - 11 MB
Genre: Synth-pop, House | RAR 3% Rec. | Label: Mute (LCDBONG40)

Tracklist:
01. Wrong (Original)
02. Wrong (Trentemoller Club Remix)
03. Wrong (Thin White Duke Remix)
04. Wrong (Magda's Scallop Funk Remix)
05. Wrong (D.I.M. Vs Boys Noize Remix)

Total time: 29:19

Exact Audio Copy V1.3 from 2. September 2016

EAC extraction logfile from 21. December 2019, 23:47

Depeche Mode / Wrong (Remixes)

Used drive : PIONEER DVD-RW DVR-215 Adapter: 1 ID: 1

Read mode : Secure
Utilize accurate stream : Yes
Defeat audio cache : Yes
Make use of C2 pointers : No

Read offset correction : 48
Overread into Lead-In and Lead-Out : No
Fill up missing offset samples with silence : Yes
Delete leading and trailing silent blocks : No
Null samples used in CRC calculations : Yes
Used interface : Native Win32 interface for Win NT & 2000
Gap handling : Appended to previous track

Used output format : User Defined Encoder
Selected bitrate : 1024 kBit/s
Quality : High
Add ID3 tag : No
Command line compressor : C:\Program Files (x86)\Exact Audio Copy\FLAC\FLAC.EXE
Additional command line options : -6 -V -T "COMMENT=ripped by RRC special for new-team org" -T "ARTIST=%artist%" -T "TITLE=%title%" -T "ALBUM=%albumtitle%" -T "DATE=%year%" -T "TRACKNUMBER=%tracknr%" -T "GENRE=%genre%" %source%


TOC of the extracted CD

Track | Start | Length | Start sector | End sector
––––––––––––––––––––––––––––-
1 | 0:00.00 | 3:13.02 | 0 | 14476
2 | 3:13.02 | 6:55.38 | 14477 | 45639
3 | 10:08.40 | 7:40.45 | 45640 | 80184
4 | 17:49.10 | 6:21.55 | 80185 | 108814
5 | 24:10.65 | 5:08.27 | 108815 | 131941


Track 1

Filename E:\RRCLtd Rip\01 - Wrong.wav

Pre-gap length 0:00:02.00

Peak level 98.7 %
Extraction speed 4.3 X
Track quality 100.0 %
Test CRC C6372C9E
Copy CRC C6372C9E
Accurately ripped (confidence 51) [70468E0A] (AR v2)
Copy OK

Track 2

Filename E:\RRCLtd Rip\02 - Wrong (Trentemøller Club Remix).wav

Pre-gap length 0:00:01.15

Peak level 98.7 %
Extraction speed 5.4 X
Track quality 100.0 %
Test CRC 2D842B92
Copy CRC 2D842B92
Accurately ripped (confidence 53) [897AD2D0] (AR v2)
Copy OK

Track 3

Filename E:\RRCLtd Rip\03 - Wrong (Thin White Duke Remix).wav

Pre-gap length 0:00:01.68

Peak level 98.7 %
Extraction speed 6.2 X
Track quality 100.0 %
Test CRC 0452E97B
Copy CRC 0452E97B
Accurately ripped (confidence 53) [85A3060A] (AR v2)
Copy OK

Track 4

Filename E:\RRCLtd Rip\04 - Wrong (Magda's Scallop Funk Remix).wav

Pre-gap length 0:00:00.65

Peak level 98.7 %
Extraction speed 6.6 X
Track quality 100.0 %
Test CRC FA61C3DD
Copy CRC FA61C3DD
Accurately ripped (confidence 53) [7DD003EB] (AR v2)
Copy OK

Track 5

Filename E:\RRCLtd Rip\05 - Wrong (D.I.M. vs. Boys Noize Remix).wav

Pre-gap length 0:00:00.05

Peak level 98.7 %
Extraction speed 7.0 X
Track quality 100.0 %
Test CRC 53C0EE38
Copy CRC 53C0EE38
Accurately ripped (confidence 53) [558B7042] (AR v2)
Copy OK


All tracks accurately ripped

No errors occurred

End of status report

–– CUETools DB Plugin V2.1.6

[CTDB TOCID: RMZm_Vo7v8ILAb2UNhBMA1x7.Og-] found
Submit result: RMZm_Vo7v8ILAb2UNhBMA1x7.Og- has been confirmed
Track | CTDB Status
1 | (78/78) Accurately ripped
2 | (78/78) Accurately ripped
3 | (78/78) Accurately ripped
4 | (78/78) Accurately ripped
5 | (78/78) Accurately ripped


==== Log checksum 60EC7C5D4A185C9B1F01C5FB4B2A111AAB54D0A5235E84C36CDBFD390AC47C3F ====

[CUETools log; Date: 14.07.2021 21:21:13; Version: 2.1.4]
[CTDB TOCID: RMZm_Vo7v8ILAb2UNhBMA1x7.Og-] found.
Track | CTDB Status
1 | (103/103) Accurately ripped
2 | (103/103) Accurately ripped
3 | (103/103) Accurately ripped
4 | (102/103) Accurately ripped
5 | (103/103) Accurately ripped
[AccurateRip ID: 0005d083-001bce86-2d06df05] found.
Track [ CRC | V2 ] Status
01 [c74d33e6|70468e0a] (051+060/111) Accurately ripped
02 [ee0ad1d5|897ad2d0] (053+062/115) Accurately ripped
03 [6bb276e7|85a3060a] (053+062/115) Accurately ripped
04 [a35be0fb|7dd003eb] (053+062/115) Accurately ripped
05 [0367e911|558b7042] (053+062/115) Accurately ripped

Track Peak [ CRC32 ] [W/O NULL] [ LOG ]
– 98,7 [59995159] [CA35690A]
01 98,7 [C6372C9E] [DC807B36] CRC32
02 98,7 [2D842B92] [97CC8AE1] CRC32
03 98,7 [0452E97B] [A81B39D5] CRC32
04 98,7 [FA61C3DD] [60FCFA13] CRC32
05 98,7 [53C0EE38] [5539D0EA] CRC32

Depeche Mode - Singles Collection [13 CD] (2001-2013)

Depeche Mode - Peace (Remixes) (2009)
EAC Rip | FLAC (tracks+.cue+log) - 257 MB | MP3 CBR 320 kbps (LAME 3.93) - 87 MB | Covers - 10 MB
Genre: Synth-pop, House | RAR 3% Rec. | Label: Mute (LCDBONG41)

Tracklist:
01. Peace (Single Version)
02. Peace (Herve's 'Warehouse Frequencies' Remix)
03. Peace (Sander Van Doorn Remix)
04. Peace (The Japanese Popstars Remix)
05. Peace (Sid LeRock Remix)
06. Peace (Justus Kohncke Extended Disco Club Vocal Remix)

Total time: 36:29

Exact Audio Copy V1.3 from 2. September 2016

EAC extraction logfile from 24. December 2019, 0:24

Depeche Mode / Peace (Remixes)

Used drive : PIONEER DVD-RW DVR-221L Adapter: 1 ID: 1

Read mode : Secure
Utilize accurate stream : Yes
Defeat audio cache : Yes
Make use of C2 pointers : No

Read offset correction : 6
Overread into Lead-In and Lead-Out : No
Fill up missing offset samples with silence : Yes
Delete leading and trailing silent blocks : No
Null samples used in CRC calculations : Yes
Used interface : Native Win32 interface for Win NT & 2000
Gap handling : Appended to previous track

Used output format : User Defined Encoder
Selected bitrate : 1024 kBit/s
Quality : High
Add ID3 tag : No
Command line compressor : C:\Program Files (x86)\Exact Audio Copy\FLAC\FLAC.EXE
Additional command line options : -6 -V -T "COMMENT=ripped by RRC special for new-team org" -T "ARTIST=%artist%" -T "TITLE=%title%" -T "ALBUM=%albumtitle%" -T "DATE=%year%" -T "TRACKNUMBER=%tracknr%" -T "GENRE=%genre%" %source%


TOC of the extracted CD

Track | Start | Length | Start sector | End sector
––––––––––––––––––––––––––––-
1 | 0:00.00 | 3:38.00 | 0 | 16349
2 | 3:38.00 | 5:10.25 | 16350 | 39624
3 | 8:48.25 | 8:01.17 | 39625 | 75716
4 | 16:49.42 | 6:41.30 | 75717 | 105821
5 | 23:30.72 | 6:35.33 | 105822 | 135479
6 | 30:06.30 | 6:22.25 | 135480 | 164154


Track 1

Filename E:\RRCLtd Rip\01 - Peace (Single Version).wav

Pre-gap length 0:00:02.00

Peak level 98.7 %
Extraction speed 2.7 X
Track quality 100.0 %
Test CRC 427D5A36
Copy CRC 427D5A36
Accurately ripped (confidence 34) [CB085199] (AR v2)
Copy OK

Track 2

Filename E:\RRCLtd Rip\02 - Peace (Hervé’s ‘Warehouse Frequencies’ Remix).wav

Pre-gap length 0:00:01.35

Peak level 99.8 %
Extraction speed 3.2 X
Track quality 100.0 %
Test CRC 68DCDAC8
Copy CRC 68DCDAC8
Accurately ripped (confidence 36) [C12D8079] (AR v2)
Copy OK

Track 3

Filename E:\RRCLtd Rip\03 - Peace (Sander Van Doorn Remix).wav

Pre-gap length 0:00:01.65

Peak level 95.9 %
Extraction speed 3.8 X
Track quality 100.0 %
Test CRC 6465BBE1
Copy CRC 6465BBE1
Accurately ripped (confidence 36) [9C0B93C0] (AR v2)
Copy OK

Track 4

Filename E:\RRCLtd Rip\04 - Peace (The Japanese Popstars Remix).wav

Pre-gap length 0:00:01.05

Peak level 98.7 %
Extraction speed 3.5 X
Track quality 99.9 %
Test CRC 2A5BB349
Copy CRC 2A5BB349
Accurately ripped (confidence 36) [0EB1E3A5] (AR v2)
Copy OK

Track 5

Filename E:\RRCLtd Rip\05 - Peace (Sid Lerock Remix).wav

Peak level 98.7 %
Extraction speed 4.5 X
Track quality 100.0 %
Test CRC FCEDE615
Copy CRC FCEDE615
Accurately ripped (confidence 36) [F4A03991] (AR v2)
Copy OK

Track 6

Filename E:\RRCLtd Rip\06 - Peace (Justus Köhncke Extended Disco Club Vocal Remix).wav

Peak level 98.7 %
Extraction speed 4.8 X
Track quality 100.0 %
Test CRC 64DFDA0C
Copy CRC 64DFDA0C
Accurately ripped (confidence 36) [B3A2BCF6] (AR v2)
Copy OK


All tracks accurately ripped

No errors occurred

End of status report

–– CUETools DB Plugin V2.1.6

[CTDB TOCID: ikkl9QvbC0ne_pZSiUlFGEiB50c-] found
Submit result: ikkl9QvbC0ne_pZSiUlFGEiB50c- has been confirmed
Track | CTDB Status
1 | (38/39) Accurately ripped
2 | (39/39) Accurately ripped
3 | (38/39) Accurately ripped
4 | (39/39) Accurately ripped
5 | (39/39) Accurately ripped
6 | (38/39) Accurately ripped


==== Log checksum 7AFC7D8AE524942FF7DE3F810A4F439CDC922DCD2D29C4A5EE9C340EE4AA6346 ====

[CUETools log; Date: 14.07.2021 21:21:39; Version: 2.1.4]
[CTDB TOCID: ikkl9QvbC0ne_pZSiUlFGEiB50c-] found.
Track | CTDB Status
1 | (58/59) Accurately ripped
2 | (59/59) Accurately ripped
3 | (58/59) Accurately ripped
4 | (59/59) Accurately ripped
5 | (59/59) Accurately ripped
6 | (58/59) Accurately ripped
[AccurateRip ID: 0008323d-002cf1ef-2a088c06] found.
Track [ CRC | V2 ] Status
01 [577ce6c3|cb085199] (30+41/71) Accurately ripped
02 [4b9ae21b|c12d8079] (30+43/73) Accurately ripped
03 [e96022fb|9c0b93c0] (30+43/73) Accurately ripped
04 [03f694c2|0eb1e3a5] (30+43/73) Accurately ripped
05 [69ba4f07|f4a03991] (30+43/73) Accurately ripped
06 [0f0c41c6|b3a2bcf6] (30+43/73) Accurately ripped

Track Peak [ CRC32 ] [W/O NULL] [ LOG ]
– 99,8 [11D2972D] [C88281C8]
01 98,7 [427D5A36] [B111BA8A] CRC32
02 99,8 [68DCDAC8] [93C9E03B] CRC32
03 95,9 [6465BBE1] [2E7F87D1] CRC32
04 98,7 [2A5BB349] [50919D9B] CRC32
05 98,7 [FCEDE615] [780BBFD4] CRC32
06 98,7 [64DFDA0C] [667A2A6C] CRC32

Depeche Mode - Singles Collection [13 CD] (2001-2013)

Depeche Mode - Personal Jesus 2011 (2011)
EAC Rip | FLAC (tracks+.cue+log) - 212 MB | MP3 CBR 320 kbps (LAME 3.93) - 69 MB | Covers - 9 MB
Genre: Synth-pop, House | RAR 3% Rec. | Label: Mute (CDBONG43)

Tracklist:
01. Personal Jesus (The Stargate Mix)
02. Personal Jesus (Alex Metric Remix)
03. Personal Jesus (Eric Prydz Remix)
04. Personal Jesus (M.A.N. Remix)
05. Personal Jesus (Sie Medway-Smith Remix)

Total time: 29:09

Exact Audio Copy V1.3 from 2. September 2016

EAC extraction logfile from 21. December 2019, 23:10

Depeche Mode / Personal Jesus 2011

Used drive : PIONEER DVD-RW DVR-215 Adapter: 1 ID: 1

Read mode : Secure
Utilize accurate stream : Yes
Defeat audio cache : Yes
Make use of C2 pointers : No

Read offset correction : 48
Overread into Lead-In and Lead-Out : No
Fill up missing offset samples with silence : Yes
Delete leading and trailing silent blocks : No
Null samples used in CRC calculations : Yes
Used interface : Native Win32 interface for Win NT & 2000
Gap handling : Appended to previous track

Used output format : User Defined Encoder
Selected bitrate : 1024 kBit/s
Quality : High
Add ID3 tag : No
Command line compressor : C:\Program Files (x86)\Exact Audio Copy\FLAC\FLAC.EXE
Additional command line options : -6 -V -T "COMMENT=ripped by RRC special for new-team org" -T "ARTIST=%artist%" -T "TITLE=%title%" -T "ALBUM=%albumtitle%" -T "DATE=%year%" -T "TRACKNUMBER=%tracknr%" -T "GENRE=%genre%" %source%


TOC of the extracted CD

Track | Start | Length | Start sector | End sector
––––––––––––––––––––––––––––-
1 | 0:00.00 | 3:57.20 | 0 | 17794
2 | 3:57.20 | 5:57.12 | 17795 | 44581
3 | 9:54.32 | 7:26.06 | 44582 | 78037
4 | 17:20.38 | 5:23.74 | 78038 | 102336
5 | 22:44.37 | 6:25.07 | 102337 | 131218


Track 1

Filename E:\RRCLtd Rip\01 - Personal Jesus (The Stargate Mix).wav

Pre-gap length 0:00:02.00

Peak level 100.0 %
Extraction speed 4.5 X
Track quality 100.0 %
Test CRC CCFABF4B
Copy CRC CCFABF4B
Accurately ripped (confidence 50) [0E970D1F] (AR v2)
Copy OK

Track 2

Filename E:\RRCLtd Rip\02 - Personal Jesus (Alex Metric Remix).wav

Pre-gap length 0:00:00.22

Peak level 100.0 %
Extraction speed 5.3 X
Track quality 100.0 %
Test CRC EA6DB30A
Copy CRC EA6DB30A
Accurately ripped (confidence 49) [7A8AD631] (AR v2)
Copy OK

Track 3

Filename E:\RRCLtd Rip\03 - Personal Jesus (Eric Prydz Remix).wav

Pre-gap length 0:00:02.19

Peak level 100.0 %
Extraction speed 6.1 X
Track quality 100.0 %
Test CRC 98C310B3
Copy CRC 98C310B3
Accurately ripped (confidence 48) [AC0A93DB] (AR v2)
Copy OK

Track 4

Filename E:\RRCLtd Rip\04 - Personal Jesus (M.A.N. Remix).wav

Pre-gap length 0:00:00.12

Peak level 100.0 %
Extraction speed 6.4 X
Track quality 100.0 %
Test CRC ECB9179A
Copy CRC ECB9179A
Accurately ripped (confidence 49) [EEF63C78] (AR v2)
Copy OK

Track 5

Filename E:\RRCLtd Rip\05 - Personal Jesus (Sie Medway-Smith Remix).wav

Pre-gap length 0:00:01.48

Peak level 100.0 %
Extraction speed 7.0 X
Track quality 100.0 %
Test CRC 70D3E949
Copy CRC 70D3E949
Accurately ripped (confidence 49) [2A1C336D] (AR v2)
Copy OK


All tracks accurately ripped

No errors occurred

End of status report

–– CUETools DB Plugin V2.1.6

[CTDB TOCID: i.TTuPrAYPWLPu2JMAKFdjHWlQA-] found
Submit result: i.TTuPrAYPWLPu2JMAKFdjHWlQA- has been confirmed
Track | CTDB Status
1 | (51/52) Accurately ripped
2 | (51/52) Accurately ripped
3 | (50/52) Accurately ripped
4 | (51/52) Accurately ripped
5 | (51/52) Accurately ripped


==== Log checksum EF5969D6E7724420752F1B93A251F5828403B240529EDFCBB5D78D8EE89B987F ====

[CUETools log; Date: 14.07.2021 21:22:04; Version: 2.1.4]
[CTDB TOCID: i.TTuPrAYPWLPu2JMAKFdjHWlQA-] found.
Track | CTDB Status
1 | (72/75) Accurately ripped
2 | (73/75) Accurately ripped
3 | (73/75) Accurately ripped
4 | (73/75) Accurately ripped
5 | (74/75) Accurately ripped
[AccurateRip ID: 0005b4d3-001b2b08-3b06d505] found.
Track [ CRC | V2 ] Status
01 [45171a9d|0e970d1f] (18+54/72) Accurately ripped
02 [5dd05841|7a8ad631] (18+53/71) Accurately ripped
03 [43a26b6e|ac0a93db] (18+52/70) Accurately ripped
04 [608d13a8|eef63c78] (18+53/71) Accurately ripped
05 [cd2d70c6|2a1c336d] (18+53/71) Accurately ripped

Track Peak [ CRC32 ] [W/O NULL] [ LOG ]
– 100,0 [E7A8B0A8] [89066C6C]
01 100,0 [CCFABF4B] [AC9DA272] CRC32
02 100,0 [EA6DB30A] [966677C4] CRC32
03 100,0 [98C310B3] [94AB416C] CRC32
04 100,0 [ECB9179A] [D8CCCA8B] CRC32
05 100,0 [70D3E949] [D7C954C0] CRC32

Depeche Mode - Singles Collection [13 CD] (2001-2013)

Depeche Mode - Heaven (2013)
EAC Rip | FLAC (tracks+.cue+log) - 174 MB | MP3 CBR 320 kbps (LAME 3.93) - 64 MB | Covers - 19 MB
Genre: Synth-pop, House | RAR 3% Rec. | Label: Columbia Records (88765475372)

Tracklist:
01. Heaven (Album Version)
02. Heaven (Owlle Remix)
03. Heaven (Steps To Heaven Rmx)
04. Heaven (Blawan Remix)
05. Heaven (Matthew Dear Vs. Audion Vocal Mix)

Total time: 26:46

Exact Audio Copy V1.3 from 2. September 2016

EAC extraction logfile from 12. December 2019, 23:00

Depeche Mode / Heaven (MCD)

Used drive : PIONEER DVD-RW DVR-221L Adapter: 1 ID: 1

Read mode : Secure
Utilize accurate stream : Yes
Defeat audio cache : Yes
Make use of C2 pointers : No

Read offset correction : 6
Overread into Lead-In and Lead-Out : No
Fill up missing offset samples with silence : Yes
Delete leading and trailing silent blocks : No
Null samples used in CRC calculations : Yes
Used interface : Native Win32 interface for Win NT & 2000
Gap handling : Appended to previous track

Used output format : User Defined Encoder
Selected bitrate : 1024 kBit/s
Quality : High
Add ID3 tag : No
Command line compressor : C:\Program Files (x86)\Exact Audio Copy\FLAC\FLAC.EXE
Additional command line options : -6 -V -T "COMMENT=ripped by RRC special for new-team org" -T "ARTIST=%artist%" -T "TITLE=%title%" -T "ALBUM=%albumtitle%" -T "DATE=%year%" -T "TRACKNUMBER=%tracknr%" -T "GENRE=%genre%" %source%


TOC of the extracted CD

Track | Start | Length | Start sector | End sector
––––––––––––––––––––––––––––-
1 | 0:00.00 | 4:05.23 | 0 | 18397
2 | 4:05.23 | 4:47.60 | 18398 | 39982
3 | 8:53.08 | 6:10.56 | 39983 | 67788
4 | 15:03.64 | 5:43.40 | 67789 | 93553
5 | 20:47.29 | 5:59.12 | 93554 | 120490


Track 1

Filename E:\RRCLtd Rip\01 - Heaven.wav

Pre-gap length 0:00:02.00

Peak level 98.8 %
Extraction speed 2.7 X
Track quality 100.0 %
Test CRC E2FBA237
Copy CRC E2FBA237
Accurately ripped (confidence 56) [AD6F470E] (AR v2)
Copy OK

Track 2

Filename E:\RRCLtd Rip\02 - Heaven (Owlle Remix).wav

Pre-gap length 0:00:01.04

Peak level 98.8 %
Extraction speed 2.5 X
Track quality 99.9 %
Test CRC 336BDB17
Copy CRC 336BDB17
Accurately ripped (confidence 57) [7B2A601B] (AR v2)
Copy OK

Track 3

Filename E:\RRCLtd Rip\03 - Heaven (Ssteps To Heaven RMX).wav

Pre-gap length 0:00:01.51

Peak level 98.8 %
Extraction speed 3.5 X
Track quality 100.0 %
Test CRC 9A1F5C97
Copy CRC 9A1F5C97
Accurately ripped (confidence 57) [AF1E2848] (AR v2)
Copy OK

Track 4

Filename E:\RRCLtd Rip\04 - Heaven (Blawan Remix).wav

Pre-gap length 0:00:03.10

Peak level 98.8 %
Extraction speed 3.8 X
Track quality 100.0 %
Test CRC 2BBD766B
Copy CRC 2BBD766B
Accurately ripped (confidence 57) [FB0678BC] (AR v2)
Copy OK

Track 5

Filename E:\RRCLtd Rip\05 - Heaven (Matthew Dear vs. Audion Vocal Mix).wav

Pre-gap length 0:00:03.13

Peak level 98.8 %
Extraction speed 4.1 X
Track quality 100.0 %
Test CRC F3193FB6
Copy CRC F3193FB6
Accurately ripped (confidence 57) [552E7FAF] (AR v2)
Copy OK


All tracks accurately ripped

No errors occurred

End of status report

–– CUETools DB Plugin V2.1.6

[CTDB TOCID: Zwohn9jOGoZtw4ZqlyuZvs9_S8Q-] found
Submit result: Zwohn9jOGoZtw4ZqlyuZvs9_S8Q- has been confirmed
Track | CTDB Status
1 | (108/109) Accurately ripped
2 | (108/109) Accurately ripped
3 | (108/109) Accurately ripped
4 | (108/109) Accurately ripped
5 | (108/109) Accurately ripped


==== Log checksum 3E702515EC9943E03A173AE05ABBA475B6D7E9227C2C6B22AFB82649FE216AE7 ====

[CUETools log; Date: 14.07.2021 21:22:28; Version: 2.1.4]
[CTDB TOCID: Zwohn9jOGoZtw4ZqlyuZvs9_S8Q-] found.
Track | CTDB Status
1 | (129/130) Accurately ripped
2 | (129/130) Accurately ripped
3 | (129/130) Accurately ripped
4 | (129/130) Accurately ripped
5 | (129/130) Accurately ripped
[AccurateRip ID: 000530f7-0018b2ba-3a064605] found.
Track [ CRC | V2 ] Status
01 [486d12e6|ad6f470e] (09+62/71) Accurately ripped
02 [0f1b8ff1|7b2a601b] (09+63/72) Accurately ripped
03 [68e177d0|af1e2848] (09+63/72) Accurately ripped
04 [ee78c72e|fb0678bc] (09+63/72) Accurately ripped
05 [7d20dbf5|552e7faf] (09+63/72) Accurately ripped

Track Peak [ CRC32 ] [W/O NULL] [ LOG ]
– 98,8 [DFF3602D] [179CECD2]
01 98,8 [E2FBA237] [A3F4A875] CRC32
02 98,8 [336BDB17] [C47791BD] CRC32
03 98,8 [9A1F5C97] [CED0A4A8] CRC32
04 98,8 [2BBD766B] [514067AD] CRC32
05 98,8 [F3193FB6] [41259BE4] CRC32

Depeche Mode - Singles Collection [13 CD] (2001-2013)

Depeche Mode - Soothe My Soul (2013)
EAC Rip | FLAC (tracks+.cue+log) - 250 MB | MP3 CBR 320 kbps (LAME 3.93) - 86 MB | Covers - 15 MB
Genre: Synth-pop, House | RAR 3% Rec. | Label: Columbia Records (88883730692)

Tracklist:
01. Soothe My Soul (Steve Angello Vs Jacques Lu Cont Remix)
02. Soothe My Soul (Tom Furse - The Horrors Remix)
03. Soothe My Soul (Billy F Gibbons And Joe Hardy Remix)
04. Soothe My Soul (Joris Delacroix Remix)
05. Soothe My Soul (Black Asteroid Remix)
06. Soothe My Soul (Gregor Tresher Soothed Remix)

Total time: 35:49

Exact Audio Copy V1.3 from 2. September 2016

EAC extraction logfile from 13. December 2019, 0:05

Depeche Mode / Soothe My Soul (MCD)

Used drive : PIONEER DVD-RW DVR-221L Adapter: 1 ID: 1

Read mode : Secure
Utilize accurate stream : Yes
Defeat audio cache : Yes
Make use of C2 pointers : No

Read offset correction : 6
Overread into Lead-In and Lead-Out : No
Fill up missing offset samples with silence : Yes
Delete leading and trailing silent blocks : No
Null samples used in CRC calculations : Yes
Used interface : Native Win32 interface for Win NT & 2000
Gap handling : Appended to previous track

Used output format : User Defined Encoder
Selected bitrate : 1024 kBit/s
Quality : High
Add ID3 tag : No
Command line compressor : C:\Program Files (x86)\Exact Audio Copy\FLAC\FLAC.EXE
Additional command line options : -6 -V -T "COMMENT=ripped by RRC special for new-team org" -T "ARTIST=%artist%" -T "TITLE=%title%" -T "ALBUM=%albumtitle%" -T "DATE=%year%" -T "TRACKNUMBER=%tracknr%" -T "GENRE=%genre%" %source%


TOC of the extracted CD

Track | Start | Length | Start sector | End sector
––––––––––––––––––––––––––––-
1 | 0:00.00 | 7:03.39 | 0 | 31763
2 | 7:03.39 | 4:58.30 | 31764 | 54143
3 | 12:01.69 | 5:17.12 | 54144 | 77930
4 | 17:19.06 | 6:55.04 | 77931 | 109059
5 | 24:14.10 | 5:35.29 | 109060 | 134213
6 | 29:49.39 | 5:59.59 | 134214 | 161197


Track 1

Filename E:\RRCLtd Rip\01 - Soothe My Soul (Steve Angello vs Jacques Lu Cont Remix).wav

Pre-gap length 0:00:02.00

Peak level 99.1 %
Extraction speed 3.0 X
Track quality 100.0 %
Test CRC 20B31315
Copy CRC 20B31315
Accurately ripped (confidence 46) [3F904E4A] (AR v2)
Copy OK

Track 2

Filename E:\RRCLtd Rip\02 - Soothe My Soul (Tom Furse - The Horrors Remix).wav

Peak level 99.3 %
Extraction speed 3.3 X
Track quality 100.0 %
Test CRC 73DA5437
Copy CRC 73DA5437
Accurately ripped (confidence 46) [6A6C6324] (AR v2)
Copy OK

Track 3

Filename E:\RRCLtd Rip\03 - Soothe My Soul (Billy F Gibbons and Joe Hardy Remix).wav

Peak level 99.5 %
Extraction speed 3.6 X
Track quality 100.0 %
Test CRC 297CC62C
Copy CRC 297CC62C
Accurately ripped (confidence 46) [B5F29E21] (AR v2)
Copy OK

Track 4

Filename E:\RRCLtd Rip\04 - Soothe My Soul (Joris Delacroix Remix).wav

Peak level 100.0 %
Extraction speed 4.0 X
Track quality 100.0 %
Test CRC 589D8C54
Copy CRC 589D8C54
Accurately ripped (confidence 46) [81EF8BB9] (AR v2)
Copy OK

Track 5

Filename E:\RRCLtd Rip\05 - Soothe My Soul (Black Asteroid Remix).wav

Peak level 99.3 %
Extraction speed 4.4 X
Track quality 100.0 %
Test CRC A8BC1B58
Copy CRC A8BC1B58
Accurately ripped (confidence 46) [659F4F13] (AR v2)
Copy OK

Track 6

Filename E:\RRCLtd Rip\06 - Soothe My Soul (Gregor Tresher Soothed Remix).wav

Peak level 99.3 %
Extraction speed 4.7 X
Track quality 100.0 %
Test CRC 5EA5DA23
Copy CRC 5EA5DA23
Accurately ripped (confidence 46) [3A17AE8E] (AR v2)
Copy OK


All tracks accurately ripped

No errors occurred

End of status report

–– CUETools DB Plugin V2.1.6

[CTDB TOCID: UAlZE_wlxrSyxOb6muaLKFR9Np4-] found
Submit result: UAlZE_wlxrSyxOb6muaLKFR9Np4- has been confirmed
Track | CTDB Status
1 | (71/71) Accurately ripped
2 | (71/71) Accurately ripped
3 | (71/71) Accurately ripped
4 | (71/71) Accurately ripped
5 | (70/71) Accurately ripped
6 | (69/71) Accurately ripped


==== Log checksum FFE5C0E6CEE03B5B6521FBA9341FFA8DE1FA1873D662CB93C1AB7FBFE0E4675F ====

[CUETools log; Date: 14.07.2021 21:23:02; Version: 2.1.4]
[CTDB TOCID: UAlZE_wlxrSyxOb6muaLKFR9Np4-] found.
Track | CTDB Status
1 | (90/90) Accurately ripped
2 | (90/90) Accurately ripped
3 | (90/90) Accurately ripped
4 | (90/90) Accurately ripped
5 | (89/90) Accurately ripped
6 | (88/90) Accurately ripped
[AccurateRip ID: 0008abf7-002e07cf-41086506] found.
Track [ CRC | V2 ] Status
01 [367a8c42|3f904e4a] (04+51/55) Accurately ripped
02 [5dbebc6a|6a6c6324] (04+51/55) Accurately ripped
03 [a5ef6008|b5f29e21] (04+51/55) Accurately ripped
04 [942b2d7a|81ef8bb9] (04+51/55) Accurately ripped
05 [7eb18c1c|659f4f13] (04+51/55) Accurately ripped
06 [ad29c9d7|3a17ae8e] (04+50/54) Accurately ripped

Track Peak [ CRC32 ] [W/O NULL] [ LOG ]
– 100,0 [D0C4A0BF] [25A0C40E]
01 99,1 [20B31315] [96517EFF] CRC32
02 99,3 [73DA5437] [D6D514DB] CRC32
03 99,5 [297CC62C] [FA4B706F] CRC32
04 100,0 [589D8C54] [43554C39] CRC32
05 99,3 [A8BC1B58] [BD948B59] CRC32
06 99,3 [5EA5DA23] [5E0D5166] CRC32

Depeche Mode - Singles Collection [13 CD] (2001-2013)

Depeche Mode - Should Be Higher (2013)
EAC Rip | FLAC (tracks+.cue+log) - 178 MB | MP3 CBR 320 kbps (LAME 3.93) - 58 MB | Covers - 10 MB
Genre: Synth-pop, House | RAR 3% Rec. | Label: Columbia Records (88883758332)

Tracklist:
01. Should Be Higher (Jim Sclavunos From Grinderman Remix)
02. Should Be Higher (Little Vampire Remix)
03. Should Be Higher (MAPS Remix)
04. Should Be Higher (Jim Jones Revue Remix)
05. Should Be Higher (Radio Mix)

Total time: 24:09

Exact Audio Copy V1.3 from 2. September 2016

EAC extraction logfile from 12. December 2019, 23:30

Depeche Mode / Should Be Higher (MCD)

Used drive : PIONEER DVD-RW DVR-221L Adapter: 1 ID: 1

Read mode : Secure
Utilize accurate stream : Yes
Defeat audio cache : Yes
Make use of C2 pointers : No

Read offset correction : 6
Overread into Lead-In and Lead-Out : No
Fill up missing offset samples with silence : Yes
Delete leading and trailing silent blocks : No
Null samples used in CRC calculations : Yes
Used interface : Native Win32 interface for Win NT & 2000
Gap handling : Appended to previous track

Used output format : User Defined Encoder
Selected bitrate : 1024 kBit/s
Quality : High
Add ID3 tag : No
Command line compressor : C:\Program Files (x86)\Exact Audio Copy\FLAC\FLAC.EXE
Additional command line options : -6 -V -T "COMMENT=ripped by RRC special for new-team org" -T "ARTIST=%artist%" -T "TITLE=%title%" -T "ALBUM=%albumtitle%" -T "DATE=%year%" -T "TRACKNUMBER=%tracknr%" -T "GENRE=%genre%" %source%


TOC of the extracted CD

Track | Start | Length | Start sector | End sector
––––––––––––––––––––––––––––-
1 | 0:00.00 | 4:11.61 | 0 | 18885
2 | 4:11.61 | 5:30.64 | 18886 | 43699
3 | 9:42.50 | 5:42.36 | 43700 | 69385
4 | 15:25.11 | 5:14.69 | 69386 | 93004
5 | 20:40.05 | 3:29.38 | 93005 | 108717


Track 1

Filename E:\RRCLtd Rip\01 - Should Be Higher (Jim Sclavunos from Grinderman Remix).wav

Pre-gap length 0:00:02.00

Peak level 98.8 %
Extraction speed 2.7 X
Track quality 100.0 %
Test CRC 3A445292
Copy CRC 3A445292
Accurately ripped (confidence 38) [84DF12A5] (AR v2)
Copy OK

Track 2

Filename E:\RRCLtd Rip\02 - Should Be Higher (Little Vampire Remix).wav

Peak level 100.0 %
Extraction speed 3.1 X
Track quality 100.0 %
Test CRC ADA98B88
Copy CRC ADA98B88
Accurately ripped (confidence 38) [2C8685DF] (AR v2)
Copy OK

Track 3

Filename E:\RRCLtd Rip\03 - Should Be Higher (MAPS Remix).wav

Peak level 98.8 %
Extraction speed 3.5 X
Track quality 100.0 %
Test CRC 330B469D
Copy CRC 330B469D
Accurately ripped (confidence 38) [60590D66] (AR v2)
Copy OK

Track 4

Filename E:\RRCLtd Rip\04 - Should Be Higher (Jim Jones Revue Remix).wav

Peak level 95.4 %
Extraction speed 3.8 X
Track quality 100.0 %
Test CRC EB6BFBB8
Copy CRC EB6BFBB8
Accurately ripped (confidence 37) [4BEFA286] (AR v2)
Copy OK

Track 5

Filename E:\RRCLtd Rip\05 - Should Be Higher (Radio Mix).wav

Peak level 97.7 %
Extraction speed 2.9 X
Track quality 99.9 %
Test CRC 277DD152
Copy CRC 277DD152
Accurately ripped (confidence 36) [8E9DBC0B] (AR v2)
Copy OK


All tracks accurately ripped

No errors occurred

End of status report

–– CUETools DB Plugin V2.1.6

[CTDB TOCID: yUE7TfbN7MWloGue0bV644aox9Y-] found
Submit result: yUE7TfbN7MWloGue0bV644aox9Y- has been confirmed
Track | CTDB Status
1 | (54/54) Accurately ripped
2 | (54/54) Accurately ripped
3 | (54/54) Accurately ripped
4 | (53/54) Accurately ripped
5 | (54/54) Accurately ripped


==== Log checksum 1C3299DBC8A11624CE362E9510949C2D38D0EB1FB71552EBDB5E922C97E8A22E ====

[CUETools log; Date: 14.07.2021 21:23:27; Version: 2.1.4]
[CTDB TOCID: yUE7TfbN7MWloGue0bV644aox9Y-] found.
Track | CTDB Status
1 | (72/72) Accurately ripped
2 | (72/72) Accurately ripped
3 | (72/72) Accurately ripped
4 | (71/72) Accurately ripped
5 | (72/72) Accurately ripped
[AccurateRip ID: 0005177f-0017dc66-3805a905] found.
Track [ CRC | V2 ] Status
01 [d13a1a00|84df12a5] (00+42/42) Accurately ripped
02 [6b7e3023|2c8685df] (00+42/42) Accurately ripped
03 [d5cf8dae|60590d66] (00+42/42) Accurately ripped
04 [7aceabf5|4befa286] (00+41/41) Accurately ripped
05 [52a30ba5|8e9dbc0b] (00+40/40) Accurately ripped

Track Peak [ CRC32 ] [W/O NULL] [ LOG ]
– 100,0 [AC69D702] [B08C8AC8]
01 98,8 [3A445292] [354F5E14] CRC32
02 100,0 [ADA98B88] [E33A741D] CRC32
03 98,8 [330B469D] [0029B81D] CRC32
04 95,4 [EB6BFBB8] [61BCE3E6] CRC32
05 97,7 [277DD152] [6F3D0556] CRC32

Thanks to RRC

See also: