Subcategories
Tags
Language
Tags

Dexys Midnight Runners - Searching For The Young Soul Rebels (1980) [2CD Reissue 2013]

Posted By: gribovar
Dexys Midnight Runners - Searching For The Young Soul Rebels (1980) [2CD Reissue 2013]

Dexys Midnight Runners - Searching For The Young Soul Rebels (1980) [2CD Reissue 2013]
EAC Rip | FLAC (image+.cue+log) - 723 MB | MP3 CBR 320 kbps (LAME 3.93) - 258 MB | Covers - 33 MB
Genre: Pop Rock, New Wave, Post-Punk, Blue-Eyed Soul | RAR 3% Rec. | Label: EMI (CDPCSS 7213)

The crackling stations being switched on the radio and the gang shout followed by the spoken injunction to "burn it down" sound like they should be starting off a Sham 69 record. Then "Burn It Down" actually starts, with its horn section, Hammond organ and Kevin Rowland's utterly unconventional soul vocals. The cult of Dexy's, and this album in particular, were worshipped as the return of "soul" to English rock music at the dawn of Thatcherism. Exploring the myth that this album holds, especially in Brit music terms, can be a strange prospect: 20 years on it doesn't sound revolutionary, it just sounds good. And good it is, quite good, compared to where Paul Weller ended up, i.e., too reverential by half. This is vibrant, alive, and unconcerned with perfection. Rowland takes a role that Morrissey would have in 1985 and Jarvis Cocker in 1995 - the unexpected but perfect voice to capture a time and moment in the U.K. His slightly strangled wail and sly, wry lyrics and song titles ("Tell Me When My Light Turns Green," "Thankfully Not Living in Yorkshire It Doesn't Apply") make this album in many ways. Musically, the group lays down R&B grooves and brassy hooks with aplomb, as on the brilliant "Seven Days Too Long" and the number one single "Geno," but throw in film noir touches, John Barry-writing-for-James Bond fare and more just as ably.
CD 1 Tracklist (The Original Album):
01. Burn It Down
02. Tell Me When My Light Turns Green
03. The Teams That Meet In Caffs
04. I'm Just Looking
05. Geno
06. Seven Days Too Long
07. I Couldn't Help If I Tried
08. Thankfully Not Living In Yorkshire It Doesn't Apply
09. Keep It
10. Love Part One
11. There, There, My Dear

Total time: 39:11

CD 2 Tracklist (The Non-Album Singles And B-Sides, Demos & Radio Sessions):
01. Dance Stance (Alternate Single Mix)
02. I'm Just Looking (B-Side Version)
03. Breaking Down The Walls Of Heartache
04. The Horse
05. Keep It Part Two (Inferiority Part One)
06. One Way Love
07. Plan B
08. Soul Finger
09. Thankfully Not Living In Yorkshire It Doesn't Apply
10. Hold On! I'm Comin'
11. Breaking Down The Walls Of Heartache
12. The Horse
13. I Couldn't Help If I Tried
14. Geno
15. Tell Me When My Light Turns Green
16. The Horse
17. Breaking Down The Walls Of Heartache
18. Geno
19. Respect
20. Dance Stance
21. The Teams That Meet In Caffs

Total time: 01:10:29

Exact Audio Copy V1.6 from 23. October 2020

EAC extraction logfile from 4. March 2021, 11:49

Dexys Midnight Runners / Searching For The Young Soul Rebels (CD1)

Used drive : PLEXTOR PX-891SAF Adapter: 1 ID: 0

Read mode : Secure
Utilize accurate stream : Yes
Defeat audio cache : Yes
Make use of C2 pointers : No

Read offset correction : 6
Overread into Lead-In and Lead-Out : No
Fill up missing offset samples with silence : Yes
Delete leading and trailing silent blocks : No
Null samples used in CRC calculations : Yes
Used interface : Native Win32 interface for Win NT & 2000

Used output format : User Defined Encoder
Selected bitrate : 1024 kBit/s
Quality : High
Add ID3 tag : No
Command line compressor : C:\Program Files (x86)\Exact Audio Copy\Flac\flac.exe
Additional command line options : -V -6 %source% -o %dest%


TOC of the extracted CD

Track | Start | Length | Start sector | End sector
––––––––––––––––––––––––––––-
1 | 0:00.00 | 4:22.06 | 0 | 19655
2 | 4:22.06 | 3:46.14 | 19656 | 36619
3 | 8:08.20 | 4:08.56 | 36620 | 55275
4 | 12:17.01 | 4:41.45 | 55276 | 76395
5 | 16:58.46 | 3:31.12 | 76396 | 92232
6 | 20:29.58 | 2:43.15 | 92233 | 104472
7 | 23:12.73 | 4:14.34 | 104473 | 123556
8 | 27:27.32 | 2:58.51 | 123557 | 136957
9 | 30:26.08 | 4:00.00 | 136958 | 154957
10 | 34:26.08 | 1:12.34 | 154958 | 160391
11 | 35:38.42 | 3:32.69 | 160392 | 176360


Range status and errors

Selected range

Filename D:\WORKING\Dexys Midnight Runners - Searching For The Young Soul Rebels (CD1).wav

Peak level 100.0 %
Extraction speed 7.7 X
Range quality 100.0 %
Test CRC A78F9AF6
Copy CRC A78F9AF6
Copy OK

No errors occurred


AccurateRip summary

Track 1 accurately ripped (confidence 52) [98D1EE30] (AR v2)
Track 2 accurately ripped (confidence 52) [77902BBF] (AR v2)
Track 3 accurately ripped (confidence 52) [6A9C3B1F] (AR v2)
Track 4 accurately ripped (confidence 52) [9AA03C8A] (AR v2)
Track 5 accurately ripped (confidence 52) [63C38365] (AR v2)
Track 6 accurately ripped (confidence 52) [6C332E77] (AR v2)
Track 7 accurately ripped (confidence 52) [A0A69E27] (AR v2)
Track 8 accurately ripped (confidence 52) [12677F80] (AR v2)
Track 9 accurately ripped (confidence 52) [A3F80D0B] (AR v2)
Track 10 accurately ripped (confidence 52) [80A14B47] (AR v2)
Track 11 accurately ripped (confidence 52) [136A3A03] (AR v2)

All tracks accurately ripped

End of status report

–– CUETools DB Plugin V2.1.6

[CTDB TOCID: u3OKACrMrOg4m8gKKOoNuvGFPBw-] found
Submit result: u3OKACrMrOg4m8gKKOoNuvGFPBw- has been confirmed
Track | CTDB Status
1 | (71/71) Accurately ripped
2 | (71/71) Accurately ripped
3 | (71/71) Accurately ripped
4 | (71/71) Accurately ripped
5 | (71/71) Accurately ripped
6 | (71/71) Accurately ripped
7 | (71/71) Accurately ripped
8 | (71/71) Accurately ripped
9 | (71/71) Accurately ripped
10 | (71/71) Accurately ripped
11 | (71/71) Accurately ripped


==== Log checksum 18098BA49C614606CDD2FA849B894D8085270E2720D5E696A655C5127623CDC6 ====

[CUETools log; Date: 18.05.2021 18:29:33; Version: 2.1.4]
[CTDB TOCID: u3OKACrMrOg4m8gKKOoNuvGFPBw-] found.
Track | CTDB Status
1 | (77/77) Accurately ripped
2 | (77/77) Accurately ripped
3 | (77/77) Accurately ripped
4 | (77/77) Accurately ripped
5 | (77/77) Accurately ripped
6 | (77/77) Accurately ripped
7 | (77/77) Accurately ripped
8 | (77/77) Accurately ripped
9 | (77/77) Accurately ripped
10 | (77/77) Accurately ripped
11 | (77/77) Accurately ripped
[AccurateRip ID: 001158f0-0093d4cc-87092f0b] found.
Track [ CRC | V2 ] Status
01 [cd1dbd3e|98d1ee30] (08+52/64) Accurately ripped
02 [e265d92f|77902bbf] (08+52/64) Accurately ripped
03 [3a1aecf7|6a9c3b1f] (08+52/64) Accurately ripped
04 [4e74fcbd|9aa03c8a] (08+52/64) Accurately ripped
05 [8758e658|63c38365] (08+52/64) Accurately ripped
06 [d430ce4a|6c332e77] (08+52/64) Accurately ripped
07 [c3084d4b|a0a69e27] (08+52/64) Accurately ripped
08 [991523bd|12677f80] (08+52/64) Accurately ripped
09 [66e7fc61|a3f80d0b] (08+52/64) Accurately ripped
10 [3183b9c4|80a14b47] (08+52/64) Accurately ripped
11 [576c5864|136a3a03] (08+52/64) Accurately ripped
Offsetted by -6:
01 [11ab6bfa] (00/64) No match (V2 was not tested)
02 [1bf44e13] (00/64) No match (V2 was not tested)
03 [21779037] (00/64) No match (V2 was not tested)
04 [f31d9809] (00/64) No match (V2 was not tested)
05 [f51a49e4] (00/64) No match (V2 was not tested)
06 [3188efd2] (00/64) No match (V2 was not tested)
07 [7d709639] (00/64) No match (V2 was not tested)
08 [feaff97c] (00/64) No match (V2 was not tested)
09 [d63d7be4] (00/64) No match (V2 was not tested)
10 [8d19d46a] (00/64) No match (V2 was not tested)
11 [b49a339c] (00/64) No match (V2 was not tested)

Track Peak [ CRC32 ] [W/O NULL] [ LOG ]
– 100,0 [A78F9AF6] [BBADEF72] CRC32
01 92,8 [26C62F1F] [04761EA0]
02 99,6 [3062313A] [110B40F9]
03 85,2 [A6875D68] [66B5D6D7]
04 99,4 [6DA216B0] [A15D5067]
05 97,1 [BA3AE51E] [1E2E2C88]
06 97,2 [7C08B5B4] [5A796769]
07 100,0 [8DCA49B5] [4EBEB287]
08 92,8 [E9A45349] [81FD8248]
09 99,4 [086CEF41] [2C073B16]
10 73,1 [4A062E66] [72107013]
11 87,6 [43F7561E] [55DA57AD]

Exact Audio Copy V1.6 from 23. October 2020

EAC extraction logfile from 4. March 2021, 12:18

Dexys Midnight Runners / Searching For The Young Soul Rebels (CD2)

Used drive : PLEXTOR PX-891SAF Adapter: 1 ID: 0

Read mode : Secure
Utilize accurate stream : Yes
Defeat audio cache : Yes
Make use of C2 pointers : No

Read offset correction : 6
Overread into Lead-In and Lead-Out : No
Fill up missing offset samples with silence : Yes
Delete leading and trailing silent blocks : No
Null samples used in CRC calculations : Yes
Used interface : Native Win32 interface for Win NT & 2000

Used output format : User Defined Encoder
Selected bitrate : 1024 kBit/s
Quality : High
Add ID3 tag : No
Command line compressor : C:\Program Files (x86)\Exact Audio Copy\Flac\flac.exe
Additional command line options : -V -6 %source% -o %dest%


TOC of the extracted CD

Track | Start | Length | Start sector | End sector
––––––––––––––––––––––––––––-
1 | 0:00.00 | 3:44.70 | 0 | 16869
2 | 3:44.70 | 4:24.12 | 16870 | 36681
3 | 8:09.07 | 3:25.26 | 36682 | 52082
4 | 11:34.33 | 2:23.17 | 52083 | 62824
5 | 13:57.50 | 3:46.10 | 62825 | 79784
6 | 17:43.60 | 3:10.12 | 79785 | 94046
7 | 20:53.72 | 2:38.07 | 94047 | 105903
8 | 23:32.04 | 2:14.09 | 105904 | 115962
9 | 25:46.13 | 2:54.27 | 115963 | 129039
10 | 28:40.40 | 4:18.55 | 129040 | 148444
11 | 32:59.20 | 3:36.73 | 148445 | 164717
12 | 36:36.18 | 2:40.51 | 164718 | 176768
13 | 39:16.69 | 4:20.34 | 176769 | 196302
14 | 43:37.28 | 3:30.11 | 196303 | 212063
15 | 47:07.39 | 3:16.57 | 212064 | 226820
16 | 50:24.21 | 2:14.74 | 226821 | 236944
17 | 52:39.20 | 3:30.10 | 236945 | 252704
18 | 56:09.30 | 3:26.53 | 252705 | 268207
19 | 59:36.08 | 3:35.68 | 268208 | 284400
20 | 63:12.01 | 3:21.41 | 284401 | 299516
21 | 66:33.42 | 3:55.61 | 299517 | 317202


Range status and errors

Selected range

Filename D:\WORKING\Dexys Midnight Runners - Searching For The Young Soul Rebels (CD2).wav

Peak level 99.2 %
Extraction speed 8.9 X
Range quality 99.9 %
Test CRC 100444CA
Copy CRC 100444CA
Copy OK

No errors occurred


AccurateRip summary

Track 1 accurately ripped (confidence 48) [7DC020E1] (AR v2)
Track 2 accurately ripped (confidence 48) [0FACFEFB] (AR v2)
Track 3 accurately ripped (confidence 48) [6219613A] (AR v2)
Track 4 accurately ripped (confidence 48) [4E10710E] (AR v2)
Track 5 accurately ripped (confidence 48) [6A0029FF] (AR v2)
Track 6 accurately ripped (confidence 48) [59FBAA39] (AR v2)
Track 7 accurately ripped (confidence 48) [1001808C] (AR v2)
Track 8 accurately ripped (confidence 48) [455230D4] (AR v2)
Track 9 accurately ripped (confidence 46) [5EA0337C] (AR v2)
Track 10 accurately ripped (confidence 46) [61AD0547] (AR v2)
Track 11 accurately ripped (confidence 46) [1FAB0484] (AR v2)
Track 12 accurately ripped (confidence 46) [ED7B3E33] (AR v2)
Track 13 accurately ripped (confidence 46) [0D408546] (AR v2)
Track 14 accurately ripped (confidence 47) [F60E929E] (AR v2)
Track 15 accurately ripped (confidence 47) [28CE9996] (AR v2)
Track 16 accurately ripped (confidence 47) [343A3A74] (AR v2)
Track 17 accurately ripped (confidence 47) [3AE1B470] (AR v2)
Track 18 accurately ripped (confidence 47) [3E0482A7] (AR v2)
Track 19 accurately ripped (confidence 47) [A3BF4BD1] (AR v2)
Track 20 accurately ripped (confidence 47) [A5F0CEC5] (AR v2)
Track 21 accurately ripped (confidence 47) [08A13C45] (AR v2)

All tracks accurately ripped

End of status report

–– CUETools DB Plugin V2.1.6

[CTDB TOCID: ZKGBQpa6OvxFCXuhT19kAF9zaHw-] found
Submit result: ZKGBQpa6OvxFCXuhT19kAF9zaHw- has been confirmed
Track | CTDB Status
1 | (63/63) Accurately ripped
2 | (63/63) Accurately ripped
3 | (63/63) Accurately ripped
4 | (63/63) Accurately ripped
5 | (63/63) Accurately ripped
6 | (63/63) Accurately ripped
7 | (63/63) Accurately ripped
8 | (63/63) Accurately ripped
9 | (63/63) Accurately ripped
10 | (63/63) Accurately ripped
11 | (63/63) Accurately ripped
12 | (63/63) Accurately ripped
13 | (63/63) Accurately ripped
14 | (63/63) Accurately ripped
15 | (63/63) Accurately ripped
16 | (63/63) Accurately ripped
17 | (63/63) Accurately ripped
18 | (63/63) Accurately ripped
19 | (63/63) Accurately ripped
20 | (63/63) Accurately ripped
21 | (63/63) Accurately ripped


==== Log checksum 55AE0B9CF101F53EE605FE7FA9EC448A2050CFC9475FB3D4F06BDA7C7FB6F232 ====

[CUETools log; Date: 18.05.2021 18:30:01; Version: 2.1.4]
[CTDB TOCID: ZKGBQpa6OvxFCXuhT19kAF9zaHw-] found.
Track | CTDB Status
1 | (68/68) Accurately ripped
2 | (68/68) Accurately ripped
3 | (68/68) Accurately ripped
4 | (68/68) Accurately ripped
5 | (68/68) Accurately ripped
6 | (68/68) Accurately ripped
7 | (68/68) Accurately ripped
8 | (68/68) Accurately ripped
9 | (68/68) Accurately ripped
10 | (68/68) Accurately ripped
11 | (68/68) Accurately ripped
12 | (68/68) Accurately ripped
13 | (68/68) Accurately ripped
14 | (68/68) Accurately ripped
15 | (68/68) Accurately ripped
16 | (68/68) Accurately ripped
17 | (68/68) Accurately ripped
18 | (68/68) Accurately ripped
19 | (68/68) Accurately ripped
20 | (68/68) Accurately ripped
21 | (68/68) Accurately ripped
[AccurateRip ID: 00350f32-0329edb6-51108515] found.
Track [ CRC | V2 ] Status
01 [27300f16|7dc020e1] (07+48/59) Accurately ripped
02 [3b928714|0facfefb] (07+48/59) Accurately ripped
03 [a3c9da7b|6219613a] (07+48/59) Accurately ripped
04 [17833169|4e10710e] (07+48/59) Accurately ripped
05 [5f77d521|6a0029ff] (07+48/59) Accurately ripped
06 [340ba374|59fbaa39] (07+48/59) Accurately ripped
07 [87c12aec|1001808c] (07+48/59) Accurately ripped
08 [55e75b7e|455230d4] (07+48/59) Accurately ripped
09 [6438dcbe|5ea0337c] (06+46/56) Accurately ripped
10 [e5421444|61ad0547] (07+46/57) Accurately ripped
11 [699643fa|1fab0484] (06+46/56) Accurately ripped
12 [03e699b6|ed7b3e33] (06+46/56) Accurately ripped
13 [80c8d0b2|0d408546] (06+46/56) Accurately ripped
14 [a73fc0f5|f60e929e] (06+47/57) Accurately ripped
15 [5d2f0333|28ce9996] (06+47/57) Accurately ripped
16 [86fc2705|343a3a74] (06+47/57) Accurately ripped
17 [6423473d|3ae1b470] (06+47/57) Accurately ripped
18 [dcaa999d|3e0482a7] (07+47/58) Accurately ripped
19 [046937cb|a3bf4bd1] (07+47/58) Accurately ripped
20 [37cda463|a5f0cec5] (06+47/57) Accurately ripped
21 [493616a3|08a13c45] (07+47/58) Accurately ripped
Offsetted by -676:
01 [9a9fb044] (00/59) No match (V2 was not tested)
02 [24e9fee8] (00/59) No match (V2 was not tested)
03 [5b200763] (00/59) No match (V2 was not tested)
04 [b5a4667d] (00/59) No match (V2 was not tested)
05 [20d5bfe5] (00/59) No match (V2 was not tested)
06 [29793368] (00/59) No match (V2 was not tested)
07 [0089d43c] (00/59) No match (V2 was not tested)
08 [4bbe7036] (00/59) No match (V2 was not tested)
09 [7735b874] (00/56) No match (V2 was not tested)
10 [ce597094] (00/57) No match (V2 was not tested)
11 [5f48ca50] (00/56) No match (V2 was not tested)
12 [5dd44972] (00/56) No match (V2 was not tested)
13 [9d43cd2e] (00/56) No match (V2 was not tested)
14 [7898cb1d] (00/57) No match (V2 was not tested)
15 [19992b2f] (00/57) No match (V2 was not tested)
16 [8b989fd1] (00/57) No match (V2 was not tested)
17 [9d12f9bf] (00/57) No match (V2 was not tested)
18 [a66adcd9] (00/58) No match (V2 was not tested)
19 [97e27307] (00/58) No match (V2 was not tested)
20 [a3d332cf] (00/57) No match (V2 was not tested)
21 [cd753b49] (00/58) No match (V2 was not tested)

Track Peak [ CRC32 ] [W/O NULL] [ LOG ]
– 99,2 [100444CA] [4A993F30] CRC32
01 99,1 [582D939A] [FD1E93DC]
02 99,1 [0EA3EA61] [6149A901]
03 99,2 [5F75D824] [BBCF5ED0]
04 99,1 [7DCA0D64] [7B76F82C]
05 99,1 [0B45F5CC] [022B5094]
06 99,1 [BED7EC19] [F370D43C]
07 78,7 [B6613F2B] [52EFF5ED]
08 88,3 [3A261FE1] [6B502CDA]
09 99,1 [0FB35AF0] [4C698821]
10 99,2 [B3C5755E] [F86B570D]
11 99,2 [A34CB824] [D3DD3364]
12 99,1 [A01855D8] [85F01ABB]
13 99,2 [1DBD8497] [0064F2C8]
14 98,0 [B42E940C] [F41C97AB]
15 99,1 [AFA23F8A] [B8DE995F]
16 99,1 [61E4E3DD] [5EDF9453]
17 99,1 [C585E672] [B522EBBF]
18 83,3 [13164CDA] [1F9D33D7]
19 78,7 [175A7305] [603B6978]
20 78,7 [97F538BC] [E76EF304]
21 97,3 [0C65E3A0] [B7477878]

Thanks to doolykim