Tags
Language
Tags

Don Covay - Funky Yo-Yo (1977) Expanded Reissue 2006

Posted By: Designol
Don Covay - Funky Yo-Yo (1977) Expanded Reissue 2006

Don Covay - Funky Yo-Yo (1977) Expanded Reissue 2006
EAC | FLAC | Tracks (Cue&Log) ~ 216 Mb | Mp3 (CBR320) ~ 119 Mb | Scans ~ 81 Mb
Soul, Deep Soul, Rhythm & Blues | Label: Shout! | # SHOUT 25 | Time: 00:52:10

One of the most obscure albums Covay cut, Funky Yo Yo slipped out in 1977 on the tiny Versatile label, with such little notice that it's even escaped getting listed in some discographies. It's a strange record, too, with production so sparse (and some dull muffle to the sound fidelity, though it's not a serious impediment) that one suspects these might be demos, or perhaps not even 1977 recordings. Yet in a way that very rootsy, stripped-down feel makes it appealing, particularly as it was appearing at a time when many fellow soul greats of Covay's generation were issuing bloated, hopeless attempts to jump on the disco bandwagon. Far from emulating Barry White, Covay sounds rather like Van Morrison on much of this material, though the similarity's probably coincidental. Particularly on the more bare-bones arrangements, these actually have a cool intimate feel, as if they're songwriter demos intended for pitches to '60s Atlantic recording artists. Indeed, "I Don't Think I Can Make It" is very much like hearing Van Morrison trying to write/sing a song in the style of Percy Sledge's "When a Man Loves a Woman." To stretch the Morrison comparisons further, "Your Love Has Got to Me" comes off like the ultimate cross between Morrison and Sam Cooke. Covay's one concession, perhaps, to more modern trends was the two-part "Yo Yo," which has a funky party feel, complete with encouraging female shouts in the background. While it's true you'd never place this album among Covay's most essential work, overall it's far better than you'd expect, and worth seeking if you're a serious fan of the singer.

Review by Richie Unterberger, Allmusic.com

Don Covay - Funky Yo-Yo (1977) Expanded Reissue 2006



Tracklist:

01. Three Time Loser (4:06)
02. Love Is Sweeter (on the other side) (3:31)
03. I Don't Think I Can Make It (3:52)
04. Yo Yo, part 1 (3:56)
05. Yo Yo, part 2 (4:40)
06. Your Love Has Got To Me (2:58)
07. You Can't Get Something For Nothing (2:38)
08. An Ugly Woman (is twice as sweet) (3:15)
09. Standing In The Grits Line (4:19)
10. In The Sweet Bye & Bye (7:12)
11. Ain't Nothing That A Young Girl Can Do (3:12)
12. If There's A Will There's A Way (3:35)
13. What's In The Headlines (4:56)


Exact Audio Copy V1.0 beta 3 from 29. August 2011

Отчёт EAC об извлечении, выполненном 28. марта 2013, 22:30

Don Covay / Funky Yo Yo

Дисковод: ASUS DRW-24B3ST Adapter: 1 ID: 0

Режим чтения : Достоверность
Использование точного потока : Да
Отключение кэша аудио : Да
Использование указателей C2 : Нет

Коррекция смещения при чтении : 6
Способность читать области Lead-in и Lead-out : Нет
Заполнение пропущенных сэмплов тишиной : Да
Удаление блоков с тишиной в начале и конце : Нет
При вычислениях CRC использовались нулевые сэмплы : Да
Интерфейс : Встроенный Win32-интерфейс для Win NT/2000
Обработка зазоров : Добавлено к предыдущему треку

Выходной формат : Пользовательский кодировщик
Выбранный битрейт : 1024 kBit/s
Качество : Высокий
Добавление ID3-тега : Нет
Утилита сжатия : C:\Program Files\Exact Audio Copy\Flac\flac.exe
Дополнительные параметры : -V -8 -T "Genre=%genre%" -T "Artist=%artist%" -T "Title=%title%" -T "Album=%albumtitle%" -T "Date=%year%" -T "Tracknumber=%tracknr%" -T "Comment=%comment%" %source%


TOC извлечённого CD

Трек | Старт | Длительность | Начальный сектор | Конечный сектор
––––––––––––––––––––––––––––––––––-
1 | 0:00.00 | 4:06.04 | 0 | 18453
2 | 4:06.04 | 3:30.60 | 18454 | 34263
3 | 7:36.64 | 3:52.18 | 34264 | 51681
4 | 11:29.07 | 3:56.09 | 51682 | 69390
5 | 15:25.16 | 4:39.46 | 69391 | 90361
6 | 20:04.62 | 2:57.74 | 90362 | 103710
7 | 23:02.61 | 2:38.18 | 103711 | 115578
8 | 25:41.04 | 3:15.15 | 115579 | 130218
9 | 28:56.19 | 4:18.68 | 130219 | 149636
10 | 33:15.12 | 7:12.23 | 149637 | 182059
11 | 40:27.35 | 3:12.22 | 182060 | 196481
12 | 43:39.57 | 3:34.55 | 196482 | 212586
13 | 47:14.37 | 4:55.41 | 212587 | 234752


Трек 1

Имя файла C:\Documents and Settings\Sergei\Мои документы\Моя музыка\EAC\01. Three Time Loser.wav

Длина предзазора 0:00:02.00

Пиковый уровень 96.6 %
Скорость извлечения 3.3 X
Качество трека 100.0 %
CRC теста 32827F7F
CRC копии 32827F7F
Точное извлечение (достоверность 1) [0F5BE167] (AR v1)
Копирование… OK

Трек 2

Имя файла C:\Documents and Settings\Sergei\Мои документы\Моя музыка\EAC\02. Love Is Sweeter (on the other side).wav

Длина предзазора 0:00:01.57

Пиковый уровень 87.5 %
Скорость извлечения 2.8 X
Качество трека 99.9 %
CRC теста 40CB984A
CRC копии 40CB984A
Точное извлечение (достоверность 1) [969EDC6C] (AR v1)
Копирование… OK

Трек 3

Имя файла C:\Documents and Settings\Sergei\Мои документы\Моя музыка\EAC\03. I Don't Think I Can Make It.wav

Длина предзазора 0:00:01.57

Пиковый уровень 80.7 %
Скорость извлечения 4.0 X
Качество трека 100.0 %
CRC теста 258723CA
CRC копии 258723CA
Точное извлечение (достоверность 1) [BA521686] (AR v1)
Копирование… OK

Трек 4

Имя файла C:\Documents and Settings\Sergei\Мои документы\Моя музыка\EAC\04. Yo Yo, part 1.wav

Длина предзазора 0:00:01.57

Пиковый уровень 96.6 %
Скорость извлечения 4.3 X
Качество трека 100.0 %
CRC теста 65B37910
CRC копии 65B37910
Точное извлечение (достоверность 1) [B43394C8] (AR v1)
Копирование… OK

Трек 5

Имя файла C:\Documents and Settings\Sergei\Мои документы\Моя музыка\EAC\05. Yo Yo, part 2.wav

Длина предзазора 0:00:01.57

Пиковый уровень 96.6 %
Скорость извлечения 4.7 X
Качество трека 100.0 %
CRC теста A7A3577A
CRC копии A7A3577A
Точное извлечение (достоверность 1) [0A444A7B] (AR v1)
Копирование… OK

Трек 6

Имя файла C:\Documents and Settings\Sergei\Мои документы\Моя музыка\EAC\06. Your Love Has Got To Me.wav

Длина предзазора 0:00:01.57

Пиковый уровень 96.6 %
Скорость извлечения 4.6 X
Качество трека 100.0 %
CRC теста CA046A5B
CRC копии CA046A5B
Точное извлечение (достоверность 1) [3CCDFAF4] (AR v1)
Копирование… OK

Трек 7

Имя файла C:\Documents and Settings\Sergei\Мои документы\Моя музыка\EAC\07. You Can't Get Something For Nothing.wav

Длина предзазора 0:00:01.57

Пиковый уровень 96.6 %
Скорость извлечения 4.7 X
Качество трека 100.0 %
CRC теста C75502C1
CRC копии C75502C1
Точное извлечение (достоверность 1) [A9412AE0] (AR v1)
Копирование… OK

Трек 8

Имя файла C:\Documents and Settings\Sergei\Мои документы\Моя музыка\EAC\08. An Ugly Woman (is twice as sweet).wav

Длина предзазора 0:00:01.57

Пиковый уровень 96.6 %
Скорость извлечения 3.8 X
Качество трека 99.9 %
CRC теста E65AB971
CRC копии E65AB971
Точное извлечение (достоверность 1) [661B89DF] (AR v1)
Копирование… OK

Трек 9

Имя файла C:\Documents and Settings\Sergei\Мои документы\Моя музыка\EAC\09. Standing In The Grits Line.wav

Длина предзазора 0:00:00.65

Пиковый уровень 96.6 %
Скорость извлечения 5.3 X
Качество трека 100.0 %
CRC теста 67AA1381
CRC копии 67AA1381
Точное извлечение (достоверность 1) [7A1E780E] (AR v1)
Копирование… OK

Трек 10

Имя файла C:\Documents and Settings\Sergei\Мои документы\Моя музыка\EAC\10. In The Sweet Bye & Bye.wav

Длина предзазора 0:00:00.57

Пиковый уровень 96.6 %
Скорость извлечения 5.6 X
Качество трека 100.0 %
CRC теста 292C376F
CRC копии 292C376F
Точное извлечение (достоверность 1) [6023CFBC] (AR v1)
Копирование… OK

Трек 11

Имя файла C:\Documents and Settings\Sergei\Мои документы\Моя музыка\EAC\11. Ain't Nothing That A Young Girl Can Do.wav

Длина предзазора 0:00:00.57

Пиковый уровень 96.6 %
Скорость извлечения 5.2 X
Качество трека 100.0 %
CRC теста 296577DC
CRC копии 296577DC
Точное извлечение (достоверность 1) [DCB14142] (AR v1)
Копирование… OK

Трек 12

Имя файла C:\Documents and Settings\Sergei\Мои документы\Моя музыка\EAC\12. If There's A Will There's A Way.wav

Длина предзазора 0:00:00.57

Пиковый уровень 96.6 %
Скорость извлечения 5.2 X
Качество трека 100.0 %
CRC теста B5105E89
CRC копии B5105E89
Точное извлечение (достоверность 1) [9264BE72] (AR v1)
Копирование… OK

Трек 13

Имя файла C:\Documents and Settings\Sergei\Мои документы\Моя музыка\EAC\13. What's In The Headlines.wav

Длина предзазора 0:00:00.58

Пиковый уровень 96.6 %
Скорость извлечения 5.4 X
Качество трека 100.0 %
CRC теста 655F629B
CRC копии 655F629B
Точное извлечение (достоверность 1) [111A7F5F] (AR v1)
Копирование… OK


Все треки извлечены точно

Ошибок не произошло

Конец отчёта

==== Контрольная сумма отчёта 542650145792DE622CC650F7313781DC102A6240E1E996335FD1E8DFE8D5C608 ====

[CUETools log; Date: 11.10.2018 21:58:03; Version: 2.1.4]
[CTDB TOCID: CINwhJBv6.TH8wyDOH.OYm3Mvk0-] found.
Track | CTDB Status
1 | (2/2) Accurately ripped
2 | (2/2) Accurately ripped
3 | (2/2) Accurately ripped
4 | (2/2) Accurately ripped
5 | (2/2) Accurately ripped
6 | (2/2) Accurately ripped
7 | (2/2) Accurately ripped
8 | (2/2) Accurately ripped
9 | (2/2) Accurately ripped
10 | (2/2) Accurately ripped
11 | (2/2) Accurately ripped
12 | (2/2) Accurately ripped
13 | (2/2) Accurately ripped
[AccurateRip ID: 00183fbd-00f39bc3-c50c3a0d] found.
Track [ CRC | V2 ] Status
01 [0f5be167|7cebc010] (1+0/1) Accurately ripped
02 [969edc6c|2c11bf36] (1+0/1) Accurately ripped
03 [ba521686|0bcd070f] (1+0/1) Accurately ripped
04 [b43394c8|15143b98] (1+0/1) Accurately ripped
05 [0a444a7b|a5581062] (1+0/1) Accurately ripped
06 [3ccdfaf4|a7c9ac6c] (1+0/1) Accurately ripped
07 [a9412ae0|552228e9] (1+0/1) Accurately ripped
08 [661b89df|0a60a2b8] (1+0/1) Accurately ripped
09 [7a1e780e|f83bf8e5] (1+0/1) Accurately ripped
10 [6023cfbc|045176d6] (1+0/1) Accurately ripped
11 [dcb14142|b008c332] (1+0/1) Accurately ripped
12 [9264be72|3a5b887b] (1+0/1) Accurately ripped
13 [111a7f5f|3991918a] (1+0/1) Accurately ripped

Track Peak [ CRC32 ] [W/O NULL] [ LOG ]
– 96,6 [579B78F3] [2CFF271A]
01 96,6 [32827F7F] [5588E1B2] CRC32
02 87,5 [40CB984A] [4189C29D] CRC32
03 80,7 [258723CA] [90EB592E] CRC32
04 96,6 [65B37910] [92B1C9CA] CRC32
05 96,6 [A7A3577A] [792BDE35] CRC32
06 96,6 [CA046A5B] [0887109E] CRC32
07 96,6 [C75502C1] [2C3CAA3E] CRC32
08 96,6 [E65AB971] [EC9A2110] CRC32
09 96,6 [67AA1381] [EE4C962E] CRC32
10 96,6 [292C376F] [459FFA89] CRC32
11 96,6 [296577DC] [CB0C85F2] CRC32
12 96,6 [B5105E89] [E8848975] CRC32
13 96,6 [655F629B] [7A443955] CRC32

foobar2000 1.2 / Dynamic Range Meter 1.1.1
log date: 2018-10-11 21:36:39

––––––––––––––––––––––––––––––––––––––––
Analyzed: Don Covay / Funky Yo Yo
––––––––––––––––––––––––––––––––––––––––

DR Peak RMS Duration Track
––––––––––––––––––––––––––––––––––––––––
DR11 -0.30 dB -12.23 dB 4:06 01-Three Time Loser
DR10 -1.15 dB -13.35 dB 3:31 02-Love Is Sweeter (on the other side)
DR11 -1.86 dB -15.45 dB 3:52 03-I Don't Think I Can Make It
DR8 -0.30 dB -9.95 dB 3:56 04-Yo Yo, part 1
DR9 -0.30 dB -9.85 dB 4:40 05-Yo Yo, part 2
DR10 -0.30 dB -12.42 dB 2:58 06-Your Love Has Got To Me
DR9 -0.30 dB -10.58 dB 2:38 07-You Can't Get Something For Nothing
DR10 -0.30 dB -11.59 dB 3:15 08-An Ugly Woman (is twice as sweet)
DR11 -0.30 dB -12.64 dB 4:19 09-Standing In The Grits Line
DR10 -0.30 dB -13.99 dB 7:12 10-In The Sweet Bye & Bye
DR12 -0.30 dB -13.98 dB 3:12 11-Ain't Nothing That A Young Girl Can Do
DR9 -0.30 dB -10.69 dB 3:35 12-If There's A Will There's A Way
DR12 -0.30 dB -14.29 dB 4:56 13-What's In The Headlines
––––––––––––––––––––––––––––––––––––––––

Number of tracks: 13
Official DR value: DR10

Samplerate: 44100 Hz
Channels: 2
Bits per sample: 16
Bitrate: 701 kbps
Codec: FLAC
================================================================================

Don Covay - Funky Yo-Yo (1977) Expanded Reissue 2006

Don Covay - Funky Yo-Yo (1977) Expanded Reissue 2006