Tags
Language
Tags

Don Cherry / Latif Khan - Music Sangam (1978) {Heavenly Sweetness}

Posted By: tiburon
Don Cherry / Latif Khan - Music Sangam (1978) {Heavenly Sweetness}

Don Cherry / Latif Khan - Music Sangam (1978) {Heavenly Sweetness}
EAC 0.99pb5 | FLAC tracks level 8 | Cue+Log+M3U | Full Scans 600dpi | 189MB + 5% Recovery
MP3 CBR 320 Kbps | 85MB + 5% Recovery
Genre: Jazz, Ethnic Fusion

First time reissue of this forgotten album of Don Cherry. This album was recorded in 1978 in Paris and released only in France in 1981. That was the first meeting between Don Cherry and Indian percussionist Latif Khan and the result is an incredible mixture of jazz and Indian music. This unsung album is only known by hardcore fans of Don cherry who considered it as one of his best effort.
Track List
01. Untitled / Inspiration From Home 05:35 (Ornette Coleman)
02. Air Mail 7:02 (Don Cherry)
03. One Dance 4:35 (Don Cherry)
04. Rhythm 58 1/4 3:13 (Latif Khan)
05. Sangam 13:10 (Latif Khan)

musicians
Trumpet, Keyboards, Gong, Flute [Bamboo Flute], Ngoni [Dousso N'koni], Voice – Don Cherry
Tablas – Latif Khan

Produced by Don Cherry and Latif Khan


Exact Audio Copy V0.99 prebeta 5 from 4. May 2009

EAC extraction logfile from 3. September 2009, 9:46

Don Cherry, Latif Khan / Music Sangam

Used drive : PLEXTOR DVDR PX-860A Adapter: 0 ID: 0

Read mode : Secure
Utilize accurate stream : Yes
Defeat audio cache : Yes
Make use of C2 pointers : No

Read offset correction : 96
Overread into Lead-In and Lead-Out : No
Fill up missing offset samples with silence : Yes
Delete leading and trailing silent blocks : No
Null samples used in CRC calculations : Yes
Used interface : Native Win32 interface for Win NT & 2000
Gap handling : Appended to previous track

Used output format : User Defined Encoder
Selected bitrate : 896 kBit/s
Quality : High
Add ID3 tag : No
Command line compressor : C:\Program Files\FLAC\flac.exe
Additional command line options : -8 -V -T "ARTIST=%a" -T "TITLE=%t" -T "ALBUM=%g" -T "DATE=%y" -T "TRACKNUMBER=%n" -T "TOTALTRACKS=%x" -T "GENRE=%m" -T "ALBUM ARTIST=%v" -T "ALBUMARTIST=%v" -T "COMMENT=EAC V0.99 prebeta 5, Secure Mode, Test & Copy, Accurat


TOC of the extracted CD

Track | Start | Length | Start sector | End sector
––––––––––––––––––––––––––––-
1 | 0:00.00 | 5:45.28 | 0 | 25902
2 | 5:45.28 | 7:13.13 | 25903 | 58390
3 | 12:58.41 | 4:44.09 | 58391 | 79699
4 | 17:42.50 | 3:23.28 | 79700 | 94952
5 | 21:06.03 | 13:21.40 | 94953 | 155067


Track 1

Filename D:\DL\Don Cherry, Latif Khan - Music Sangam (2009) [FLAC] {Heavenly Sweetness HS015CD}\01 - Untitled Inspiration From Home.wav

Pre-gap length 0:00:02.00

Peak level 98.6 %
Track quality 99.9 %
Test CRC 435812DC
Copy CRC 435812DC
Accurately ripped (confidence 1) [00705709]
Copy OK

Track 2

Filename D:\DL\Don Cherry, Latif Khan - Music Sangam (2009) [FLAC] {Heavenly Sweetness HS015CD}\02 - Air Mail.wav

Peak level 99.3 %
Track quality 100.0 %
Test CRC DBB65E80
Copy CRC DBB65E80
Accurately ripped (confidence 1) [0089A075]
Copy OK

Track 3

Filename D:\DL\Don Cherry, Latif Khan - Music Sangam (2009) [FLAC] {Heavenly Sweetness HS015CD}\03 - One Dance.wav

Peak level 97.8 %
Track quality 100.0 %
Test CRC 34968394
Copy CRC 34968394
Accurately ripped (confidence 1) [F9707E63]
Copy OK

Track 4

Filename D:\DL\Don Cherry, Latif Khan - Music Sangam (2009) [FLAC] {Heavenly Sweetness HS015CD}\04 - Rhythm 58 1on4.wav

Peak level 94.6 %
Track quality 100.0 %
Test CRC 089A3A22
Copy CRC 089A3A22
Accurately ripped (confidence 1) [311BA39E]
Copy OK

Track 5

Filename D:\DL\Don Cherry, Latif Khan - Music Sangam (2009) [FLAC] {Heavenly Sweetness HS015CD}\05 - Sangam.wav

Peak level 98.8 %
Track quality 100.0 %
Test CRC B1C71E9D
Copy CRC B1C71E9D
Accurately ripped (confidence 1) [C2C7434D]
Copy OK


All tracks accurately ripped

No errors occurred

End of status report


foobar2000 1.3.13 / Dynamic Range Meter 1.1.1
log date: 2021-04-09 23:55:12

––––––––––––––––––––––––––––––––––––––––
Analyzed: Don Cherry, Latif Khan / Music Sangam
––––––––––––––––––––––––––––––––––––––––

DR Peak RMS Duration Track
––––––––––––––––––––––––––––––––––––––––
DR10 -0.12 dB -12.65 dB 5:45 01-Untitled Inspiration From Home
DR10 -0.06 dB -11.77 dB 7:13 02-Air Mail
DR11 -0.19 dB -14.95 dB 4:44 03-One Dance
DR12 -0.48 dB -15.71 dB 3:23 04-Rhythm 58 1on4
DR10 -0.10 dB -12.87 dB 13:22 05-Sangam
––––––––––––––––––––––––––––––––––––––––

Number of tracks: 5
Official DR value: DR11

Samplerate: 44100 Hz
Channels: 2
Bits per sample: 16
Bitrate: 713 kbps
Codec: FLAC
================================================================================

Don Cherry / Latif Khan - Music Sangam (1978) {Heavenly Sweetness}
Don Cherry / Latif Khan - Music Sangam (1978) {Heavenly Sweetness}


Thanks to the original ripper