Tags
Language
Tags

Don Ellis - The New Don Ellis Band Goes Underground (1969) [Reissue 2006] (Re-up)

Posted By: gribovar
Don Ellis - The New Don Ellis Band Goes Underground (1969) [Reissue 2006] (Re-up)

Don Ellis - The New Don Ellis Band Goes Underground (1969) [Reissue 2006]
EAC Rip | FLAC (tracks+.cue+log) - 270 MB | MP3 CBR 320 kbps (LAME 3.93) - 101 MB | Covers - 40 MB
Genre: Jazz, Big Band, Progressive Jazz | RAR 3% Rec. | Label: Wounded Bird Records (WOU 9889)

Coming as it did between two of Don Ellis' greatest records (Autumn and At Fillmore), New Don Ellis Band Goes Underground was a disappointment. The dozen concise performances are generally overarranged, the solos are too brief, and the melodies (with two exceptions) are not memorable. The ridiculously complex "Bulgarian Bulge" and "Eli's Coming" (which would soon join the repertoire of Maynard Ferguson) are the standouts, but the other R&B-oriented material, which often has so-so vocals by Patti Allen, is quite forgettable.
Tracklist:
01. House In The Country
02. Don't Leave Me
03. Higher
04. Bulgarian Bulge
05. Eli's Comin'
06. Acoustical Lass
07. Good Feelin'
08. Send My Baby Back
09. Love For Rent
10. It's Your Thing
11. Ferris Wheel
12. Black Baby

Total time: 43:06

Exact Audio Copy V0.99 prebeta 4 from 23. January 2008

EAC extraction logfile from 11. October 2009, 14:58

Don Ellis Orchestra / The New Don Ellis Band Goes Underground

Used drive : HL-DT-STDVD-RAM GH22NP20 Adapter: 0 ID: 0

Read mode : Secure
Utilize accurate stream : Yes
Defeat audio cache : Yes
Make use of C2 pointers : No

Read offset correction : 102
Overread into Lead-In and Lead-Out : No
Fill up missing offset samples with silence : Yes
Delete leading and trailing silent blocks : No
Null samples used in CRC calculations : Yes
Used interface : Installed external ASPI interface
Gap handling : Appended to previous track

Used output format : User Defined Encoder
Selected bitrate : 320 kBit/s
Quality : High
Add ID3 tag : No
Command line compressor : C:\Program Files\Exact Audio Copy\Flac\flac.exe
Additional command line options : -V -8 -T "artist=%a" -T "title=%t" -T "album=%g" -T "date=%y" -T "tracknumber=%n" -T "genre=%m" %s


TOC of the extracted CD

Track | Start | Length | Start sector | End sector
––––––––––––––––––––––––––––-
1 | 0:00.00 | 2:48.72 | 0 | 12671
2 | 2:48.72 | 3:40.01 | 12672 | 29172
3 | 6:28.73 | 3:19.03 | 29173 | 44100
4 | 9:48.01 | 3:03.08 | 44101 | 57833
5 | 12:51.09 | 4:08.64 | 57834 | 76497
6 | 16:59.73 | 2:32.03 | 76498 | 87900
7 | 19:32.01 | 6:14.63 | 87901 | 116013
8 | 25:46.64 | 3:02.03 | 116014 | 129666
9 | 28:48.67 | 4:06.35 | 129667 | 148151
10 | 32:55.27 | 2:54.14 | 148152 | 161215
11 | 35:49.41 | 3:46.68 | 161216 | 178233
12 | 39:36.34 | 3:29.71 | 178234 | 193979


Track 1

Filename D:\music\Musicgate's rips\Don Ellis Orchestra - The New Don Ellis Band Goes Underground (1969) {2006, WOU 9889}\01 - House In The Country.wav

Pre-gap length 0:00:02.00

Peak level 97.2 %
Track quality 100.0 %
Test CRC 1107E8B5
Copy CRC 1107E8B5
Accurately ripped (confidence 1) [24995943]
Copy OK

Track 2

Filename D:\music\Musicgate's rips\Don Ellis Orchestra - The New Don Ellis Band Goes Underground (1969) {2006, WOU 9889}\02 - Don't Leave Me.wav

Peak level 97.2 %
Track quality 100.0 %
Test CRC 645B29B4
Copy CRC 645B29B4
Accurately ripped (confidence 1) [5D08D3A5]
Copy OK

Track 3

Filename D:\music\Musicgate's rips\Don Ellis Orchestra - The New Don Ellis Band Goes Underground (1969) {2006, WOU 9889}\03 - Higher.wav

Peak level 97.2 %
Track quality 100.0 %
Test CRC BB375CCC
Copy CRC BB375CCC
Accurately ripped (confidence 1) [576B0EB5]
Copy OK

Track 4

Filename D:\music\Musicgate's rips\Don Ellis Orchestra - The New Don Ellis Band Goes Underground (1969) {2006, WOU 9889}\04 - Bulgarian Bulge.wav

Peak level 97.2 %
Track quality 100.0 %
Test CRC 5DE227F4
Copy CRC 5DE227F4
Accurately ripped (confidence 1) [17FA4388]
Copy OK

Track 5

Filename D:\music\Musicgate's rips\Don Ellis Orchestra - The New Don Ellis Band Goes Underground (1969) {2006, WOU 9889}\05 - Eli's Comin'.wav

Peak level 97.2 %
Track quality 100.0 %
Test CRC BD4A57AA
Copy CRC BD4A57AA
Accurately ripped (confidence 1) [F512AE54]
Copy OK

Track 6

Filename D:\music\Musicgate's rips\Don Ellis Orchestra - The New Don Ellis Band Goes Underground (1969) {2006, WOU 9889}\06 - Acoustical Lass.wav

Peak level 74.6 %
Track quality 100.0 %
Test CRC 3270FF32
Copy CRC 3270FF32
Accurately ripped (confidence 1) [A48FBDCB]
Copy OK

Track 7

Filename D:\music\Musicgate's rips\Don Ellis Orchestra - The New Don Ellis Band Goes Underground (1969) {2006, WOU 9889}\07 - Good Feelin'.wav

Peak level 97.2 %
Track quality 100.0 %
Test CRC 344E9807
Copy CRC 344E9807
Accurately ripped (confidence 1) [14D70F73]
Copy OK

Track 8

Filename D:\music\Musicgate's rips\Don Ellis Orchestra - The New Don Ellis Band Goes Underground (1969) {2006, WOU 9889}\08 - Send My Baby Back.wav

Peak level 97.2 %
Track quality 100.0 %
Test CRC A6D267D3
Copy CRC A6D267D3
Accurately ripped (confidence 1) [ADFCD46D]
Copy OK

Track 9

Filename D:\music\Musicgate's rips\Don Ellis Orchestra - The New Don Ellis Band Goes Underground (1969) {2006, WOU 9889}\09 - Love For Rent.wav

Peak level 97.2 %
Track quality 100.0 %
Test CRC 3EDEDC7C
Copy CRC 3EDEDC7C
Accurately ripped (confidence 1) [A89F9A5D]
Copy OK

Track 10

Filename D:\music\Musicgate's rips\Don Ellis Orchestra - The New Don Ellis Band Goes Underground (1969) {2006, WOU 9889}\10 - It's Your Thing.wav

Peak level 97.2 %
Track quality 100.0 %
Test CRC 294248F5
Copy CRC 294248F5
Accurately ripped (confidence 1) [0DBD9541]
Copy OK

Track 11

Filename D:\music\Musicgate's rips\Don Ellis Orchestra - The New Don Ellis Band Goes Underground (1969) {2006, WOU 9889}\11 - Ferris Wheel.wav

Peak level 97.2 %
Track quality 100.0 %
Test CRC B0741614
Copy CRC B0741614
Accurately ripped (confidence 1) [7B2DAE3E]
Copy OK

Track 12

Filename D:\music\Musicgate's rips\Don Ellis Orchestra - The New Don Ellis Band Goes Underground (1969) {2006, WOU 9889}\12 - Black Baby.wav

Peak level 55.3 %
Track quality 100.0 %
Test CRC 9EA8BF7E
Copy CRC 9EA8BF7E
Accurately ripped (confidence 1) [DD786DBD]
Copy OK


All tracks accurately ripped

No errors occurred

End of status report

[CUETools log; Date: 08.10.2021 21:10:59; Version: 2.1.4]
[CTDB TOCID: iYapyQ385MIiBop86o5Y12M58dQ-] found.
Track | CTDB Status
1 | (15/15) Accurately ripped
2 | (15/15) Accurately ripped
3 | (14/15) Accurately ripped
4 | (15/15) Accurately ripped
5 | (15/15) Accurately ripped
6 | (14/15) Accurately ripped
7 | (15/15) Accurately ripped
8 | (15/15) Accurately ripped
9 | (15/15) Accurately ripped
10 | (15/15) Accurately ripped
11 | (14/15) Accurately ripped
12 | (15/15) Accurately ripped
[AccurateRip ID: 0012d9f2-00b1f7bc-980a1a0c] found.
Track [ CRC | V2 ] Status
01 [24995943|016730a6] (2+3/5) Accurately ripped
02 [5d08d3a5|8940b63b] (2+3/5) Accurately ripped
03 [576b0eb5|b8bdf237] (2+3/5) Accurately ripped
04 [17fa4388|215778a5] (2+3/5) Accurately ripped
05 [f512ae54|c68129ce] (2+3/5) Accurately ripped
06 [a48fbdcb|ad6bc3e1] (2+3/5) Accurately ripped
07 [14d70f73|8653ae6e] (2+3/5) Accurately ripped
08 [adfcd46d|84b3dd6a] (2+3/5) Accurately ripped
09 [a89f9a5d|bcb906b8] (2+3/5) Accurately ripped
10 [0dbd9541|847c3753] (2+3/5) Accurately ripped
11 [7b2dae3e|fd0436e8] (2+3/5) Accurately ripped
12 [dd786dbd|65708833] (2+3/5) Accurately ripped

Track Peak [ CRC32 ] [W/O NULL] [ LOG ]
– 97,2 [FA01E4B0] [53437763]
01 97,2 [1107E8B5] [B5654175] CRC32
02 97,2 [645B29B4] [B70EBB2F] CRC32
03 97,2 [BB375CCC] [ED152733] CRC32
04 97,2 [5DE227F4] [15056CEA] CRC32
05 97,2 [BD4A57AA] [F0A0175F] CRC32
06 74,6 [3270FF32] [73D62B58] CRC32
07 97,2 [344E9807] [E9C160E0] CRC32
08 97,2 [A6D267D3] [30B2BD1E] CRC32
09 97,2 [3EDEDC7C] [2924535E] CRC32
10 97,2 [294248F5] [D2375140] CRC32
11 97,2 [B0741614] [B29369A6] CRC32
12 55,3 [9EA8BF7E] [167B1582] CRC32

Thanks to Musicgate

See also: