Tags
Language
Tags
March 2024
Su Mo Tu We Th Fr Sa
25 26 27 28 29 1 2
3 4 5 6 7 8 9
10 11 12 13 14 15 16
17 18 19 20 21 22 23
24 25 26 27 28 29 30
31 1 2 3 4 5 6
Attention❗ To save your time, in order to download anything on this site, you must be registered 👉 HERE. If you do not have a registration yet, it is better to do it right away. ✌

( • )( • ) ( ͡⚆ ͜ʖ ͡⚆ ) (‿ˠ‿)
SpicyMags.xyz

Dusty Springfield - Reputation (1990)

Posted By: Designol
Dusty Springfield - Reputation (1990)

Dusty Springfield - Reputation (1990)
EAC | FLAC | Image (Cue&Log) ~ 266 Mb | Mp3 (CBR320) ~ 98 Mb | Scans ~ 126 Mb
Label: Parlophone | # CDP 79 4401 2 | Time: 00:42:56
Pop, Adult Contemporary, Synthpop

In 1990, after almost a decade's absence from the new-release lists and an even longer time away from the charts, Dusty Springfield re-emerged with Reputation. A partial collaboration with the Pet Shop Boys, it proved to be her most satisfying record in 15 years and sold better than anything that she'd released since the '60s. The late-'80s synth pop sound melded perfectly with Springfield's still very expressive, powerful, and soulful singing – Dan Hartman handled the producing chores on four of the cuts, Andy Richards on one, and the album has a unified sound, at once airy and dense, soaring and deep. The best cuts, however, are the five produced (and, in all but one case, written) by Neil Tennant and Chris Lowe of the Pet Shop Boys. Much as Robert Fripp may have been put on this earth first and foremost to produce the Roches, Tennant and Lowe's collaborations with Springfield are as satisfying and unified and whole as she ever achieved working with Jerry Wexler, Thom Bell, and Roland Chambers 20 years earlier. She seems to reach that much higher and also that much deeper inside of herself on "In Private" and "Daydreaming" to much subtler effect; those cuts are very much of a piece with her best work on the Dusty in Memphis, A Brand New Me, and Cameo albums, just later links in the same chain, and their effect is to leave the listener breathless and delighted with their sheer beauty as recordings, as well with as her performance.

Review by Bruce Eder, Allmusic.com

Dusty Springfield at Allmusic
Dusty Springfield at Wiki

Tracklist:

01. Reputation (04:13)
02. Send It To Me (03:56)
03. Arrested By You (04:10)
04. Time Waits For No One (03:05)
05. Born This Way (03:49)
06. In Private (04:22)
07. Daydreaming (04:55)
08. Nothing Has Been Proved (04:42)
09. I Want To Stay Here (02:48)
10. Occupy Your Mind (06:51)


Exact Audio Copy V1.0 beta 1 from 15. November 2010

EAC extraction logfile from 7. January 2011, 21:34

Dusty Springfield / Reputation

Used drive : PIONEER DVD-RW DVR-112D Adapter: 2 ID: 0

Read mode : Secure
Utilize accurate stream : Yes
Defeat audio cache : Yes
Make use of C2 pointers : No

Read offset correction : 48
Overread into Lead-In and Lead-Out : No
Fill up missing offset samples with silence : Yes
Delete leading and trailing silent blocks : No
Null samples used in CRC calculations : Yes
Used interface : Installed external ASPI interface

Used output format : User Defined Encoder
Selected bitrate : 1024 kBit/s
Quality : High
Add ID3 tag : No
Command line compressor : C:\Program Files (x86)\Exact Audio Copy\Flac\flac.exe
Additional command line options : -5 -V -T "ARTIST=%a" -T "TITLE=%t" -T "ALBUM=%g" -T "DATE=%y" -T "TRACKNUMBER=%n" -T "GENRE=%m" -T "COMMENT=EAC FLAC -5" %s


TOC of the extracted CD

Track | Start | Length | Start sector | End sector
––––––––––––––––––––––––––––-
1 | 0:00.33 | 4:13.00 | 33 | 19007
2 | 4:13.33 | 3:56.37 | 19008 | 36744
3 | 8:09.70 | 4:10.55 | 36745 | 55549
4 | 12:20.50 | 3:05.50 | 55550 | 69474
5 | 15:26.25 | 3:49.60 | 69475 | 86709
6 | 19:16.10 | 4:22.18 | 86710 | 106377
7 | 23:38.28 | 4:55.65 | 106378 | 128567
8 | 28:34.18 | 4:42.35 | 128568 | 149752
9 | 33:16.53 | 2:48.47 | 149753 | 162399
10 | 36:05.25 | 6:51.18 | 162400 | 193242


Range status and errors

Selected range

Filename F:\Dusty Springfield - Reputation - 1990\Dusty Springfield - Reputation.wav

Peak level 100.0 %
Extraction speed 1.1 X
Range quality 100.0 %
Test CRC 9CECBB1C
Copy CRC 9CECBB1C
Copy OK

No errors occurred


AccurateRip summary

Track 1 accurately ripped (confidence 35) [9125E315]
Track 2 accurately ripped (confidence 35) [FE2F7210]
Track 3 accurately ripped (confidence 35) [48149E4E]
Track 4 accurately ripped (confidence 34) [DE165BA6]
Track 5 accurately ripped (confidence 35) [E3C9B8CD]
Track 6 accurately ripped (confidence 35) [A761A13F]
Track 7 accurately ripped (confidence 34) [9132583F]
Track 8 accurately ripped (confidence 35) [80904E17]
Track 9 accurately ripped (confidence 34) [2AEF7208]
Track 10 accurately ripped (confidence 34) [AA3A6E34]

All tracks accurately ripped

End of status report

foobar2000 1.2 / Dynamic Range Meter 1.1.1
log date: 2014-12-05 16:06:53

––––––––––––––––––––––––––––––––––––––––
Analyzed: Dusty Springfield / Reputation
––––––––––––––––––––––––––––––––––––––––

DR Peak RMS Duration Track
––––––––––––––––––––––––––––––––––––––––
DR12 -1.91 dB -17.51 dB 4:13 01-Reputation
DR15 -0.68 dB -18.15 dB 3:56 02-Send It To Me
DR14 -1.34 dB -20.16 dB 4:11 03-Arrested By You
DR14 -1.96 dB -19.01 dB 3:06 04-Time Waits For No One
DR14 -2.62 dB -18.10 dB 3:50 05-Born This Way
DR15 0.00 dB -18.19 dB 4:22 06-In Private
DR13 -3.75 dB -18.93 dB 4:56 07-Daydreaming
DR13 -2.48 dB -19.15 dB 4:42 08-Nothing Has Been Proved
DR13 -3.10 dB -17.78 dB 2:49 09-I Want To Stay Here
DR14 -1.13 dB -16.94 dB 6:51 10-Occupy Your Mind
––––––––––––––––––––––––––––––––––––––––

Number of tracks: 10
Official DR value: DR14

Samplerate: 44100 Hz
Channels: 2
Bits per sample: 16
Bitrate: 865 kbps
Codec: FLAC
================================================================================

Dusty Springfield - Reputation (1990)

Dusty Springfield - Reputation (1990)

All thanks to original releaser - bvstudio

More interesting music in My Blog