Tags
Language
Tags
February 2024
Su Mo Tu We Th Fr Sa
28 29 30 31 1 2 3
4 5 6 7 8 9 10
11 12 13 14 15 16 17
18 19 20 21 22 23 24
25 26 27 28 29 1 2
Attention❗ To save your time, in order to download anything on this site, you must be registered 👉 HERE. If you do not have a registration yet, it is better to do it right away. ✌

( • )( • ) ( ͡⚆ ͜ʖ ͡⚆ ) (‿ˠ‿)
SpicyMags.xyz

Dusty Springfield - Blue For You (1993)

Posted By: BlondStyle
Dusty Springfield - Blue For You (1993)

Dusty Springfield - Blue For You (1993)
Pop/Rock, Blue-Eyed Soul, Vocal, Ballad | EAC Rip | FLAC, Img+CUE+LOG+Scans (JPEG) | 43:06 | 287,70 Mb
Label: Spectrum Music (Germany) | Cat.# 5500052 | Released: 1993
Dusty Springfield - Blue For You (1993)
"Blue For You", is a compilation that puts together some helpful bits and bobs for the obsessive fan. Not all-encompassing, this collection does have it's strong points although it misses out on her debut solo single "I Only Want To Be With You", it includes her incredible reading of the Burt Bacharach classic "I Just Don't Know What To Do With Myself", and, interestingly, the B-side to that single "My Colouring Book". The collection leaps around the years at one point landing in 1970 for her duet with Tom Springfield, "Morning Please Don't Come" but if you want to have everything, you can excuse the erratic nature to hear some immaculate vocal talent.
~Review by Charlie Porter

Dusty Springfield - Blue For You (1993)

Dusty Springfield - Blue For You (1993)


Release of this album/CD: 1993 [CD Spectrum Music (Germany), Cat.# 5500052 / UPC: 731455000528]
This compilation ℗&© 1993 Karussell Ltd.
Made in Germany

Credits:

Mastered By – Gary Moore

Tracklist:

01. I Just Don't Know What To Do With Myself (03:04)
02. Your Hurtin' Kinda Love (02:41)
03. Will You Love Me Tomorrow (02:41)
04. Every Day I Have To Cry (02:31)
05. Some Of Your Lovin' (03:04)
06. No Easy Way Down (03:10)
07. If You Go Away (03:53)
08. Goin' Back (03:32)
09. Morning Please Don't Come (02:30)
10. How Can I Be Sure (02:48)
11. What Do You Do When Your Love Dies (02:40)
12. I Can't Make It Alone (03:50)
13. My Colouring Book (03:04)
14. Yesterday When I Was Young (03:38)

Exact Audio Copy V1.3 from 2. September 2016

EAC extraction logfile from 6. January 2022, 22:05

Dusty Springfield / Blue For You

Used drive : PIONEER BD-RW BDR-208D Adapter: 1 ID: 0

Read mode : Secure
Utilize accurate stream : Yes
Defeat audio cache : Yes
Make use of C2 pointers : No

Read offset correction : 667
Overread into Lead-In and Lead-Out : No
Fill up missing offset samples with silence : Yes
Delete leading and trailing silent blocks : No
Null samples used in CRC calculations : Yes
Used interface : Native Win32 interface for Win NT & 2000

Used output format : Internal WAV Routines
Sample format : 44.100 Hz; 16 Bit; Stereo


TOC of the extracted CD

Track | Start | Length | Start sector | End sector
––––––––––––––––––––––––––––-
1 | 0:00.32 | 3:03.60 | 32 | 13816
2 | 3:04.17 | 2:41.18 | 13817 | 25909
3 | 5:45.35 | 2:40.70 | 25910 | 37979
4 | 8:26.30 | 2:31.10 | 37980 | 49314
5 | 10:57.40 | 3:03.67 | 49315 | 63106
6 | 14:01.32 | 3:09.63 | 63107 | 77344
7 | 17:11.20 | 3:53.17 | 77345 | 94836
8 | 21:04.37 | 3:32.03 | 94837 | 110739
9 | 24:36.40 | 2:30.07 | 110740 | 121996
10 | 27:06.47 | 2:48.08 | 121997 | 134604
11 | 29:54.55 | 2:40.02 | 134605 | 146606
12 | 32:34.57 | 3:50.03 | 146607 | 163859
13 | 36:24.60 | 3:03.62 | 163860 | 177646
14 | 39:28.47 | 3:37.60 | 177647 | 193981


Range status and errors

Selected range

Filename D:\BlondStyle\Dusty Springfield - Blue For You.wav

Peak level 100.0 %
Extraction speed 4.1 X
Range quality 100.0 %
Test CRC ECCEA6ED
Copy CRC ECCEA6ED
Copy OK

No errors occurred


AccurateRip summary

Track 1 accurately ripped (confidence 10) [557F385B] (AR v2)
Track 2 accurately ripped (confidence 10) [35D939A3] (AR v2)
Track 3 accurately ripped (confidence 10) [61CD4787] (AR v2)
Track 4 accurately ripped (confidence 10) [A8B5CCAE] (AR v2)
Track 5 accurately ripped (confidence 10) [D7C3D44C] (AR v2)
Track 6 accurately ripped (confidence 10) [C0EBBF5B] (AR v2)
Track 7 accurately ripped (confidence 10) [CBBA1396] (AR v2)
Track 8 accurately ripped (confidence 10) [3A9D2E34] (AR v2)
Track 9 accurately ripped (confidence 10) [1082527A] (AR v2)
Track 10 accurately ripped (confidence 10) [1B7B869B] (AR v2)
Track 11 accurately ripped (confidence 10) [8CCFF659] (AR v2)
Track 12 accurately ripped (confidence 10) [67132D5F] (AR v2)
Track 13 accurately ripped (confidence 10) [27B83398] (AR v2)
Track 14 accurately ripped (confidence 10) [30E6D0D3] (AR v2)

All tracks accurately ripped

End of status report

–– CUETools DB Plugin V2.1.6

[CTDB TOCID: VzbZPmpzvg6_dmZyqhgxN8n3IcY-] found
Submit result: VzbZPmpzvg6_dmZyqhgxN8n3IcY- has been confirmed
Track | CTDB Status
1 | (40/40) Accurately ripped
2 | (40/40) Accurately ripped
3 | (40/40) Accurately ripped
4 | (40/40) Accurately ripped
5 | (40/40) Accurately ripped
6 | (40/40) Accurately ripped
7 | (40/40) Accurately ripped
8 | (40/40) Accurately ripped
9 | (40/40) Accurately ripped
10 | (40/40) Accurately ripped
11 | (40/40) Accurately ripped
12 | (40/40) Accurately ripped
13 | (40/40) Accurately ripped
14 | (40/40) Accurately ripped


==== Log checksum B7EBE6A0E47F6E4C2FE68EC106C1B566553CBAABB6002543CA8BBB961102C81A ====

––––––––––––––––––––––––––––––––––––––––
Analyzed: Dusty Springfield / Blue For You
––––––––––––––––––––––––––––––––––––––––

DR Peak RMS Duration Track
––––––––––––––––––––––––––––––––––––––––
DR9 -0.69 dB -13.28 dB 3:04 01-I Just Don't Know What To Do With Myself
DR8 -1.54 dB -11.48 dB 2:41 02-Your Hurtin' Kinda Love
DR10 -0.23 dB -12.39 dB 2:41 03-Will You Love Me Tomorrow
DR10 -0.80 dB -12.13 dB 2:31 04-Every Day I Have To Cry
DR9 -0.35 dB -11.67 dB 3:04 05-Some Of Your Lovin'
DR11 -0.05 dB -13.60 dB 3:10 06-No Easy Way Down
DR10 -1.60 dB -15.08 dB 3:53 07-If You Go Away
DR11 -0.59 dB -14.52 dB 3:32 08-Goin' Back
DR9 -1.51 dB -13.13 dB 2:30 09-Morning Please Don't Come
DR9 -0.45 dB -12.24 dB 2:48 10-How Can I Be Sure
DR10 0.00 dB -12.76 dB 2:40 11-What Do You Do When Your Love Dies
DR10 -0.59 dB -13.71 dB 3:50 12-I Can't Make It Alone
DR10 -0.79 dB -15.31 dB 3:04 13-My Colouring Book
DR9 -0.96 dB -13.53 dB 3:38 14-Yesterday When I Was Young
––––––––––––––––––––––––––––––––––––––––

Number of tracks: 14
Official DR value: DR10

Samplerate: 44100 Hz
Channels: 2
Bits per sample: 16
Bitrate: 807 kbps
Codec: FLAC
================================================================================

♫~Welcome To My Blog~♫

password: BlondStyle