Tags
Language
Tags

Dusty Springfield - Beautiful Soul: The ABC/Dunhill Collection (2001)

Posted By: BlondStyle
Dusty Springfield - Beautiful Soul: The ABC/Dunhill Collection (2001)

Dusty Springfield - Beautiful Soul: The ABC/Dunhill Collection (2001)
Pop/Rock, R&B, Blue-Eyed Soul | EAC Rip | FLAC, Img+CUE+LOG+Scans (JPEG) | 01:04:22 h. | 415,55 Mb
Label: Hip-O Records (USA) | Cat.# 088 112 477-2 | Released: 2001-02-06 (1973/1974)
Dusty Springfield - Beautiful Soul: The ABC/Dunhill Collection (2001)

"Beautiful Soul" collects tracks from Springfield's 1973 "Cameo" album, along with the entirety of its previously unreleased follow-up "Longing". The "Cameo" tracks are produced by then-hot songwriting team Dennis Lambert and Brian Potter, and they're done in the same pop/soul style the pair employed with the Four Tops at the time. Highlights include "Who Gets Your Love," a mid-tempo teaser that became a modest hit, and a spectacularly soulful version of Van Morrison's "Tupelo Honey." The "Longing" tracks, some of which were to some degree unfinished, are a bit more wide-ranging stylistically. Among the best are the haunting, minor-key "Exclusively for Me," on which Springfield does a lovely impression of its co-author, ex-Zombies singer Colin Blunstone," and "A Love Like Yours," a lesser-known Motown song that she re-recorded for her 1977 album "It Begins Again".
~Amazon
Hip-O's Beautiful Soul: The ABC/Dunhill Collection is an exhaustive retrospective of Dusty Springfield's early-'70s stint at Dunhill records, containing the entirety of the 1973 Cameo album, plus all the completed material from the unreleased 1974 album, Longing. After she signed to Dunhill in 1972, Springfield relocated to California to cut the material, and, appropriately these are Californian productions of their time, filled with studio pros (Larry Carlton, Hal Blaine, Bernard Purdie, Joe Venuto), a warm lush production, and soft rock, written by such songwriters as Alan O'Day, David Gattes, Melissa Manchester, and Ashford and Simpson. In other words, this is not the Dusty of Dusty in Memphis and A Brand New Me, although a cover of Van Morrison's "Tupelo Honey" has an appropriate Southern flair and Ashford & Simpson's "I Just Wanna Be There" is smoothly seductive. All this means that some fans will not warm to this and, admittedly, some of the music is a little slight, but it works on two different levels. First, it's simply a good pop artifact, evoking its era with high-class performances and classy productions, appealing to the kind of listener that finds "Learn to Say Goodbye"'s status as the theme from the ABC Movie of the Week Say Goodbye, Maggie Cole to be a virtue. More importantly, this finds Springfield exploring more adventurous material, particularly on Longing, where she tackles Janis Ian's "In the Winter" and Margie Adams' lesbian love song, "Beautiful Soul." Therefore, this compilation winds up being as a historical exercise, both for Springfield diehards and early-'70s fanatics, but it'll please both camps equally, since they'll both find its flaws somewhat charming.
~Review by Stephen Thomas Erlewine

Dusty Springfield - Beautiful Soul: The ABC/Dunhill Collection (2001)

Dusty Springfield - Beautiful Soul: The ABC/Dunhill Collection (2001)




Release of these albums: "Cameo" - 1973, February [LP Philips, Cat.# 6308 152, UK]; "Longing" - Previously Unreleased (Recorded: July – September 1974 at 914 Sound Studios, Blauvelt, New York)
Release of this CD: 2001, February, 6 [CD Hip-O Records (USA), Cat.# 088 112 477-2 / UPC: 008811247720]
℗© 2001 Universal Music Enterprises.
A Division of UMG Recordings, Inc.
Distributed by Universal Music & Video Distribution
Made in U.S.A.


Credits:

Arranged By – Garry Sherman (tracks: 13, 14, 16, 18), Ron Frangipane (tracks: 12, 15, 17, 19, 20)
Arranged By [Strings] – Jimmy Haskell (tracks: 2, 5, 8, 11, 12, 15)
Art Direction, Design – Tornado Design
Artwork [Cameo Album Concept And Design By] – Ruby Mazur
Backing Vocals – Christie Thompson (tracks: 12 to 20), Clydie King (tracks: 1 to 11), Dusty Springfield (tracks: 12 to 20), Gail Kantor (tracks: 12 to 20), Judy Thomas (tracks: 12 to 20), Maretha Stewart (tracks: 12 to 20), Melissa Manchester (tracks: 12 to 20), Merle Miller (tracks: 12 to 20), Myrna Mathews (tracks: 1 to 11), Renee Armand (tracks: 12 to 20), Renee Armand (tracks: 12 to 20), Rita (tracks: 12 to 20), Sherlie Mathews (tracks: 1 to 11), Venetta Fields (tracks: 1 to 11)
Bass – Carole Kaye (tracks: 1 to 11), Gordon Edwards (tracks: 12 to 20), Russell George (tracks: 12 to 20), Witon Felder (tracks: 1 to 11)
Compilation Producer [Anthology Producer] – Jim Pierson
Concertmaster [Concert Master] – Sid Sharp (tracks: 1 to 11)
Contractor [Music Contractor] – Artie Kaplan (tracks: 12 to 20)
Coordinator [Project Coordination] – Dana Smart, Michele Horie
Drums – Barry Lazarowitz (tracks: 12 to 20), Bernard Purdie (tracks: 12 to 20), Gary Chester (tracks: 12 to 20), Hal Blaine (tracks: 1 to 11), Jimmy Johnson (tracks: 12 to 20), Paul Humphrey (tracks: 1 to 11), Steve Gadd (tracks: 12 to 20)
Engineer [Assistant] – Jim Lockert (tracks: 1 to 11), Larry Alexander (tracks: 12 to 20)
Engineer [Recording Engineer] – Howard Gale (tracks: 1 to 11), Phil Kaye (tracks: 1 to 11), Steve Barri (tracks: 1 to 11)
Executive-Producer – Pat Lawrence
Guitar – Al Gorgoni (tracks: 12 to 20), Ben Benay (tracks: 1 to 11), Cornell Dupree (tracks: 12 to 20), David Cohen (tracks: 1 to 11), David Snyder (tracks: 12 to 20), Hugh McCracken (tracks: 12 to 20), John Trope (tracks: 12 to 20), Larry Carlton (tracks: 1 to 11)
Keyboards – Barry Manilow (tracks: 12 to 20), Dennis Lambert (tracks: 1 to 11), Frank Owens (tracks: 12 to 20), Garry Sherman (tracks: 12 to 20), Joe Delia (tracks: 12 to 20), Melissa Manchester (tracks: 12 to 20), Michael Omartian (tracks: 1 to 11), Mike Lang (tracks: 1 to 11), Paul Griffin (tracks: 12 to 20), Richard Tee (tracks: 12 to 20), Ron Frangipane (tracks: 12 to 20)
Mastered By [Digitally] – Dan Hersch
Mixed By – Kevin Reeves (tracks: 12 to 15, 17 to 20)
Percussion – Brian Potter (tracks: 1 to 11), Joe Venuto (tracks: 12 to 20), Ralph McDonald (tracks: 12 to 20), Victor Feldman (tracks: 1 to 11)
Photography By [Photographs] – Michael Ochs Archives
Producer – Brian Potter (tracks: 1 to 11), Dennis Lambert (tracks: 1 to 11), Steve Barri (tracks: 1 to 11)
Producer, Engineer – Brooks Arthur (tracks: 12 to 20)


Tracklist:

01. Who Gets Your Love (03:28)
(Brian Potter, Dennis Lambert)
02. Breakin' Up A Happy Home (03:38)
(Brian Potter, Dennis Lambert)
03. Easy Evil (02:54)
(Alan O'Day)
04. Mama's Little Girl (03:31)
(Brian Potter, Dennis Lambert)
05. The Other Side Of Life (02:43)
(David Gates)
06. Comin' And Goin' (03:13)
(Brian Potter, Dennis Lambert)
07. I Just Wanna Be There (02:43)
(Nickolas Ashford - Valerie Simpson)
08. Who Could Be Loving You Other Than Me (03:04)
(Willie Hutchison)
09. Tupelo Honey (04:03)
(Van Morrison)
10. Of All The Things (03:10)
(Brian Potter, Dennis Lambert)
11. Say Goodbye, Maggie Cole: Learn To Say Goodbye (02:52)
(Bradford Craig, Hugo Montenegro)
12. Exclusively For Me (02:43)
(Colin Blunstone, David Jones)
13. Turn Me Around (04:11)
(Chi Coltrane)
14. In The Winter (03:03)
(Janis Ian)
15. I Am Your Child (02:43)
(Barry Manilow, Marty Panzer)
16. A Love Like Yours (03:42)
(Edward Holland, Jr. - Lamont Dozier - Brian Holland)
17. Home To Myself (02:50)
(Carole Bayer Sager, Melissa Manchester)
18. Make The Man Love Me (03:32)
(Barry Mann - Cynthia Weil)
19. Angels (03:25)
(Arthur Resnick, Christie Thompson)
20. Beautiful Soul (02:54)
(Margaret Adam)

Exact Audio Copy V0.99 prebeta 4 from 23. January 2008

EAC extraction logfile from 13. June 2009, 22:11

Dusty Springfield / Beautiful Soul

Used drive : HP DVD Writer 1170d Adapter: 1 ID: 0

Read mode : Secure
Utilize accurate stream : Yes
Defeat audio cache : Yes
Make use of C2 pointers : No

Read offset correction : 6
Overread into Lead-In and Lead-Out : No
Fill up missing offset samples with silence : Yes
Delete leading and trailing silent blocks : No
Null samples used in CRC calculations : Yes
Used interface : Native Win32 interface for Win NT & 2000

Used output format : Internal WAV Routines
Sample format : 44.100 Hz; 16 Bit; Stereo


TOC of the extracted CD

Track | Start | Length | Start sector | End sector
––––––––––––––––––––––––––––-
1 | 0:00.00 | 3:28.25 | 0 | 15624
2 | 3:28.25 | 3:38.10 | 15625 | 31984
3 | 7:06.35 | 2:54.17 | 31985 | 45051
4 | 10:00.52 | 3:30.43 | 45052 | 60844
5 | 13:31.20 | 2:42.55 | 60845 | 73049
6 | 16:14.00 | 3:13.35 | 73050 | 87559
7 | 19:27.35 | 2:43.37 | 87560 | 99821
8 | 22:10.72 | 3:03.68 | 99822 | 113614
9 | 25:14.65 | 4:03.12 | 113615 | 131851
10 | 29:18.02 | 3:09.53 | 131852 | 146079
11 | 32:27.55 | 2:52.02 | 146080 | 158981
12 | 35:19.57 | 2:42.45 | 158982 | 171176
13 | 38:02.27 | 4:11.08 | 171177 | 190009
14 | 42:13.35 | 3:02.72 | 190010 | 203731
15 | 45:16.32 | 2:42.38 | 203732 | 215919
16 | 47:58.70 | 3:42.07 | 215920 | 232576
17 | 51:41.02 | 2:49.63 | 232577 | 245314
18 | 54:30.65 | 3:31.52 | 245315 | 261191
19 | 58:02.42 | 3:24.53 | 261192 | 276544
20 | 61:27.20 | 2:54.25 | 276545 | 289619


Range status and errors

Selected range

Filename C:\Documents and Settings\My Documents\My Music\Dusty Springfield - Beautiful Soul.wav

Peak level 99.1 %
Range quality 99.9 %
Copy CRC EAE47F96
Copy OK

No errors occurred


AccurateRip summary

Track 1 accurately ripped (confidence 4) [756F81C7]
Track 2 accurately ripped (confidence 4) [4107165D]
Track 3 accurately ripped (confidence 4) [801B1C20]
Track 4 accurately ripped (confidence 4) [FC57E322]
Track 5 accurately ripped (confidence 4) [B9DBDFC8]
Track 6 accurately ripped (confidence 4) [052AF1D8]
Track 7 accurately ripped (confidence 4) [38850EF3]
Track 8 accurately ripped (confidence 4) [7F207A3A]
Track 9 accurately ripped (confidence 4) [21CE0858]
Track 10 accurately ripped (confidence 4) [276A2BAA]
Track 11 accurately ripped (confidence 4) [79A07CC1]
Track 12 accurately ripped (confidence 4) [B6A7F259]
Track 13 accurately ripped (confidence 4) [965A2564]
Track 14 accurately ripped (confidence 4) [8B57BFEF]
Track 15 accurately ripped (confidence 4) [4FAC84A5]
Track 16 accurately ripped (confidence 4) [DDB4367F]
Track 17 accurately ripped (confidence 4) [780DF374]
Track 18 accurately ripped (confidence 4) [A32903CD]
Track 19 accurately ripped (confidence 4) [7A090244]
Track 20 accurately ripped (confidence 4) [7A23D055]

All tracks accurately ripped

End of status report

––––––––––––––––––––––––––––––––––––––––
Analyzed: Dusty Springfield / Beautiful Soul
––––––––––––––––––––––––––––––––––––––––

DR Peak RMS Duration Track
––––––––––––––––––––––––––––––––––––––––
DR11 -0.24 dB -13.19 dB 3:28 01-Who Gets Your Love
DR10 -0.24 dB -12.76 dB 3:38 02-Breakin' Up A Happy Home
DR11 -0.24 dB -13.76 dB 2:54 03-Easy Evil
DR10 -0.24 dB -12.67 dB 3:31 04-Mamas Little Girl
DR11 -0.24 dB -14.68 dB 2:43 05-The Other Side of Love
DR11 -0.08 dB -13.09 dB 3:13 06-Comin and Goin
DR10 -0.24 dB -11.69 dB 2:43 07-I Just Wanna Be There
DR10 -0.24 dB -12.19 dB 3:04 08-Who Could Be Lovin You Other Than Me
DR10 -0.24 dB -12.40 dB 4:03 09-Tupelo Honey
DR10 -0.36 dB -13.84 dB 3:10 10-Of All The Things
DR11 -0.24 dB -13.50 dB 2:52 11-Learn To Say Goodbye
DR11 -2.00 dB -15.81 dB 2:43 12-Exclusively For Me
DR9 -1.77 dB -13.53 dB 4:11 13-Turn Me Around
DR9 -1.67 dB -13.31 dB 3:03 14-In The Winter
DR12 -2.07 dB -18.74 dB 2:43 15-I Am Your Child
DR10 -1.21 dB -14.08 dB 3:42 16-A Love Like Yours
DR11 -0.97 dB -16.28 dB 2:50 17-Home To Myself
DR9 -1.26 dB -13.03 dB 3:32 18-Make The Man Love Me
DR9 -1.13 dB -13.91 dB 3:25 19-Angels
DR11 -2.18 dB -16.70 dB 2:54 20-Beautiful Soul
––––––––––––––––––––––––––––––––––––––––

Number of tracks: 20
Official DR value: DR10

Samplerate: 44100 Hz
Channels: 2
Bits per sample: 16
Bitrate: 843 kbps
Codec: FLAC
================================================================================

All thanks to original releaser

See also:


password: BlondStyle