Tags
Language
Tags

Dusty Springfield - White Heat (1982) [2002, Digitally Remastered]

Posted By: BlondStyle
Dusty Springfield - White Heat (1982) [2002, Digitally Remastered]

Dusty Springfield - White Heat (1982) [2002, Digitally Remastered]
Pop/Rock, Electronic, Synth-pop | EAC Rip | FLAC, Img+CUE+LOG+Scans (JPEG) | 37:40 Min. | 300,40 Mb
Label: Mercury Records (UK) | Cat.# 586 008-2 | Released: 2002-02-05 (1982)

"White Heat" is the twelfth studio album recorded by singer Dusty Springfield, and eleventh released. It was only released in the United States and Canada. More so than her previous two albums, It Begins Again (1978), and Living Without Your Love (1979), and the non-album single "It Goes Like It Goes" (1980), White Heat was a distinct departure from Springfield's Los Angeles-produced radio-friendly soft rock sound, being closely identified with the new wave, synthpop sounds of the early 1980s. The album arguably contains the most diverse selection of genres to be collected on any Dusty Springfield studio album, ranging from Robbie Buchanan's ballad "Time and Time Again", orchestrated by James Newton Howard, to the aggressive hard rock of "Blind Sheep", co-written by Springfield herself. The sessions for "Blind Sheep" are the last designated sessions for Twentieth Century Fox Records in the Musician's Guild Logs. The album's opening track and only single release was "Donnez-Moi (Give It to Me)" which production wise took more than a few hints from contemporaneous synthesizer-driven pop productions by Giorgio Moroder, like Donna Summer's The Wanderer and Irene Cara's "Flashdance... What a Feeling", and British New Romantic bands like the Human League and their 1981 album Dare.
~Wikipedia
"White Heat" finds Dusty at the peak of her remarkable power as a singer and creative artist. This album represents total departure from Dusty's usual style, but it shows her musical diversity. Each song has it's own mood and Dusty brings her crystal clear voice to each of them. The pinnacle of the album is "Soft Core", a song co-written by Canadian singer-songwriter Carole Pope. Overall, this is definitely a great album, and rare to find one.
~Review by Bradly Briggs

Dusty Springfield - White Heat (1982) [2002, Digitally Remastered]

Dusty Springfield - White Heat (1982) [2002, Digitally Remastered]





Release of this album: 1982, December [LP Casablanca, Cat.# (NBLP 7271) 6337 252, USA]
Release of this CD: 2002, February, 5 [CD Mercury Records (UK), Cat.# 586 008-2 / UPC: 731458600824]
This compilation ℗© 2002 Mercury Records Ltd.
The copyright in this sound recording is owned by Mercury Records Ltd, a Universal Music Company.
Made in the EU

Credits:

Art Direction – Glen Christensen
Engineer – Howard Steele
Engineer [Assistant] – Andy D'Addarig, Karen Chamberlain, Les Cooper, Lindy Griffin, Phil Moores, Steve Zaretsky
Executive-Producer – Jackie Krost
Mastered By – "Cutter" Sanders
Mixed By – Howard Steele
Painting – Mac James
Photography By – Bret Lopez
Producer – Dusty Springfield, Howard Steele
Producer [Assistant] – Debra Courier
Producer [Preliminary Production] – André Fischer


Tracklist:

01. Donnez Moi (Give It To Me) (03:55)
(J.-A. Roussel, P. Northfield, L. Plamondon, C. Robichaud)
02. I Don't Think We Could Ever Be (03:28)
(J.-A. Roussel, Sting)
03. Blind Sheep (04:31)
(D. Ironstone, T. Faragher, D. Springfield, M. Unobsky)
04. Don't Call It Love (03:31)
(D. Pitchford, T. Snow)
05. Time And Time Again (03:43)
(P. Buchanan, J. Gruska)
06. I Am Curious (04:09)
(C. Pope, K. Staples)
07. Sooner Or Later (04:22)
(T. Faragher, D. Ironstone)
08. Losing You (02:52)
(E. Costello)
09. Gotta Get Used To You (03:56)
(J.-A. Roussel)
10. Soft Core (03:13)
(C. Pope, K. Staples)

Exact Audio Copy V1.0 beta 3 from 29. August 2011

EAC extraction logfile from 15. November 2011, 19:39

Dusty Springfield / White Heat

Used drive : ATAPI DVD DW 8X16X8X16 Adapter: 0 ID: 2

Read mode : Secure
Utilize accurate stream : Yes
Defeat audio cache : Yes
Make use of C2 pointers : No

Read offset correction : 618
Overread into Lead-In and Lead-Out : No
Fill up missing offset samples with silence : Yes
Delete leading and trailing silent blocks : No
Null samples used in CRC calculations : Yes
Used interface : Native Win32 interface for Win NT & 2000

Used output format : Internal WAV Routines
Sample format : 44.100 Hz; 16 Bit; Stereo


TOC of the extracted CD

Track | Start | Length | Start sector | End sector
––––––––––––––––––––––––––––-
1 | 0:00.00 | 3:55.18 | 0 | 17642
2 | 3:55.18 | 3:27.72 | 17643 | 33239
3 | 7:23.15 | 4:30.61 | 33240 | 53550
4 | 11:54.01 | 3:31.00 | 53551 | 69375
5 | 15:25.01 | 3:42.61 | 69376 | 86086
6 | 19:07.62 | 4:09.07 | 86087 | 104768
7 | 23:16.69 | 4:21.53 | 104769 | 124396
8 | 27:38.47 | 2:51.48 | 124397 | 137269
9 | 30:30.20 | 3:55.65 | 137270 | 154959
10 | 34:26.10 | 3:13.26 | 154960 | 169460


Range status and errors

Selected range

Filename C:\BlondStyle\Dusty Springfield - White Heat.wav

Peak level 99.9 %
Extraction speed 7.8 X
Range quality 100.0 %
Test CRC 5C077C4E
Copy CRC 5C077C4E
Copy OK

No errors occurred


AccurateRip summary

Track 1 not present in database
Track 2 not present in database
Track 3 not present in database
Track 4 not present in database
Track 5 not present in database
Track 6 not present in database
Track 7 not present in database
Track 8 not present in database
Track 9 not present in database
Track 10 not present in database

None of the tracks are present in the AccurateRip database

End of status report

==== Log checksum 73D628012FE26AD081D72F5BF1A2FC3A6982FCF54F5A870658CDDF7406A33919 ====

––––––––––––––––––––––––––––––––––––––––
Analyzed: Dusty Springfield / White Heat
––––––––––––––––––––––––––––––––––––––––

DR Peak RMS Duration Track
––––––––––––––––––––––––––––––––––––––––
DR11 0.00 dB -12.90 dB 3:55 01-Donnez Moi (Give It To Me)
DR11 0.00 dB -12.38 dB 3:28 02-I Don't Think We Could Ever Be Friends
DR10 0.00 dB -12.22 dB 4:31 03-Blind Sheep
DR12 0.00 dB -14.23 dB 3:31 04-Don't Call It Love
DR11 -0.07 dB -16.04 dB 3:43 05-Time And Time Again
DR12 0.00 dB -13.53 dB 4:09 06-I Am Curious
DR10 0.00 dB -11.37 dB 4:22 07-Sooner Or Later
DR9 0.00 dB -11.91 dB 2:52 08-Losing You
DR9 0.00 dB -10.67 dB 3:56 09-Gotta Get Used To You
DR13 -2.41 dB -20.01 dB 3:13 10-Soft Core
––––––––––––––––––––––––––––––––––––––––

Number of tracks: 10
Official DR value: DR11

Samplerate: 44100 Hz
Channels: 2
Bits per sample: 16
Bitrate: 899 kbps
Codec: FLAC
================================================================================

See also:
Dusty Springfield - Goin' Back...y Springfield 1962-1994 (1994)
Dusty Springfield - Reputation... Expanded Collector’s Edition]

password: BlondStyle