Tags
Language
Tags
July 2024
Su Mo Tu We Th Fr Sa
30 1 2 3 4 5 6
7 8 9 10 11 12 13
14 15 16 17 18 19 20
21 22 23 24 25 26 27
28 29 30 31 1 2 3

Dwight Yoakam - Reprise Please Baby: The Warner Bros. Years (2002)

Posted By: Rtax
Dwight Yoakam - Reprise Please Baby: The Warner Bros. Years (2002)

Dwight Yoakam - Reprise Please Baby: The Warner Bros. Years (2002)
EAC Rip | FLAC (tracks, cue, log) - 2.04 GB | MP3 CBR 320 kbps - 712 MB
5:02:24 | Country, Honky Tonk, Folk | Label: Rhino / Reprise

From his '86 multiplatinum debut Guitars, Cadillacs, Etc., Etc. through '01s South Of Heaven, West Of Hell, this expansive 4-CD boxed set culls material from Yoakam's entire Warner Bros. career. Presents 87 tracks circa 1981-2002, encompassing singles, album, cuts, previously unissued material, rarities, and soundtrack selections. Contains 3 brand new recordings (exclusively available to this set): "Sittin' Pretty," "Louisville," and "Mercury Blues." Includes a full disc comprised of nothing but previously unreleased material, including rare early demos from 1981, and live gems from various venues spanning nearly a decade, including renditions of "Truckin'," and "Mystery Train."

Also features Yoakam's contributions to tribute albums honoring Kinky Friedman, Merle Haggard, Bob Willis & The Texas Playboys, and ZZ Top.

Includes guest appearances by Buck Owens, Kelly Willis, Asleep At The Wheel, Patty Loveless, Bekka Bramlett, Flaco Jimenez, and Sheryl Crow.

Deluxe booklet features rare photos and tributes from Yoakam devotees including Dennis Hopper, Billy Gibbons, Dave Alvin, and Buck Owens.


Though Dwight Yoakam casts himself as the classic outsider, no contemporary country artist has been able to achieve more mainstream success while retaining more alternative credibility. This four-disc set (including more than an entire disc of previously unreleased material) documents the uniqueness of Yoakam's musical legacy, as he combines a core commitment to the hard twang of honky-tonk–in breakthrough hits such as "Guitars, Cadillacs" and the Buck Owens duet "Streets of Bakersfield–with a stylistic expansiveness that knows no limits. In addition to his underrated strength as a songwriter, no other country artist could extend himself from Queen ("Crazy Little Thing Called Love") to Cheap Trick ("I Want You to Want Me") to the Clash ("Train in Vain"), while paying the obligatory tributes to Elvis Presley, George Jones, and Merle Haggard. The three new recordings may be inconsequential (a shuffle rendition of "Mercury Blues" holds the most interest), but the archive of previously unreleased material includes a 10-song demo from 1981 (before Yoakam's pivotal pairing with guitarist/producer/bandleader Pete Anderson), two duets with Kelly Willis, and the eight live performances that conclude the set. –Don McLeese

Tracklist
CD1
01. Dwight Yoakam – Honky Tonk Man [02:48]
02. Dwight Yoakam – Guitars, Cadillacs [03:05]
03. Dwight Yoakam – It Won't Hurt [03:05]
04. Dwight Yoakam – Miner's Prayer [02:19]
05. Dwight Yoakam – Little Sister [03:02]
06. Dwight Yoakam – Little Ways [03:20]
07. Dwight Yoakam – Please, Please Baby [03:34]
08. Dwight Yoakam – Always Late With Your Kisses [02:11]
09. Dwight Yoakam – This Drinkin' Will Kill Me [02:34]
10. Dwight Yoakam & Buck Owens – Streets Of Bakersfield [02:49]
11. Dwight Yoakam – I Sang Dixie [03:48]
12. Dwight Yoakam – I Got You [03:29]
13. Dwight Yoakam – I Hear You Knockin' [03:15]
14. Dwight Yoakam – Buenas Noches From A Lonely Room (She Wore Red Dresses) [04:33]
15. Dwight Yoakam – Long White Cadillac [05:19]
16. Dwight Yoakam – Turn It On, Turn It Up, Turn Me Loose [03:25]
17. Dwight Yoakam – You're The One [03:59]
18. Dwight Yoakam – Nothing's Changed Here [02:58]
19. Dwight Yoakam – It Only Hurts When I Cry [02:34]
20. Dwight Yoakam – The Heart That You Own [03:10]
21. Dwight Yoakam – The Distance Between You And Me [02:42]
22. Dwight Yoakam – Dangerous Man [04:17]
23. Dwight Yoakam & Patty Loveless – Send A Message To My Heart [03:15]
24. Dwight Yoakam – Takes A Lot To Rock You [02:58]

CD2
01. Flaco Jimenez – Carmelita (feat. Dwight Yoakam) [03:25]
02. Dwight Yoakam – Suspicious Minds (Live) [06:55]
03. Dwight Yoakam – Doin' What I Did [03:26]
04. Dwight Yoakam – Hey Little Girl [02:31]
05. Dwight Yoakam – Ain't That Lonely Yet [03:18]
06. Dwight Yoakam – A Thousand Miles From Nowhere [04:29]
07. Dwight Yoakam – Try Not To Look So Pretty [02:55]
08. Dwight Yoakam – Pocket Of A Clown [02:57]
09. Dwight Yoakam – Home For Sale [03:38]
10. Dwight Yoakam – Fast As You [04:47]
11. Dwight Yoakam – King Of Fools [04:05]
12. Dwight Yoakam – Holding Things Together [03:52]
13. Dwight Yoakam – Nothing [03:52]
14. Dwight Yoakam – Don't Be Sad [03:20]
15. Dwight Yoakam – Sorry You Asked? [03:23]
16. Dwight Yoakam – Gone (That'll Be Me) [02:48]
17. Dwight Yoakam – Claudette [02:55]
18. Dwight Yoakam & Sheryl Crow – Baby Don't Go [04:00]
19. Dwight Yoakam – Train In Vain [03:22]
20. Dwight Yoakam – Rapid City, South Dakota [02:50]

CD3
01. Dwight Yoakam – Only Want You More [03:22]
02. Dwight Yoakam – Same Fool [03:01]
03. Dwight Yoakam – Things Change [03:45]
04. Dwight Yoakam – These Arms [03:31]
05. Dwight Yoakam – A Long Way Home [02:55]
06. Dwight Yoakam – Crazy Little Thing Called Love [02:21]
07. Dwight Yoakam – Thinking About Leaving [03:55]
08. Asleep At The Wheel – New San Antonio Rose (feat. Dwight Yoakam) [03:03]
09. Dwight Yoakam – Two Doors Down (Acoustic) [04:38]
10. Dwight Yoakam – Bury Me (Acoustic) [03:12]
11. Dwight Yoakam – Love Caught Up To Me [03:50]
12. Dwight Yoakam – What Do You Know About Love [02:56]
13. Dwight Yoakam – Free To Go [04:48]
14. Dwight Yoakam – A Place To Cry [04:35]
15. Dwight Yoakam – I Want You To Want Me [03:27]
16. Dwight Yoakam & Buck Owens – Alright, I'm Wrong [04:16]
17. Dwight Yoakam & Bekka Bramlett – Who At The Door Is Standing [02:32]
18. Dwight Yoakam – The First Thing Smokin' [04:13]
19. Dwight Yoakam – I'm Bad, I'm Nationwide [04:14]
20. Dwight Yoakam – Louisville [03:03]
21. Dwight Yoakam – Sittin' Pretty [02:24]
22. Dwight Yoakam – Mercury Blues [02:29]

CD4
01. Dwight Yoakam – This Drinkin' Will Kill Me [03:11]
02. Dwight Yoakam – It Won't Hurt [02:46]
03. Dwight Yoakam – I'll Be Gone [03:25]
04. Dwight Yoakam – Floyd County [02:37]
05. Dwight Yoakam – You're The One [04:02]
06. Dwight Yoakam – Twenty Years [03:02]
07. Dwight Yoakam – Please Daddy [03:19]
08. Dwight Yoakam – Miner's Prayer [02:43]
09. Dwight Yoakam – I Sang Dixie [03:45]
10. Dwight Yoakam – Bury Me [03:00]
11. Dwight Yoakam & Kelly Willis – Golden Ring [03:15]
12. Dwight Yoakam & Kelly Willis – Take Me [02:20]
13. Dwight Yoakam – Sin City [04:02]
14. Dwight Yoakam – Truckin' (Live) [07:21]
15. Dwight Yoakam – Grand Tour (Live) [03:41]
16. Dwight Yoakam – Oh Lonesome Me (Live) [03:29]
17. Dwight Yoakam – Today I Started Loving You Again (Live) [04:29]
18. Dwight Yoakam – Mystery Train (Live) [03:11]
19. Dwight Yoakam – Can't You Hear Me Calling (Live) [03:19]
20. Dwight Yoakam – Heartaches By The Number (Live) [03:41]
21. Dwight Yoakam – My Bucket's Got A Hole In It (Live) [04:12]
Exact Audio Copy V1.1 from 23. June 2015

EAC extraction logfile from 9. February 2017, 23:39

Dwight Yoakam / Reprise Please Baby: The Warner Bros. Years CD1

Used drive : TSSTcorpCDDVDW SH-S223L Adapter: 1 ID: 0

Read mode : Secure
Utilize accurate stream : Yes
Defeat audio cache : Yes
Make use of C2 pointers : No

Read offset correction : 6
Overread into Lead-In and Lead-Out : No
Fill up missing offset samples with silence : Yes
Delete leading and trailing silent blocks : No
Null samples used in CRC calculations : Yes
Used interface : Native Win32 interface for Win NT & 2000
Gap handling : Appended to previous track

Used output format : User Defined Encoder
Selected bitrate : 1024 kBit/s
Quality : High
Add ID3 tag : No
Command line compressor : C:\Program Files\Exact Audio Copy\Flac\flac.exe
Additional command line options : -8 -V -T "ARTIST=%artist%" -T "TITLE=%title%" -T "ALBUM=%albumtitle%" -T "DATE=%year%" -T "TRACKNUMBER=%tracknr%" -T "GENRE=%genre%" -T "PERFORMER=%albuminterpret%" -T "COMPOSER=%composer%" %haslyrics%–tag-from-file=LYRICS="%lyricsfile%"%haslyrics% -T "ALBUMARTIST=%albumartist%" -T "DISCNUMBER=%cdnumber%" -T "TOTALDISCS=%totalcds%" -T "TOTALTRACKS=%numtracks%" -T "COMMENT=%comment%" %source% -o %dest%


TOC of the extracted CD

Track | Start | Length | Start sector | End sector
––––––––––––––––––––––––––––-
1 | 0:00.00 | 2:48.15 | 0 | 12614
2 | 2:48.15 | 3:05.27 | 12615 | 26516
3 | 5:53.42 | 3:05.35 | 26517 | 40426
4 | 8:59.02 | 2:19.13 | 40427 | 50864
5 | 11:18.15 | 3:02.65 | 50865 | 64579
6 | 14:21.05 | 3:20.60 | 64580 | 79639
7 | 17:41.65 | 3:34.47 | 79640 | 95736
8 | 21:16.37 | 2:11.05 | 95737 | 105566
9 | 23:27.42 | 2:34.33 | 105567 | 117149
10 | 26:02.00 | 2:49.42 | 117150 | 129866
11 | 28:51.42 | 3:48.40 | 129867 | 147006
12 | 32:40.07 | 3:29.33 | 147007 | 162714
13 | 36:09.40 | 3:15.37 | 162715 | 177376
14 | 39:25.02 | 4:33.15 | 177377 | 197866
15 | 43:58.17 | 5:19.10 | 197867 | 221801
16 | 49:17.27 | 3:25.03 | 221802 | 237179
17 | 52:42.30 | 3:59.40 | 237180 | 255144
18 | 56:41.70 | 2:58.20 | 255145 | 268514
19 | 59:40.15 | 2:34.40 | 268515 | 280104
20 | 62:14.55 | 3:10.12 | 280105 | 294366
21 | 65:24.67 | 2:42.33 | 294367 | 306549
22 | 68:07.25 | 4:17.65 | 306550 | 325889
23 | 72:25.15 | 3:15.40 | 325890 | 340554
24 | 75:40.55 | 2:58.17 | 340555 | 353921


Track 1

Filename H:\(ripper)\Dwight Yoakam - Reprise Please Baby- The Warner Bros. Years CD1 [2002] [FLAC]\01-Honky Tonk Man.wav

Pre-gap length 0:00:02.00

Peak level 98.8 %
Extraction speed 1.9 X
Track quality 100.0 %
Test CRC 18EDF5E0
Copy CRC 18EDF5E0
Accurately ripped (confidence 11) [3F9EE7F4] (AR v2)
Copy OK

Track 2

Filename H:\(ripper)\Dwight Yoakam - Reprise Please Baby- The Warner Bros. Years CD1 [2002] [FLAC]\02-Guitars,Cadillacs.wav

Pre-gap length 0:00:01.10

Peak level 98.8 %
Extraction speed 2.0 X
Track quality 100.0 %
Test CRC 1D958C74
Copy CRC 1D958C74
Accurately ripped (confidence 11) [D28FF641] (AR v2)
Copy OK

Track 3

Filename H:\(ripper)\Dwight Yoakam - Reprise Please Baby- The Warner Bros. Years CD1 [2002] [FLAC]\03-It Won't Hurt.wav

Pre-gap length 0:00:01.66

Peak level 98.8 %
Extraction speed 2.0 X
Track quality 100.0 %
Test CRC FF449B7A
Copy CRC FF449B7A
Accurately ripped (confidence 11) [EE58C79D] (AR v2)
Copy OK

Track 4

Filename H:\(ripper)\Dwight Yoakam - Reprise Please Baby- The Warner Bros. Years CD1 [2002] [FLAC]\04-Miner's Prayer.wav

Peak level 98.8 %
Extraction speed 1.9 X
Track quality 100.0 %
Test CRC 3043EC49
Copy CRC 3043EC49
Accurately ripped (confidence 11) [3C2F64D6] (AR v2)
Copy OK

Track 5

Filename H:\(ripper)\Dwight Yoakam - Reprise Please Baby- The Warner Bros. Years CD1 [2002] [FLAC]\05-Little Sister.wav

Peak level 98.8 %
Extraction speed 2.0 X
Track quality 100.0 %
Test CRC F2B7FC5A
Copy CRC F2B7FC5A
Accurately ripped (confidence 11) [E8C40857] (AR v2)
Copy OK

Track 6

Filename H:\(ripper)\Dwight Yoakam - Reprise Please Baby- The Warner Bros. Years CD1 [2002] [FLAC]\06-Little Ways.wav

Peak level 98.8 %
Extraction speed 2.0 X
Track quality 100.0 %
Test CRC 81A6BFA4
Copy CRC 81A6BFA4
Accurately ripped (confidence 11) [1039ED71] (AR v2)
Copy OK

Track 7

Filename H:\(ripper)\Dwight Yoakam - Reprise Please Baby- The Warner Bros. Years CD1 [2002] [FLAC]\07-Please, Please Baby.wav

Pre-gap length 0:00:02.10

Peak level 98.8 %
Extraction speed 2.0 X
Track quality 100.0 %
Test CRC C9F57701
Copy CRC C9F57701
Accurately ripped (confidence 11) [506C0D92] (AR v2)
Copy OK

Track 8

Filename H:\(ripper)\Dwight Yoakam - Reprise Please Baby- The Warner Bros. Years CD1 [2002] [FLAC]\08-Always Late With Your Kisses.wav

Pre-gap length 0:00:01.13

Peak level 98.8 %
Extraction speed 1.8 X
Track quality 100.0 %
Test CRC 334CB32F
Copy CRC 334CB32F
Accurately ripped (confidence 9) [327CF344] (AR v2)
Copy OK

Track 9

Filename H:\(ripper)\Dwight Yoakam - Reprise Please Baby- The Warner Bros. Years CD1 [2002] [FLAC]\09-This Drinkin' Will Kill Me.wav

Peak level 98.8 %
Extraction speed 1.9 X
Track quality 100.0 %
Test CRC 6C84ED89
Copy CRC 6C84ED89
Accurately ripped (confidence 11) [4A683403] (AR v2)
Copy OK

Track 10

Filename H:\(ripper)\Dwight Yoakam - Reprise Please Baby- The Warner Bros. Years CD1 [2002] [FLAC]\10-Streets Of Bakersfield - with Buck Owens.wav

Peak level 98.8 %
Extraction speed 1.9 X
Track quality 100.0 %
Test CRC 754D81DB
Copy CRC 754D81DB
Accurately ripped (confidence 11) [781AA139] (AR v2)
Copy OK

Track 11

Filename H:\(ripper)\Dwight Yoakam - Reprise Please Baby- The Warner Bros. Years CD1 [2002] [FLAC]\11-I Sang Dixie.wav

Peak level 98.8 %
Extraction speed 2.0 X
Track quality 100.0 %
Test CRC 42E02E6E
Copy CRC 42E02E6E
Accurately ripped (confidence 10) [EB71868F] (AR v2)
Copy OK

Track 12

Filename H:\(ripper)\Dwight Yoakam - Reprise Please Baby- The Warner Bros. Years CD1 [2002] [FLAC]\12-I Got You.wav

Peak level 98.8 %
Extraction speed 2.0 X
Track quality 100.0 %
Test CRC 090B5AE3
Copy CRC 090B5AE3
Accurately ripped (confidence 11) [BBF1D438] (AR v2)
Copy OK

Track 13

Filename H:\(ripper)\Dwight Yoakam - Reprise Please Baby- The Warner Bros. Years CD1 [2002] [FLAC]\13-I Hear You Knockin'.wav

Peak level 98.8 %
Extraction speed 2.0 X
Track quality 100.0 %
Test CRC 009A7BC8
Copy CRC 009A7BC8
Accurately ripped (confidence 11) [B3481FF6] (AR v2)
Copy OK

Track 14

Filename H:\(ripper)\Dwight Yoakam - Reprise Please Baby- The Warner Bros. Years CD1 [2002] [FLAC]\14-Buenas Noches From A Lonely Room ( She Wore Red Dresses ).wav

Pre-gap length 0:00:01.46

Peak level 98.8 %
Extraction speed 1.8 X
Track quality 99.9 %
Test CRC D69F35FC
Copy CRC D69F35FC
Accurately ripped (confidence 11) [3B5D398C] (AR v2)
Copy OK

Track 15

Filename H:\(ripper)\Dwight Yoakam - Reprise Please Baby- The Warner Bros. Years CD1 [2002] [FLAC]\15-Long White Cadillac.wav

Peak level 98.8 %
Extraction speed 2.1 X
Track quality 100.0 %
Test CRC B0242BD9
Copy CRC B0242BD9
Accurately ripped (confidence 11) [7ADEC83A] (AR v2)
Copy OK

Track 16

Filename H:\(ripper)\Dwight Yoakam - Reprise Please Baby- The Warner Bros. Years CD1 [2002] [FLAC]\16-Turn It On, Turn It Up, Turn Me Loose.wav

Pre-gap length 0:00:01.02

Peak level 98.8 %
Extraction speed 2.0 X
Track quality 100.0 %
Test CRC 706AB905
Copy CRC 706AB905
Accurately ripped (confidence 11) [861497B0] (AR v2)
Copy OK

Track 17

Filename H:\(ripper)\Dwight Yoakam - Reprise Please Baby- The Warner Bros. Years CD1 [2002] [FLAC]\17-You're The One.wav

Pre-gap length 0:00:01.13

Peak level 98.8 %
Extraction speed 2.0 X
Track quality 100.0 %
Test CRC 6DCE1C3F
Copy CRC 6DCE1C3F
Accurately ripped (confidence 11) [A4C58138] (AR v2)
Copy OK

Track 18

Filename H:\(ripper)\Dwight Yoakam - Reprise Please Baby- The Warner Bros. Years CD1 [2002] [FLAC]\18-Nothing's Changed Here.wav

Peak level 98.8 %
Extraction speed 1.6 X
Track quality 99.9 %
Test CRC 339C4D6C
Copy CRC 339C4D6C
Accurately ripped (confidence 11) [24015B44] (AR v2)
Copy OK

Track 19

Filename H:\(ripper)\Dwight Yoakam - Reprise Please Baby- The Warner Bros. Years CD1 [2002] [FLAC]\19-It Only Hurts When I Cry.wav

Peak level 98.8 %
Extraction speed 1.9 X
Track quality 100.0 %
Test CRC AA79EB17
Copy CRC AA79EB17
Accurately ripped (confidence 11) [0B5A671D] (AR v2)
Copy OK

Track 20

Filename H:\(ripper)\Dwight Yoakam - Reprise Please Baby- The Warner Bros. Years CD1 [2002] [FLAC]\20-The Heart That You Own.wav

Peak level 98.8 %
Extraction speed 2.0 X
Track quality 100.0 %
Test CRC 3594E17F
Copy CRC 3594E17F
Accurately ripped (confidence 11) [F961975B] (AR v2)
Copy OK

Track 21

Filename H:\(ripper)\Dwight Yoakam - Reprise Please Baby- The Warner Bros. Years CD1 [2002] [FLAC]\21-The Distance Between You and Me.wav

Peak level 98.8 %
Extraction speed 1.9 X
Track quality 100.0 %
Test CRC AA19F4EF
Copy CRC AA19F4EF
Accurately ripped (confidence 11) [14B88137] (AR v2)
Copy OK

Track 22

Filename H:\(ripper)\Dwight Yoakam - Reprise Please Baby- The Warner Bros. Years CD1 [2002] [FLAC]\22-Dangerous Man.wav

Peak level 98.8 %
Extraction speed 2.1 X
Track quality 100.0 %
Test CRC C8821DF8
Copy CRC C8821DF8
Accurately ripped (confidence 11) [952A945A] (AR v2)
Copy OK

Track 23

Filename H:\(ripper)\Dwight Yoakam - Reprise Please Baby- The Warner Bros. Years CD1 [2002] [FLAC]\23-Send A Message To My Heart - with Patty Loveless.wav

Peak level 98.8 %
Extraction speed 1.7 X
Track quality 99.9 %
Test CRC 3BA5624F
Copy CRC 3BA5624F
Accurately ripped (confidence 11) [323B10B4] (AR v2)
Copy OK

Track 24

Filename H:\(ripper)\Dwight Yoakam - Reprise Please Baby- The Warner Bros. Years CD1 [2002] [FLAC]\24-Takes A Lot To Rock You.wav

Peak level 98.8 %
Extraction speed 1.9 X
Track quality 100.0 %
Test CRC 3E77E7E6
Copy CRC 3E77E7E6
Accurately ripped (confidence 11) [5ABB3F69] (AR v2)
Copy OK


All tracks accurately ripped

No errors occurred

End of status report

–– CUETools DB Plugin V2.1.6

[CTDB TOCID: kqz.P.8PE0sXl0rcP7O5psSbu3U-] found
Submit result: kqz.P.8PE0sXl0rcP7O5psSbu3U- has been confirmed
Track | CTDB Status
1 | (9/9) Accurately ripped
2 | (9/9) Accurately ripped
3 | (9/9) Accurately ripped
4 | (9/9) Accurately ripped
5 | (9/9) Accurately ripped
6 | (9/9) Accurately ripped
7 | (9/9) Accurately ripped
8 | (8/9) Accurately ripped
9 | (9/9) Accurately ripped
10 | (9/9) Accurately ripped
11 | (9/9) Accurately ripped
12 | (9/9) Accurately ripped
13 | (9/9) Accurately ripped
14 | (9/9) Accurately ripped
15 | (9/9) Accurately ripped
16 | (9/9) Accurately ripped
17 | (9/9) Accurately ripped
18 | (9/9) Accurately ripped
19 | (9/9) Accurately ripped
20 | (9/9) Accurately ripped
21 | (9/9) Accurately ripped
22 | (9/9) Accurately ripped
23 | (9/9) Accurately ripped
24 | (9/9) Accurately ripped


==== Log checksum C12D3F715829F27584457646C4CA0AFAC98E48AC1549EC348CEC2BA9B76BB030 ====


Exact Audio Copy V1.1 from 23. June 2015

EAC extraction logfile from 10. February 2017, 6:45

Dwight Yoakam / Reprise Please Baby: The Warner Bros. Years CD3

Used drive : PLEXTOR DVDR PX-716A Adapter: 1 ID: 1

Read mode : Secure
Utilize accurate stream : Yes
Defeat audio cache : Yes
Make use of C2 pointers : No

Read offset correction : 30
Overread into Lead-In and Lead-Out : No
Fill up missing offset samples with silence : Yes
Delete leading and trailing silent blocks : No
Null samples used in CRC calculations : Yes
Used interface : Native Win32 interface for Win NT & 2000
Gap handling : Appended to previous track

Used output format : User Defined Encoder
Selected bitrate : 1024 kBit/s
Quality : High
Add ID3 tag : No
Command line compressor : C:\Program Files\Exact Audio Copy\Flac\flac.exe
Additional command line options : -8 -V -T "ARTIST=%artist%" -T "TITLE=%title%" -T "ALBUM=%albumtitle%" -T "DATE=%year%" -T "TRACKNUMBER=%tracknr%" -T "GENRE=%genre%" -T "PERFORMER=%albuminterpret%" -T "COMPOSER=%composer%" %haslyrics%–tag-from-file=LYRICS="%lyricsfile%"%haslyrics% -T "ALBUMARTIST=%albumartist%" -T "DISCNUMBER=%cdnumber%" -T "TOTALDISCS=%totalcds%" -T "TOTALTRACKS=%numtracks%" -T "COMMENT=%comment%" %source% -o %dest%


TOC of the extracted CD

Track | Start | Length | Start sector | End sector
––––––––––––––––––––––––––––-
1 | 0:00.00 | 3:22.30 | 0 | 15179
2 | 3:22.30 | 3:01.55 | 15180 | 28809
3 | 6:24.10 | 3:45.15 | 28810 | 45699
4 | 10:09.25 | 3:31.35 | 45700 | 61559
5 | 13:40.60 | 2:55.22 | 61560 | 74706
6 | 16:36.07 | 2:21.48 | 74707 | 85329
7 | 18:57.55 | 3:55.55 | 85330 | 103009
8 | 22:53.35 | 3:03.17 | 103010 | 116751
9 | 25:56.52 | 4:38.25 | 116752 | 137626
10 | 30:35.02 | 3:12.53 | 137627 | 152079
11 | 33:47.55 | 3:50.15 | 152080 | 169344
12 | 37:37.70 | 2:56.12 | 169345 | 182556
13 | 40:34.07 | 4:48.15 | 182557 | 204171
14 | 45:22.22 | 4:35.25 | 204172 | 224821
15 | 49:57.47 | 3:27.38 | 224822 | 240384
16 | 53:25.10 | 4:16.35 | 240385 | 259619
17 | 57:41.45 | 2:32.60 | 259620 | 271079
18 | 60:14.30 | 3:40.52 | 271080 | 287631
19 | 63:55.07 | 4:13.18 | 287632 | 306624
20 | 68:08.25 | 3:03.67 | 306625 | 320416
21 | 71:12.17 | 2:24.30 | 320417 | 331246
22 | 73:36.47 | 2:26.13 | 331247 | 342209


Track 1

Filename H:\(ripper)\Dwight Yoakam - Reprise Please Baby- The Warner Bros. Years CD3 [2002] [FLAC]\01-Only Want You More.wav

Pre-gap length 0:00:02.00

Peak level 98.8 %
Extraction speed 6.4 X
Track quality 100.0 %
Test CRC 165797C9
Copy CRC 165797C9
Accurately ripped (confidence 10) [F8E328B6] (AR v2)
Copy OK

Track 2

Filename H:\(ripper)\Dwight Yoakam - Reprise Please Baby- The Warner Bros. Years CD3 [2002] [FLAC]\02-Same Fool.wav

Peak level 98.8 %
Extraction speed 6.5 X
Track quality 100.0 %
Test CRC AC2AEF8C
Copy CRC AC2AEF8C
Accurately ripped (confidence 10) [637898C9] (AR v2)
Copy OK

Track 3

Filename H:\(ripper)\Dwight Yoakam - Reprise Please Baby- The Warner Bros. Years CD3 [2002] [FLAC]\03-Things Change.wav

Peak level 97.7 %
Extraction speed 6.9 X
Track quality 100.0 %
Test CRC 5937EBD1
Copy CRC 5937EBD1
Accurately ripped (confidence 10) [C65224DE] (AR v2)
Copy OK

Track 4

Filename H:\(ripper)\Dwight Yoakam - Reprise Please Baby- The Warner Bros. Years CD3 [2002] [FLAC]\04-These Arms.wav

Peak level 96.6 %
Extraction speed 5.9 X
Track quality 99.9 %
Test CRC 05F7E1B4
Copy CRC 05F7E1B4
Accurately ripped (confidence 10) [A98B1DA7] (AR v2)
Copy OK

Track 5

Filename H:\(ripper)\Dwight Yoakam - Reprise Please Baby- The Warner Bros. Years CD3 [2002] [FLAC]\05-A Long Way Home.wav

Peak level 94.4 %
Extraction speed 5.7 X
Track quality 99.9 %
Test CRC 67573519
Copy CRC 67573519
Accurately ripped (confidence 10) [B8D352E4] (AR v2)
Copy OK

Track 6

Filename H:\(ripper)\Dwight Yoakam - Reprise Please Baby- The Warner Bros. Years CD3 [2002] [FLAC]\06-Crazy Little Thing Called Love.wav

Peak level 82.1 %
Extraction speed 6.7 X
Track quality 100.0 %
Test CRC 14080313
Copy CRC 14080313
Accurately ripped (confidence 10) [7CECE8BD] (AR v2)
Copy OK

Track 7

Filename H:\(ripper)\Dwight Yoakam - Reprise Please Baby- The Warner Bros. Years CD3 [2002] [FLAC]\07-Thinking About Leaving.wav

Peak level 89.0 %
Extraction speed 6.3 X
Track quality 99.9 %
Test CRC 09979338
Copy CRC 09979338
Accurately ripped (confidence 10) [232C93D0] (AR v2)
Copy OK

Track 8

Filename H:\(ripper)\Dwight Yoakam - Reprise Please Baby- The Warner Bros. Years CD3 [2002] [FLAC]\08-New San Antonio Rose (Asleep At The Wheel Featuring Dwight Yoakam).wav

Peak level 98.8 %
Extraction speed 5.9 X
Track quality 99.9 %
Test CRC D020E772
Copy CRC D020E772
Accurately ripped (confidence 11) [77248F90] (AR v2)
Copy OK

Track 9

Filename H:\(ripper)\Dwight Yoakam - Reprise Please Baby- The Warner Bros. Years CD3 [2002] [FLAC]\09-Two Doors Down (Acoustic).wav

Pre-gap length 0:00:01.26

Peak level 89.0 %
Extraction speed 7.6 X
Track quality 100.0 %
Test CRC 56087502
Copy CRC 56087502
Accurately ripped (confidence 10) [EA65C914] (AR v2)
Copy OK

Track 10

Filename H:\(ripper)\Dwight Yoakam - Reprise Please Baby- The Warner Bros. Years CD3 [2002] [FLAC]\10-Bury Me (Acoustic).wav

Peak level 98.8 %
Extraction speed 7.3 X
Track quality 100.0 %
Test CRC 8E3BEC23
Copy CRC 8E3BEC23
Accurately ripped (confidence 10) [5BAE63FC] (AR v2)
Copy OK

Track 11

Filename H:\(ripper)\Dwight Yoakam - Reprise Please Baby- The Warner Bros. Years CD3 [2002] [FLAC]\11-Love Caught Up To Me.wav

Peak level 96.5 %
Extraction speed 7.5 X
Track quality 100.0 %
Test CRC BDED3CAD
Copy CRC BDED3CAD
Accurately ripped (confidence 10) [9DDABD50] (AR v2)
Copy OK

Track 12

Filename H:\(ripper)\Dwight Yoakam - Reprise Please Baby- The Warner Bros. Years CD3 [2002] [FLAC]\12-What Do You Know About Love.wav

Peak level 96.5 %
Extraction speed 7.2 X
Track quality 100.0 %
Test CRC 75739E21
Copy CRC 75739E21
Accurately ripped (confidence 10) [ABBF8E1C] (AR v2)
Copy OK

Track 13

Filename H:\(ripper)\Dwight Yoakam - Reprise Please Baby- The Warner Bros. Years CD3 [2002] [FLAC]\13-Free To Go.wav

Peak level 93.2 %
Extraction speed 7.6 X
Track quality 100.0 %
Test CRC 1CFE3700
Copy CRC 1CFE3700
Accurately ripped (confidence 10) [13319820] (AR v2)
Copy OK

Track 14

Filename H:\(ripper)\Dwight Yoakam - Reprise Please Baby- The Warner Bros. Years CD3 [2002] [FLAC]\14-A Place To Cry.wav

Peak level 99.8 %
Extraction speed 7.7 X
Track quality 100.0 %
Test CRC C3FE1B51
Copy CRC C3FE1B51
Accurately ripped (confidence 10) [23635302] (AR v2)
Copy OK

Track 15

Filename H:\(ripper)\Dwight Yoakam - Reprise Please Baby- The Warner Bros. Years CD3 [2002] [FLAC]\15-I Want You To Want Me.wav

Peak level 96.5 %
Extraction speed 6.2 X
Track quality 99.9 %
Test CRC D1FF6998
Copy CRC D1FF6998
Accurately ripped (confidence 10) [6D8B914E] (AR v2)
Copy OK

Track 16

Filename H:\(ripper)\Dwight Yoakam - Reprise Please Baby- The Warner Bros. Years CD3 [2002] [FLAC]\16-Alright, I'm Wrong (With Buck Owens).wav

Peak level 96.5 %
Extraction speed 7.5 X
Track quality 100.0 %
Test CRC BA0BC1D4
Copy CRC BA0BC1D4
Accurately ripped (confidence 10) [453E2D31] (AR v2)
Copy OK

Track 17

Filename H:\(ripper)\Dwight Yoakam - Reprise Please Baby- The Warner Bros. Years CD3 [2002] [FLAC]\17-Who At The Door Is Standing (With Bekka Bramlett).wav

Peak level 96.5 %
Extraction speed 7.0 X
Track quality 100.0 %
Test CRC 58481A48
Copy CRC 58481A48
Accurately ripped (confidence 10) [8E960EDA] (AR v2)
Copy OK

Track 18

Filename H:\(ripper)\Dwight Yoakam - Reprise Please Baby- The Warner Bros. Years CD3 [2002] [FLAC]\18-The First Thing Smokin'.wav

Peak level 96.5 %
Extraction speed 7.4 X
Track quality 100.0 %
Test CRC DF490872
Copy CRC DF490872
Accurately ripped (confidence 10) [9938EFDC] (AR v2)
Copy OK

Track 19

Filename H:\(ripper)\Dwight Yoakam - Reprise Please Baby- The Warner Bros. Years CD3 [2002] [FLAC]\19-I'm Bad, I'm Nationwide.wav

Peak level 98.8 %
Extraction speed 7.5 X
Track quality 100.0 %
Test CRC 5897D839
Copy CRC 5897D839
Accurately ripped (confidence 9) [134AFE2F] (AR v2)
Copy OK

Track 20

Filename H:\(ripper)\Dwight Yoakam - Reprise Please Baby- The Warner Bros. Years CD3 [2002] [FLAC]\20-Louisville.wav

Peak level 100.0 %
Extraction speed 6.1 X
Track quality 99.9 %
Test CRC F45331AE
Copy CRC F45331AE
Accurately ripped (confidence 10) [6C2086F9] (AR v2)
Copy OK

Track 21

Filename H:\(ripper)\Dwight Yoakam - Reprise Please Baby- The Warner Bros. Years CD3 [2002] [FLAC]\21-Sittin' Pretty.wav

Peak level 99.9 %
Extraction speed 5.6 X
Track quality 99.9 %
Test CRC 154E4D35
Copy CRC 154E4D35
Accurately ripped (confidence 11) [A6AC5050] (AR v2)
Copy OK

Track 22

Filename H:\(ripper)\Dwight Yoakam - Reprise Please Baby- The Warner Bros. Years CD3 [2002] [FLAC]\22-Mercury Blues.wav

Peak level 98.8 %
Extraction speed 7.0 X
Track quality 100.0 %
Test CRC FE348831
Copy CRC FE348831
Accurately ripped (confidence 9) [BC841B0C] (AR v2)
Copy OK


All tracks accurately ripped

No errors occurred

End of status report

–– CUETools DB Plugin V2.1.6

[CTDB TOCID: jXuLiFkmKHXr7B2fyLK3FP6Ctl4-] found
Submit result: jXuLiFkmKHXr7B2fyLK3FP6Ctl4- has been confirmed
Track | CTDB Status
1 | (8/8) Accurately ripped
2 | (8/8) Accurately ripped
3 | (8/8) Accurately ripped
4 | (8/8) Accurately ripped
5 | (8/8) Accurately ripped
6 | (8/8) Accurately ripped
7 | (8/8) Accurately ripped
8 | (8/8) Accurately ripped
9 | (8/8) Accurately ripped
10 | (8/8) Accurately ripped
11 | (8/8) Accurately ripped
12 | (8/8) Accurately ripped
13 | (8/8) Accurately ripped
14 | (8/8) Accurately ripped
15 | (8/8) Accurately ripped
16 | (7/8) Accurately ripped
17 | (7/8) Accurately ripped
18 | (7/8) Accurately ripped
19 | (7/8) Accurately ripped
20 | (8/8) Accurately ripped
21 | (8/8) Accurately ripped
22 | (7/8) Accurately ripped


==== Log checksum A5A53737408A79EE3E05A82AF5B45F28BA52ED2188E80363B4A7DA2044A2992E ====


Exact Audio Copy V1.1 from 23. June 2015

EAC extraction logfile from 10. February 2017, 8:08

Dwight Yoakam / Reprise Please Baby: The Warner Bros. Years CD2

Used drive : TSSTcorpCDDVDW SH-S223L Adapter: 1 ID: 0

Read mode : Secure
Utilize accurate stream : Yes
Defeat audio cache : Yes
Make use of C2 pointers : No

Read offset correction : 6
Overread into Lead-In and Lead-Out : No
Fill up missing offset samples with silence : Yes
Delete leading and trailing silent blocks : No
Null samples used in CRC calculations : Yes
Used interface : Native Win32 interface for Win NT & 2000
Gap handling : Appended to previous track

Used output format : User Defined Encoder
Selected bitrate : 1024 kBit/s
Quality : High
Add ID3 tag : No
Command line compressor : C:\Program Files\Exact Audio Copy\Flac\flac.exe
Additional command line options : -8 -V -T "ARTIST=%artist%" -T "TITLE=%title%" -T "ALBUM=%albumtitle%" -T "DATE=%year%" -T "TRACKNUMBER=%tracknr%" -T "GENRE=%genre%" -T "PERFORMER=%albuminterpret%" -T "COMPOSER=%composer%" %haslyrics%–tag-from-file=LYRICS="%lyricsfile%"%haslyrics% -T "ALBUMARTIST=%albumartist%" -T "DISCNUMBER=%cdnumber%" -T "TOTALDISCS=%totalcds%" -T "TOTALTRACKS=%numtracks%" -T "COMMENT=%comment%" %source% -o %dest%


TOC of the extracted CD

Track | Start | Length | Start sector | End sector
––––––––––––––––––––––––––––-
1 | 0:00.00 | 3:25.15 | 0 | 15389
2 | 3:25.15 | 6:55.32 | 15390 | 46546
3 | 10:20.47 | 3:26.25 | 46547 | 62021
4 | 13:46.72 | 2:31.45 | 62022 | 73391
5 | 16:18.42 | 3:18.48 | 73392 | 88289
6 | 19:37.15 | 4:29.07 | 88290 | 108471
7 | 24:06.22 | 2:55.53 | 108472 | 121649
8 | 27:02.00 | 2:57.10 | 121650 | 134934
9 | 29:59.10 | 3:38.55 | 134935 | 151339
10 | 33:37.65 | 4:47.27 | 151340 | 172891
11 | 38:25.17 | 4:05.35 | 172892 | 191301
12 | 42:30.52 | 2:37.20 | 191302 | 203096
13 | 45:07.72 | 3:52.63 | 203097 | 220559
14 | 49:00.60 | 3:20.25 | 220560 | 235584
15 | 52:21.10 | 3:23.00 | 235585 | 250809
16 | 55:44.10 | 2:48.60 | 250810 | 263469
17 | 58:32.70 | 2:55.67 | 263470 | 276661
18 | 61:28.62 | 4:00.35 | 276662 | 294696
19 | 65:29.22 | 3:22.58 | 294697 | 309904
20 | 68:52.05 | 2:49.50 | 309905 | 322629


Track 1

Filename H:\(ripper)\Dwight Yoakam - Reprise Please Baby- The Warner Bros. Years CD2 [2002] [FLAC]\01-Carmelita (Flaco Jimenez Featuring Dwight Yoakam).wav

Pre-gap length 0:00:02.00

Peak level 98.8 %
Extraction speed 1.7 X
Track quality 99.9 %
Test CRC 6131F38F
Copy CRC 6131F38F
Accurately ripped (confidence 11) [583093CD] (AR v2)
Copy OK

Track 2

Filename H:\(ripper)\Dwight Yoakam - Reprise Please Baby- The Warner Bros. Years CD2 [2002] [FLAC]\02-Suspicious Minds (Live).wav

Peak level 98.8 %
Extraction speed 2.2 X
Track quality 100.0 %
Test CRC 36317BFF
Copy CRC 36317BFF
Accurately ripped (confidence 12) [BD1FFB46] (AR v2)
Copy OK

Track 3

Filename H:\(ripper)\Dwight Yoakam - Reprise Please Baby- The Warner Bros. Years CD2 [2002] [FLAC]\03-Doin' What I Did.wav

Peak level 98.8 %
Extraction speed 2.0 X
Track quality 100.0 %
Test CRC 61497B9B
Copy CRC 61497B9B
Accurately ripped (confidence 12) [40DF6CCD] (AR v2)
Copy OK

Track 4

Filename H:\(ripper)\Dwight Yoakam - Reprise Please Baby- The Warner Bros. Years CD2 [2002] [FLAC]\04-Hey Little Girl.wav

Peak level 98.8 %
Extraction speed 1.9 X
Track quality 100.0 %
Test CRC 45BA9D32
Copy CRC 45BA9D32
Accurately ripped (confidence 12) [BA3FAF0C] (AR v2)
Copy OK

Track 5

Filename H:\(ripper)\Dwight Yoakam - Reprise Please Baby- The Warner Bros. Years CD2 [2002] [FLAC]\05-Ain't That Lonely Yet.wav

Peak level 98.8 %
Extraction speed 2.0 X
Track quality 100.0 %
Test CRC 0DE7AEBD
Copy CRC 0DE7AEBD
Accurately ripped (confidence 11) [335E1DA9] (AR v2)
Copy OK

Track 6

Filename H:\(ripper)\Dwight Yoakam - Reprise Please Baby- The Warner Bros. Years CD2 [2002] [FLAC]\06-A Thousand Miles From Nowhere.wav

Peak level 98.8 %
Extraction speed 2.1 X
Track quality 100.0 %
Test CRC 058234F9
Copy CRC 058234F9
Accurately ripped (confidence 11) [5F8A9582] (AR v2)
Copy OK

Track 7

Filename H:\(ripper)\Dwight Yoakam - Reprise Please Baby- The Warner Bros. Years CD2 [2002] [FLAC]\07-Try Not To Look So Pretty.wav

Pre-gap length 0:00:02.02

Peak level 100.0 %
Extraction speed 1.9 X
Track quality 100.0 %
Test CRC FD695F1F
Copy CRC FD695F1F
Accurately ripped (confidence 11) [66B20352] (AR v2)
Copy OK

Track 8

Filename H:\(ripper)\Dwight Yoakam - Reprise Please Baby- The Warner Bros. Years CD2 [2002] [FLAC]\08-Pocket Of A Clown.wav

Pre-gap length 0:00:01.17

Peak level 98.8 %
Extraction speed 1.9 X
Track quality 100.0 %
Test CRC 4760C7F3
Copy CRC 4760C7F3
Accurately ripped (confidence 11) [556422B7] (AR v2)
Copy OK

Track 9

Filename H:\(ripper)\Dwight Yoakam - Reprise Please Baby- The Warner Bros. Years CD2 [2002] [FLAC]\09-Home For Sale.wav

Peak level 98.8 %
Extraction speed 2.0 X
Track quality 100.0 %
Test CRC BC87FE31
Copy CRC BC87FE31
Accurately ripped (confidence 11) [A3F1B8D5] (AR v2)
Copy OK

Track 10

Filename H:\(ripper)\Dwight Yoakam - Reprise Please Baby- The Warner Bros. Years CD2 [2002] [FLAC]\10-Fast As You.wav

Pre-gap length 0:00:01.64

Peak level 98.8 %
Extraction speed 2.1 X
Track quality 100.0 %
Test CRC E84B2BD9
Copy CRC E84B2BD9
Accurately ripped (confidence 10) [009333D5] (AR v2)
Copy OK

Track 11

Filename H:\(ripper)\Dwight Yoakam - Reprise Please Baby- The Warner Bros. Years CD2 [2002] [FLAC]\11-King Of Fools.wav

Peak level 98.8 %
Extraction speed 2.1 X
Track quality 100.0 %
Test CRC 150D8484
Copy CRC 150D8484
Accurately ripped (confidence 11) [269F2869] (AR v2)
Copy OK

Track 12

Filename H:\(ripper)\Dwight Yoakam - Reprise Please Baby- The Warner Bros. Years CD2 [2002] [FLAC]\12-Holding Things Together.wav

Peak level 98.8 %
Extraction speed 1.8 X
Track quality 100.0 %
Test CRC FF9C1DBF
Copy CRC FF9C1DBF
Accurately ripped (confidence 11) [AF064597] (AR v2)
Copy OK

Track 13

Filename H:\(ripper)\Dwight Yoakam - Reprise Please Baby- The Warner Bros. Years CD2 [2002] [FLAC]\13-Nothing.wav

Pre-gap length 0:00:01.16

Peak level 98.8 %
Extraction speed 2.0 X
Track quality 100.0 %
Test CRC D2D34845
Copy CRC D2D34845
Accurately ripped (confidence 11) [3116CDBF] (AR v2)
Copy OK

Track 14

Filename H:\(ripper)\Dwight Yoakam - Reprise Please Baby- The Warner Bros. Years CD2 [2002] [FLAC]\14-Don't Be Sad.wav

Peak level 98.8 %
Extraction speed 2.0 X
Track quality 100.0 %
Test CRC DD65D54C
Copy CRC DD65D54C
Accurately ripped (confidence 11) [CF378EED] (AR v2)
Copy OK

Track 15

Filename H:\(ripper)\Dwight Yoakam - Reprise Please Baby- The Warner Bros. Years CD2 [2002] [FLAC]\15-Sorry You Asked.wav

Pre-gap length 0:00:01.40

Peak level 98.8 %
Extraction speed 2.0 X
Track quality 100.0 %
Test CRC CA226FA0
Copy CRC CA226FA0
Accurately ripped (confidence 10) [781468DF] (AR v2)
Copy OK

Track 16

Filename H:\(ripper)\Dwight Yoakam - Reprise Please Baby- The Warner Bros. Years CD2 [2002] [FLAC]\16-Gone (That'll Be Me).wav

Peak level 98.8 %
Extraction speed 1.9 X
Track quality 100.0 %
Test CRC 98EA003A
Copy CRC 98EA003A
Accurately ripped (confidence 11) [4DFA1551] (AR v2)
Copy OK

Track 17

Filename H:\(ripper)\Dwight Yoakam - Reprise Please Baby- The Warner Bros. Years CD2 [2002] [FLAC]\17-Claudette.wav

Peak level 98.3 %
Extraction speed 1.9 X
Track quality 100.0 %
Test CRC 49587768
Copy CRC 49587768
Accurately ripped (confidence 11) [8F1D2E26] (AR v2)
Copy OK

Track 18

Filename H:\(ripper)\Dwight Yoakam - Reprise Please Baby- The Warner Bros. Years CD2 [2002] [FLAC]\18-Baby Don't Go (With Sheryl Crow).wav

Peak level 100.0 %
Extraction speed 2.0 X
Track quality 100.0 %
Test CRC F1EA3F6E
Copy CRC F1EA3F6E
Accurately ripped (confidence 10) [A350D298] (AR v2)
Copy OK

Track 19

Filename H:\(ripper)\Dwight Yoakam - Reprise Please Baby- The Warner Bros. Years CD2 [2002] [FLAC]\19-Train In Vain.wav

Peak level 96.7 %
Extraction speed 2.0 X
Track quality 100.0 %
Test CRC BCA06866
Copy CRC BCA06866
Accurately ripped (confidence 10) [3B98F073] (AR v2)
Copy OK

Track 20

Filename H:\(ripper)\Dwight Yoakam - Reprise Please Baby- The Warner Bros. Years CD2 [2002] [FLAC]\20-Rapid City, South Dakota.wav

Peak level 98.8 %
Extraction speed 1.6 X
Track quality 99.9 %
Test CRC FC44D934
Copy CRC FC44D934
Accurately ripped (confidence 10) [BFF866CB] (AR v2)
Copy OK


All tracks accurately ripped

No errors occurred

End of status report

–– CUETools DB Plugin V2.1.6

[CTDB TOCID: p3Sd8MFuD5XIIqdZlAvSIj30wg4-] found
Submit result: p3Sd8MFuD5XIIqdZlAvSIj30wg4- has been confirmed
Track | CTDB Status
1 | (10/10) Accurately ripped
2 | (10/10) Accurately ripped
3 | (10/10) Accurately ripped
4 | (10/10) Accurately ripped
5 | (10/10) Accurately ripped
6 | (10/10) Accurately ripped
7 | (10/10) Accurately ripped
8 | (10/10) Accurately ripped
9 | (10/10) Accurately ripped
10 | ( 9/10) Accurately ripped
11 | (10/10) Accurately ripped
12 | (10/10) Accurately ripped
13 | (10/10) Accurately ripped
14 | (10/10) Accurately ripped
15 | ( 9/10) Accurately ripped
16 | (10/10) Accurately ripped
17 | (10/10) Accurately ripped
18 | (10/10) Accurately ripped
19 | ( 9/10) Accurately ripped
20 | ( 9/10) Accurately ripped


==== Log checksum DB1CE770DD837566314F8F6A13AF7969B6E9390E97D036BEDD956AFFC6784323 ====