Subcategories
Tags
Language
Tags

Earl Klugh - Nightsongs (More Late Night Guitar) (1984) {MSC}

Posted By: tiburon
Earl Klugh - Nightsongs (More Late Night Guitar) (1984) {MSC}

Earl Klugh - Nightsongs (More Late Night Guitar) (1984) {MSC}
EAC 0.99pb4 | FLAC tracks level 8 | Cue+Log+M3U | Full Scans 300dpi | 234MB + 5% Recovery
MP3 CBR 320 Kbps | 102MB + 5% Recovery
Genre: Smooth Jazz

Mosaic Records, known for its historic compilations of Blue Note recordings in either box sets or the Mosaic Select series, introduces its Contemporary line with this reissue of Earl Klugh's 1985 recording. At the least, it is a curious anomaly to all the label's other packages. At best, fans of Klugh will be happy to revisit tunes they may have only owned on vinyl. It's primarily the same syrupy orchestrations by Don Sebesky, the same lugubrious after-hours tempos, and Klugh's laid-back, mostly acoustic guitar framing movie themes, ballads, and an occasional standard. The solo acoustic takes of the swing evergreen "Ain't Misbehavin'" and an always bluesy "See See Rider" are still the standout cuts, flute beautifully leads and identifies the wondrous, poignant "Nature Boy" and "A Certain Smile," while oboe fronts the "Theme from Picnic." "Stay Gold" and "Night Song" remain sleepy, while Klugh's take on "The Look of Love" will always be a George Benson imitation. Klugh put out much better efforts, to brighter, less glossed-over effect, on his earlier Blue Note recordings. This one is not all that essential.
Track List
01 - Ain't Misbehavin'
02 - Theme From 'The Pawnbroker'
03 - The Look Of Love
04 - Nature Boy
05 - Stay Gold (Theme From 'The Outsiders')
06 - Night Song
07 - See See Rider
08 - A Certain Smile
09 - The Shadow Of Your Smile
10 - Theme From 'Picnic'

musicians
Earl Klugh - guitar
Lucio Hopper - bass
Ron Carter - bass
Brian Brake - drums
Grady Tate - drums
Barry Eastmond - keyboards
Sammy Figueroa - percussion
Toots Thielemans - harmonica

Produced by Earl Klugh


Exact Audio Copy V0.99 prebeta 4 from 23. January 2008

EAC extraction logfile from 5. April 2009, 10:06

Earl Klugh / Nightsongs (More Late Night Guitar)

Used drive : PLEXTOR CD-R PREMIUM2 Adapter: 1 ID: 1

Read mode : Secure
Utilize accurate stream : Yes
Defeat audio cache : Yes
Make use of C2 pointers : No

Read offset correction : 30
Overread into Lead-In and Lead-Out : Yes
Fill up missing offset samples with silence : Yes
Delete leading and trailing silent blocks : No
Null samples used in CRC calculations : Yes
Used interface : Installed external ASPI interface
Gap handling : Appended to previous track

Used output format : User Defined Encoder
Selected bitrate : 32 kBit/s
Quality : High
Add ID3 tag : No
Command line compressor : C:\Programmi\FLAC\flac.exe
Additional command line options : -8 -V -T "ARTIST=%a" -T "TITLE=%t" -T "ALBUM=%g" -T "DATE=%y" -T "TRACKNUMBER=%n" -T "GENRE=%m" -T "COMMENT=EAC FLAC -8" %s


TOC of the extracted CD

Track | Start | Length | Start sector | End sector
––––––––––––––––––––––––––––-
1 | 0:00.00 | 2:12.17 | 0 | 9916
2 | 2:12.17 | 4:13.01 | 9917 | 28892
3 | 6:25.18 | 5:28.58 | 28893 | 53550
4 | 11:54.01 | 3:51.12 | 53551 | 70887
5 | 15:45.13 | 2:54.07 | 70888 | 83944
6 | 18:39.20 | 6:36.70 | 83945 | 113714
7 | 25:16.15 | 2:11.10 | 113715 | 123549
8 | 27:27.25 | 3:43.16 | 123550 | 140290
9 | 31:10.41 | 5:10.02 | 140291 | 163542
10 | 36:20.43 | 4:06.27 | 163543 | 182019


Track 1

Filename D:\My Rip\01 - Ain't Misbehavin'.wav

Pre-gap length 0:00:02.00

Peak level 93.2 %
Track quality 100.0 %
Test CRC D94D7922
Copy CRC D94D7922
Track not present in AccurateRip database
Copy OK

Track 2

Filename D:\My Rip\02 - Theme From 'The Pawnbroker'.wav

Peak level 93.2 %
Track quality 99.9 %
Test CRC 50DF0AF1
Copy CRC 50DF0AF1
Track not present in AccurateRip database
Copy OK

Track 3

Filename D:\My Rip\03 - The Look Of Love.wav

Peak level 94.1 %
Track quality 100.0 %
Test CRC 5D10F311
Copy CRC 5D10F311
Track not present in AccurateRip database
Copy OK

Track 4

Filename D:\My Rip\04 - Nature Boy.wav

Peak level 93.2 %
Track quality 100.0 %
Test CRC D4F9B76F
Copy CRC D4F9B76F
Track not present in AccurateRip database
Copy OK

Track 5

Filename D:\My Rip\05 - Stay Gold (Theme From 'The Outsiders').wav

Peak level 93.2 %
Track quality 100.0 %
Test CRC E67F0D59
Copy CRC E67F0D59
Track not present in AccurateRip database
Copy OK

Track 6

Filename D:\My Rip\06 - Night Song.wav

Pre-gap length 0:00:01.04

Peak level 93.7 %
Track quality 100.0 %
Test CRC 70E67499
Copy CRC 70E67499
Track not present in AccurateRip database
Copy OK

Track 7

Filename D:\My Rip\07 - See See Rider.wav

Peak level 93.2 %
Track quality 100.0 %
Test CRC E4191956
Copy CRC E4191956
Track not present in AccurateRip database
Copy OK

Track 8

Filename D:\My Rip\08 - A Certain Smile.wav

Peak level 93.2 %
Track quality 100.0 %
Test CRC 3BA8125A
Copy CRC 3BA8125A
Track not present in AccurateRip database
Copy OK

Track 9

Filename D:\My Rip\09 - The Shadow Of Your Smile.wav

Pre-gap length 0:00:00.90

Peak level 94.9 %
Track quality 100.0 %
Test CRC 8CFDC0CB
Copy CRC 8CFDC0CB
Track not present in AccurateRip database
Copy OK

Track 10

Filename D:\My Rip\10 - Theme From 'Picnic'.wav

Peak level 93.2 %
Track quality 99.9 %
Test CRC 231C6232
Copy CRC 231C6232
Track not present in AccurateRip database
Copy OK


None of the tracks are present in the AccurateRip database

No errors occurred

End of status report

Earl Klugh - Nightsongs (More Late Night Guitar) (1984) {MSC}
Earl Klugh - Nightsongs (More Late Night Guitar) (1984) {MSC}


Thanks to the original ripper