Tags
Language
Tags

Earth, Wind & Fire - The Best of Earth, Wind & Fire, Vol. II (1988) [Re-Up]

Posted By: Designol
Earth, Wind & Fire - The Best of Earth, Wind & Fire, Vol. II (1988) [Re-Up]

Earth, Wind & Fire - The Best of Earth, Wind & Fire, Volume 2 (1988)
EAC | FLAC | Tracks (Cue&Log) ~ 290 Mb | Mp3 (CBR320) ~ 108 Mb | Scans included
Funk, Quiet Storm, Disco, Soul | Label: Columbia | # CK 45013 | Time: 00:43:28

The second collection covering hit singles from the '70s top funk and soul band, Earth, Wind & Fire. This anthology has recently been supplanted by a box set covering virtually all of their big Columbia singles and some early Warners material. If you enjoyed their disco and late '70s cuts more than the early tracks, this anthology is worth getting.

Review by Ron Wynn, Allmusic.com

Vol. I was 1978 and there are still only two '80s cuts, with 1980's "Let Me Talk," all that's worth salvaging from Faces, and 1987's "System of Survival," the closest they've ever come to actual protest, both missing. And you know what? At one nullity and one dubiety a side, it's every bit as solid as Vol. I, which happens to be the best album they ever released. I should mention that because I prefer their slick early-'80s decline to their soulful late-'70s ascendancy (not to mention their fusoid early-'70s launch), my tastes in this matter are unorthodox if not crackpot. But if you could scarcely give a shit, which at this late date is sane enough, here's some slick, soulful fun.

Review by Robert Christgau, A-

Earth, Wind & Fire - The Best of Earth, Wind & Fire, Vol. II (1988) [Re-Up]



Tracklist:

01. Turn On (The Beat Box) (4:43)
02. Let's Groove (5:39)
03. After The Love is Gone (3:58)
04. Fantasy (3:50)
05. Devotion (4:53)
06. Serpentine Fire (3:54)
07. Love's Holiday (4:27)
08. Boogie Wonderland (With The Emotions) (4:52)
09. Saturday Nite (4:06)
10. Mighty Mighty (3:05)


EAC extraction logfile from 25. November 2009, 4:02 for CD
Earth, Wind & Fire / The Best of Earth, Wind & Fire Vol. II

Used drive : LITE-ON CD-RW SOHR-5238S Adapter: 1 ID: 0
Read mode : Secure with NO C2, accurate stream, disable cache
Read offset correction : 6
Overread into Lead-In and Lead-Out : Yes

Used output format : C:\Program Files\MediaCoder\codecs\flac.exe (User Defined Encoder)
192 kBit/s
Additional command line options : ?8 ?V ?T "ARTIST=%a" ?T "TITLE=%t" ?T "ALBUM=%g" ?T "DATE=%y" ?T "TRACKNUMBER=%n" ?T "GENRE=%m" ?T "COMMENT=EAC FLAC ?8" %s

Other options :
Fill up missing offset samples with silence : Yes
Delete leading and trailing silent blocks : No
Installed external ASPI interface


Track 1
Filename F:\Torrents CD\Earth,Wind & Fire-The Best Of ,vol.2 -1988\01 - Turn On (The Beat Box) .wav

Pre-gap length 0:00:02.00

Peak level 100.0 %
Track quality 99.9 %
Test CRC 94429613
Copy CRC 94429613
Copy OK

Track 2
Filename F:\Torrents CD\Earth,Wind & Fire-The Best Of ,vol.2 -1988\02 - Let's Groove .wav

Pre-gap length 0:00:02.22

Peak level 78.6 %
Track quality 99.9 %
Test CRC 475BFDEE
Copy CRC 475BFDEE
Copy OK

Track 3
Filename F:\Torrents CD\Earth,Wind & Fire-The Best Of ,vol.2 -1988\03 - After the Love is Gone .wav

Pre-gap length 0:00:01.70

Peak level 100.0 %
Track quality 100.0 %
Test CRC FD6324F8
Copy CRC FD6324F8
Copy OK

Track 4
Filename F:\Torrents CD\Earth,Wind & Fire-The Best Of ,vol.2 -1988\04 - Fantasy .wav

Pre-gap length 0:00:02.26

Peak level 100.0 %
Track quality 100.0 %
Test CRC AF3A4CC1
Copy CRC AF3A4CC1
Copy OK

Track 5
Filename F:\Torrents CD\Earth,Wind & Fire-The Best Of ,vol.2 -1988\05 - Devotion .wav

Pre-gap length 0:00:03.02

Peak level 61.3 %
Track quality 100.0 %
Test CRC 4263D689
Copy CRC 4263D689
Copy OK

Track 6
Filename F:\Torrents CD\Earth,Wind & Fire-The Best Of ,vol.2 -1988\06 - Serpentine Fire .wav

Pre-gap length 0:00:03.04

Peak level 100.0 %
Track quality 100.0 %
Test CRC 2BDEC7B9
Copy CRC 2BDEC7B9
Copy OK

Track 7
Filename F:\Torrents CD\Earth,Wind & Fire-The Best Of ,vol.2 -1988\07 - Love's Holiday .wav

Pre-gap length 0:00:02.10

Peak level 100.0 %
Track quality 100.0 %
Test CRC 5D8FAA68
Copy CRC 5D8FAA68
Copy OK

Track 8
Filename F:\Torrents CD\Earth,Wind & Fire-The Best Of ,vol.2 -1988\08 - Boogie Wonderland (with The Emotions) .wav

Pre-gap length 0:00:02.80

Peak level 98.3 %
Track quality 99.9 %
Test CRC 9294B3E2
Copy CRC 9294B3E2
Copy OK

Track 9
Filename F:\Torrents CD\Earth,Wind & Fire-The Best Of ,vol.2 -1988\09 - Saturday Nite .wav

Pre-gap length 0:00:01.46

Peak level 100.0 %
Track quality 100.0 %
Test CRC 600BAA22
Copy CRC 600BAA22
Copy OK

Track 10
Filename F:\Torrents CD\Earth,Wind & Fire-The Best Of ,vol.2 -1988\10 - Mighty Mighty .wav

Pre-gap length 0:00:02.76

Peak level 83.5 %
Track quality 100.0 %
Test CRC 2523B735
Copy CRC 2523B735
Copy OK

No errors occured


End of status report

[CUETools log; Date: 24.06.2017 16:07:28; Version: 2.1.4]
[CTDB TOCID: 56o9U4RuRC7yM518J4dIrhn4QHU-] found.
Track | CTDB Status
1 | (55/83) Accurately ripped
2 | (55/83) Accurately ripped
3 | (56/83) Accurately ripped
4 | (56/83) Accurately ripped
5 | (56/83) Accurately ripped
6 | (56/83) Accurately ripped
7 | (54/83) Accurately ripped
8 | (55/83) Accurately ripped
9 | (55/83) Accurately ripped
10 | (54/83) Accurately ripped
[AccurateRip ID: 00111c8d-0087ab54-890a300a] found.
Track [ CRC | V2 ] Status
01 [d221d09a|cc342bb8] (02+03/78) Accurately ripped
02 [92d1097e|f0ea615f] (02+03/81) Accurately ripped
03 [89479538|6251625c] (02+03/81) Accurately ripped
04 [835fa23b|5ea6b523] (02+03/82) Accurately ripped
05 [93dcdb1a|a4939b89] (02+03/83) Accurately ripped
06 [8c0215d4|8b6ec3b0] (02+03/81) Accurately ripped
07 [72528c9e|e0852f02] (02+02/76) Accurately ripped
08 [10f1aa4f|774065ff] (02+03/77) Accurately ripped
09 [d8a99ce6|ecee36b5] (02+02/77) Accurately ripped
10 [1ce87c0a|f6f14e5a] (02+02/80) Accurately ripped
Offsetted by -899:
01 [def40fee] (05/78) Accurately ripped
02 [6bd96a0d] (05/81) Accurately ripped
03 [34848cb8] (05/81) Accurately ripped
04 [69f85f90] (05/82) Accurately ripped
05 [1d4fad8e] (05/83) Accurately ripped
06 [0b631758] (05/81) Accurately ripped
07 [4f7c7ebb] (03/76) Accurately ripped
08 [2447f3c7] (03/77) Accurately ripped
09 [6d1552af] (05/77) Accurately ripped
10 [850b81cc] (05/80) Accurately ripped
Offsetted by 4:
01 [4245542a] (06/78) Accurately ripped
02 [5c07f56a] (07/81) Accurately ripped
03 [d7f74b38] (06/81) Accurately ripped
04 [fe37f11f] (07/82) Accurately ripped
05 [a4e8052a] (06/83) Accurately ripped
06 [d4e8e124] (06/81) Accurately ripped
07 [460e0522] (06/76) Accurately ripped
08 [c1faadaf] (07/77) Accurately ripped
09 [7b2b8dda] (06/77) Accurately ripped
10 [55ae85b2] (07/80) Accurately ripped
Offsetted by 298:
01 [74779a02] (02/78) Accurately ripped
02 [214cb1ac] (02/81) Accurately ripped
03 [ef6a0c38] (02/81) Accurately ripped
04 [c3529795] (02/82) Accurately ripped
05 [899c98c2] (02/83) Accurately ripped
06 [c32c409c] (02/81) Accurately ripped
07 [90611f08] (02/76) Accurately ripped
08 [961125bf] (02/77) Accurately ripped
09 [a37a3be8] (02/77) Accurately ripped
10 [228a4b6e] (02/80) Accurately ripped
Offsetted by 514:
01 [1bf55a62] (03/78) Accurately ripped
02 [92e27574] (03/81) Accurately ripped
03 [887a7038] (03/81) Accurately ripped
04 [acf33bad] (03/82) Accurately ripped
05 [21f77822] (03/83) Accurately ripped
06 [23db237c] (03/81) Accurately ripped
07 [39ec8ae0] (03/76) Accurately ripped
08 [edf7dbff] (03/77) Accurately ripped
09 [eae30f60] (03/77) Accurately ripped
10 [1c5054de] (03/80) Accurately ripped
Offsetted by 1005:
01 [60fcafae] (08/78) Accurately ripped
02 [8df814dd] (08/81) Accurately ripped
03 [833af4b8] (07/81) Accurately ripped
04 [d42b0f80] (07/82) Accurately ripped
05 [ce11e34e] (08/83) Accurately ripped
06 [98852018] (07/81) Accurately ripped
07 [0010942b] (07/76) Accurately ripped
08 [510a3a47] (08/77) Accurately ripped
09 [96b1585f] (07/77) Accurately ripped
10 [1545762c] (08/80) Accurately ripped
Offsetted by 1058:
01 [aed33ee2] (03/78) Accurately ripped
02 [780fcad4] (02/81) Accurately ripped
03 [55d32038] (03/81) Accurately ripped
04 [efdd24cd] (03/82) Accurately ripped
05 [2fe5d0a2] (03/83) Accurately ripped
06 [de7725fc] (03/81) Accurately ripped
07 [b5849100] (03/76) Accurately ripped
08 [fac1a6ff] (03/77) Accurately ripped
09 [3feb1100] (03/77) Accurately ripped
10 [4585761e] (03/80) Accurately ripped
Offsetted by 1178:
01 [d2fca9c2] (02/78) Accurately ripped
02 [0c7f707c] (02/81) Accurately ripped
03 [8e6a7438] (02/81) Accurately ripped
04 [55366385] (02/82) Accurately ripped
05 [2f34be82] (02/83) Accurately ripped
06 [6982f95c] (02/81) Accurately ripped
07 [857cb078] (02/76) Accurately ripped
08 [b9d00c3f] (02/77) Accurately ripped
09 [4b254d98] (02/77) Accurately ripped
10 [ecba97ce] (02/80) Accurately ripped
Offsetted by 1390:
01 [0a56e692] (02/78) Accurately ripped
02 [b4de4858] (02/81) Accurately ripped
03 [d8cb2238] (02/81) Accurately ripped
04 [c3feb8b9] (02/82) Accurately ripped
05 [b68473d2] (02/83) Accurately ripped
06 [814b10ec] (02/81) Accurately ripped
07 [5b4ca3cc] (02/76) Accurately ripped
08 [60adbf1f] (02/77) Accurately ripped
09 [f00c301c] (02/77) Accurately ripped
10 [adba9796] (02/80) Accurately ripped
Offsetted by 107:
01 [09d7cfe6] (00/78) No match (V2 was not tested)
02 [194e3067] (00/81) No match (V2 was not tested)
03 [0223d9b8] (00/81) No match (V2 was not tested)
04 [9979e08e] (00/82) No match (V2 was not tested)
05 [dbc78046] (00/83) No match (V2 was not tested)
06 [aa1fd470] (00/81) No match (V2 was not tested)
07 [d2296469] (00/76) No match (V2 was not tested)
08 [10a2c497] (00/77) No match (V2 was not tested)
09 [93bd8a65] (00/77) No match (V2 was not tested)
10 [cb99fe58] (00/80) No match (V2 was not tested)
Offsetted by 556:
01 [b56a3fca] (00/78) No match (V2 was not tested)
02 [d3a322a2] (02/81) Accurately ripped
03 [42af6738] (02/81) Accurately ripped
04 [36d27807] (02/82) Accurately ripped
05 [d4ecb1ca] (02/83) Accurately ripped
06 [21527a44] (02/81) Accurately ripped
07 [691cfc4a] (02/76) Accurately ripped
08 [30d67f6f] (02/77) Accurately ripped
09 [15377162] (00/77) No match (V2 was not tested)
10 [f06fba42] (02/80) Accurately ripped
Offsetted by 1697:
01 [28fc97fe] (00/78) No match (V2 was not tested)
02 [88158359] (00/81) No match (V2 was not tested)
03 [aff8f2b8] (00/81) No match (V2 was not tested)
04 [d8585f94] (00/82) No match (V2 was not tested)
05 [529d501e] (00/83) No match (V2 was not tested)
06 [dc7c8528] (00/81) No match (V2 was not tested)
07 [15c1055f] (00/76) No match (V2 was not tested)
08 [f4218227] (00/77) No match (V2 was not tested)
09 [68812d43] (00/77) No match (V2 was not tested)
10 [7319fcb4] (00/80) No match (V2 was not tested)

Track Peak [ CRC32 ] [W/O NULL] [ LOG ]
– 100,0 [E8B56BF7] [DED48D58]
01 100,0 [94429613] [0DF42842] CRC32
02 78,6 [475BFDEE] [9925C7D1] CRC32
03 100,0 [FD6324F8] [8237CA98] CRC32
04 100,0 [AF3A4CC1] [5178F2DF] CRC32
05 61,3 [4263D689] [A196B8A9] CRC32
06 100,0 [2BDEC7B9] [4B94680F] CRC32
07 100,0 [5D8FAA68] [1A44F674] CRC32
08 98,3 [9294B3E2] [600E8D73] CRC32
09 100,0 [600BAA22] [D7C5C951] CRC32
10 83,5 [2523B735] [B2D55943] CRC32

foobar2000 1.2 / Dynamic Range Meter 1.1.1
log date: 2017-06-24 17:19:19

––––––––––––––––––––––––––––––––––––––––
Analyzed: Earth, Wind & Fire / The Best Of Earth, Wind & Fire Vol. 2
––––––––––––––––––––––––––––––––––––––––

DR Peak RMS Duration Track
––––––––––––––––––––––––––––––––––––––––
DR16 0.00 dB -18.10 dB 4:43 01-Turn On (The Beat Box)
DR15 -2.09 dB -18.84 dB 5:39 02-Let's Groove
DR15 0.00 dB -18.74 dB 3:58 03-After The Love is Gone
DR15 0.00 dB -17.81 dB 3:50 04-Fantasy
DR12 -4.24 dB -19.23 dB 4:53 05-Devotion
DR16 0.00 dB -17.84 dB 3:54 06-Serpentine Fire
DR16 0.00 dB -18.86 dB 4:27 07-Love's Holiday
DR15 -0.14 dB -17.73 dB 4:52 08-Boogie Wonderland (With The Emotions)
DR16 0.00 dB -17.65 dB 4:06 09-Saturday Nite
DR13 -1.56 dB -16.86 dB 3:05 10-Mighty Mighty
––––––––––––––––––––––––––––––––––––––––

Number of tracks: 10
Official DR value: DR15

Samplerate: 44100 Hz
Channels: 2
Bits per sample: 16
Bitrate: 874 kbps
Codec: FLAC
================================================================================

Earth, Wind & Fire - The Best of Earth, Wind & Fire, Vol. II (1988) [Re-Up]

Earth, Wind & Fire - The Best of Earth, Wind & Fire, Vol. II (1988) [Re-Up]