Tags
Language
Tags

Edward Ka-Spel: Discography part 07 (1997-2010)

Posted By: v3122
Edward Ka-Spel: Discography part 07 (1997-2010)

Edward Ka-Spel: Discography part 07 (1997-2010)
EAC | Flac(Image) + Cue + Log & MP3 CBR 320Kbps
8CDs | Label: Various | ~ 2200 or 1048 Mb | Artwork(jpg) -> 98 Mb
Electronic, Rock, Abstract, Experimental

Edward Ka-Spel is a singer, songwriter and musician. He is probably best known as the lead singer, songwriter and co-founder (with Phil “The Silverman” Knight) of the prolific underground band The Legendary Pink Dots.
Edward Ka-Spel: Discography part 07 (1997-2010)

Edward Ka-Spel: Discography part 07 (1997-2010):

Edward Ka-Spel: Discography part 07 (1997-2010)

Tracklist Disc 01. 2008 - Dream Logik X (A Small Voyage in Three Parts) [Beta-Lactam Ring mt216a]:

01. Dream Logik X (A Small Voyage: Part 1) (02:08)
02. Dream Logik X (A Small Voyage: Part 2) (08:09)
03. Dream Logik X (A Small Voyage: Part 3) (12:18)

Exact Audio Copy V0.99 prebeta 5 from 4. May 2009

EAC extraction logfile from 9. November 2010, 12:14

Edward Ka-Spel / Dream Logik X (A Small Voyage in Three Parts)

Used drive : LITE-ON DVDRW LH-20A1L Adapter: 4 ID: 0

Read mode : Secure
Utilize accurate stream : Yes
Defeat audio cache : Yes
Make use of C2 pointers : No

Read offset correction : 6
Overread into Lead-In and Lead-Out : No
Fill up missing offset samples with silence : Yes
Delete leading and trailing silent blocks : No
Null samples used in CRC calculations : Yes
Used interface : Installed external ASPI interface

Used output format : User Defined Encoder
Selected bitrate : 1024 kBit/s
Quality : High
Add ID3 tag : No
Command line compressor : C:\Program Files\Exact Audio Copy\FLAC\FLAC.EXE
Additional command line options : –best -f -V -T "ARTIST=%a" -T "TITLE=%t" -T "ALBUM=%g" -T "DATE=%y" -T "TRACKNUMBER=%n" -T "GENRE=%m" -T "COMMENT=%e" %s -o %d


TOC of the extracted CD

Track | Start | Length | Start sector | End sector
––––––––––––––––––––––––––––-
1 | 0:00.00 | 2:08.13 | 0 | 9612
2 | 2:08.13 | 8:09.30 | 9613 | 46317
3 | 10:17.43 | 12:17.65 | 46318 | 101657


Range status and errors

Selected range

Filename Z:\data\mp3\Seeding\Edward Ka-Spel\2008-Dream Logik X (A Small Voyage in Three Parts)\Dream Logik X (A Small Voyage in Three Parts).wav

Peak level 100.0 %
Range quality 100.0 %
Test CRC 713480EA
Copy CRC 713480EA
Copy OK

No errors occurred


AccurateRip summary

Track 1 accurately ripped (confidence 3) [73B724F5]
Track 2 accurately ripped (confidence 3) [5F1166C1]
Track 3 accurately ripped (confidence 3) [9DECD163]

All tracks accurately ripped

End of status report


Edward Ka-Spel: Discography part 07 (1997-2010)

Tracklist Disc 02. 2008 - The Painted River Of Regrets [Trademark Of Quantity]:

01. The Painted River Of Regrets (39:34)

Exact Audio Copy V0.99 prebeta 5 from 4. May 2009

EAC extraction logfile from 20. November 2010, 14:10

Edward Ka-Spel / The Painted River Of Regrets

Used drive : SAMSUNG DVD-ROM SD-616E Adapter: 3 ID: 0

Read mode : Secure
Utilize accurate stream : Yes
Defeat audio cache : Yes
Make use of C2 pointers : No

Read offset correction : 12
Overread into Lead-In and Lead-Out : No
Fill up missing offset samples with silence : Yes
Delete leading and trailing silent blocks : No
Null samples used in CRC calculations : Yes
Used interface : Native Win32 interface for Win NT & 2000
Gap handling : Appended to previous track

Used output format : User Defined Encoder
Selected bitrate : 768 kBit/s
Quality : High
Add ID3 tag : No
Command line compressor : C:\Program Files\Exact Audio Copy\FLAC\FLAC.EXE
Additional command line options : -6 -V -T "ARTIST=%a" -T "TITLE=%t" -T "ALBUM=%g" -T "DATE=%y" -T "TRACKNUMBER=%n" -T "GENRE=%m" -T "COMMENT=%e" %s -o %d


TOC of the extracted CD

Track | Start | Length | Start sector | End sector
––––––––––––––––––––––––––––-
1 | 0:00.00 | 39:34.02 | 0 | 178051


Track 1

Filename C:\cygwin\tmp\New folder\01 - The Painted River Of Regrets.wav

Pre-gap length 0:00:02.00

Peak level 97.9 %
Track quality 100.0 %
Test CRC 93F1D428
Copy CRC 93F1D428
Track not present in AccurateRip database
Copy OK


None of the tracks are present in the AccurateRip database

No errors occurred

End of status report


Edward Ka-Spel: Discography part 07 (1997-2010)

Tracklist Disc 03. 2009 - Dream Loops [Beta-Lactam Ring mt230a]:

01. Zone 1 (05:34)
02. Zone 2 (11:29)
03. Zone 3 (12:13)
04. Zone 4 (07:56)
05. Zone 5 (08:54)

Exact Audio Copy V0.99 prebeta 5 from 4. May 2009

EAC extraction logfile from 23. November 2010, 22:58

Edward Ka-Spel / Dream Loops

Used drive : LITE-ON DVDRW LH-20A1L Adapter: 2 ID: 0

Read mode : Secure
Utilize accurate stream : Yes
Defeat audio cache : Yes
Make use of C2 pointers : No

Read offset correction : 6
Overread into Lead-In and Lead-Out : No
Fill up missing offset samples with silence : Yes
Delete leading and trailing silent blocks : No
Null samples used in CRC calculations : Yes
Used interface : Installed external ASPI interface

Used output format : Internal WAV Routines
Sample format : 44.100 Hz; 16 Bit; Stereo


TOC of the extracted CD

Track | Start | Length | Start sector | End sector
––––––––––––––––––––––––––––-
1 | 0:00.00 | 5:33.61 | 0 | 25035
2 | 5:33.61 | 11:28.60 | 25036 | 76695
3 | 17:02.46 | 12:12.49 | 76696 | 131644
4 | 29:15.20 | 7:56.12 | 131645 | 167356
5 | 37:11.32 | 8:54.33 | 167357 | 207439


Range status and errors

Selected range

Filename Z:\data\mp3\Seeding\Edward Ka-Spel\2009-Dream Loops\Dream Loops.wav

Peak level 98.8 %
Range quality 100.0 %
Test CRC 6B4F112D
Copy CRC 6B4F112D
Copy OK

No errors occurred


AccurateRip summary

Track 1 accurately ripped (confidence 1) [57ACDFD9]
Track 2 accurately ripped (confidence 1) [C6A20772]
Track 3 accurately ripped (confidence 1) [1E0D295E]
Track 4 accurately ripped (confidence 1) [72FD90B7]
Track 5 accurately ripped (confidence 1) [2D6F1AEF]

All tracks accurately ripped

End of status report


Edward Ka-Spel: Discography part 07 (1997-2010)

Tracklis Disc 04-05. 2010 - Devascapes [Trademark Of Quantity]:

01. Devascape 1-3 (22:52)
02. Devascape 4-6 (21:02)

Exact Audio Copy V0.99 prebeta 5 from 4. May 2009

EAC extraction logfile from 1. November 2010, 15:45

Edward Ka-Spel / Devascapes

Used drive : TSSTcorpCDRWDVD TS-H492C Adapter: 0 ID: 0

Read mode : Secure
Utilize accurate stream : Yes
Defeat audio cache : Yes
Make use of C2 pointers : No

Read offset correction : 6
Overread into Lead-In and Lead-Out : No
Fill up missing offset samples with silence : Yes
Delete leading and trailing silent blocks : No
Null samples used in CRC calculations : Yes
Used interface : Native Win32 interface for Win NT & 2000

Used output format : User Defined Encoder
Selected bitrate : 1024 kBit/s
Quality : High
Add ID3 tag : No
Command line compressor : C:\Program Files\Exact Audio Copy\Flac\flac.exe
Additional command line options : -f –best -T "artist=%a" -T "title=%t" -T "album=%g" -T "date=%y" -T "tracknumber=%n" -T "genre=%m" %s


TOC of the extracted CD

Track | Start | Length | Start sector | End sector
––––––––––––––––––––––––––––-
1 | 0:00.00 | 22:53.73 | 0 | 103047
2 | 22:53.73 | 21:00.21 | 103048 | 197568


Range status and errors

Selected range

Filename C:\cygwin\tmp\Edward Ka-Spel - Devascapes\Edward Ka-Spel - Devascapes.wav

Peak level 100.0 %
Range quality 99.9 %
Test CRC 741FFBA3
Copy CRC 741FFBA3
Copy OK

No errors occurred


AccurateRip summary

Track 1 not present in database
Track 2 not present in database

None of the tracks are present in the AccurateRip database

End of status report


Devascape X: private download file.

01. Devascape X (11:29)

Exact Audio Copy V0.99 prebeta 5 from 4. May 2009

EAC extraction logfile from 1. November 2010, 15:45

Edward Ka-Spel / Devascapes

Used drive : TSSTcorpCDRWDVD TS-H492C Adapter: 0 ID: 0

Read mode : Secure
Utilize accurate stream : Yes
Defeat audio cache : Yes
Make use of C2 pointers : No

Read offset correction : 6
Overread into Lead-In and Lead-Out : No
Fill up missing offset samples with silence : Yes
Delete leading and trailing silent blocks : No
Null samples used in CRC calculations : Yes
Used interface : Native Win32 interface for Win NT & 2000

Used output format : User Defined Encoder
Selected bitrate : 1024 kBit/s
Quality : High
Add ID3 tag : No
Command line compressor : C:\Program Files\Exact Audio Copy\Flac\flac.exe
Additional command line options : -f –best -T "artist=%a" -T "title=%t" -T "album=%g" -T "date=%y" -T "tracknumber=%n" -T "genre=%m" %s


TOC of the extracted CD

Track | Start | Length | Start sector | End sector
––––––––––––––––––––––––––––-
1 | 0:00.00 | 22:53.73 | 0 | 103047
2 | 22:53.73 | 21:00.21 | 103048 | 197568


Range status and errors

Selected range

Filename C:\cygwin\tmp\Edward Ka-Spel - Devascapes\Edward Ka-Spel - Devascapes.wav

Peak level 100.0 %
Range quality 99.9 %
Test CRC 741FFBA3
Copy CRC 741FFBA3
Copy OK

No errors occurred


AccurateRip summary

Track 1 not present in database
Track 2 not present in database

None of the tracks are present in the AccurateRip database

End of status report


Edward Ka-Spel: Discography part 07 (1997-2010)

Tracklist Disc 06. 2010 - The Minus Touch [Beta-Lactam Ring, mt240b]:

01. The Beast With 6 Fingers (06:49)
02. Vision On (07:07)
03. Man Or Mouse (Version 2) (05:48)
04. Bad Mood (06:15)
05. Absolution (04:30)
06. The Twisting Vines in Your Sick Mind (05:04)
07. Altered State (12:03)
08. Kill It (13:45)

Exact Audio Copy V0.99 prebeta 5 from 4. May 2009

EAC extraction logfile from 6. November 2010, 14:03

Edward Ka-Spel / The Minus Touch

Used drive : LITE-ON LTR-40125S Adapter: 1 ID: 1

Read mode : Secure
Utilize accurate stream : Yes
Defeat audio cache : Yes
Make use of C2 pointers : No

Read offset correction : 12
Overread into Lead-In and Lead-Out : No
Fill up missing offset samples with silence : Yes
Delete leading and trailing silent blocks : No
Null samples used in CRC calculations : Yes
Used interface : Installed external ASPI interface

Used output format : Internal WAV Routines
Sample format : 44.100 Hz; 16 Bit; Stereo


TOC of the extracted CD

Track | Start | Length | Start sector | End sector
––––––––––––––––––––––––––––-
1 | 0:00.00 | 6:49.21 | 0 | 30695
2 | 6:49.21 | 7:06.74 | 30696 | 62719
3 | 13:56.20 | 5:47.57 | 62720 | 88801
4 | 19:44.02 | 6:14.46 | 88802 | 116897
5 | 25:58.48 | 4:30.18 | 116898 | 137165
6 | 30:28.66 | 5:03.69 | 137166 | 159959
7 | 35:32.60 | 12:02.58 | 159960 | 214167
8 | 47:35.43 | 13:44.63 | 214168 | 276030


Range status and errors

Selected range

Filename Z:\data\mp3\Seeding\Edward Ka-Spel\2010-The Minus Touch\The Minus Touch.wav

Peak level 96.6 %
Range quality 100.0 %
Test CRC 06444973
Copy CRC 06444973
Copy OK

No errors occurred


AccurateRip summary

Track 1 not present in database
Track 2 not present in database
Track 3 not present in database
Track 4 not present in database
Track 5 not present in database
Track 6 not present in database
Track 7 not present in database
Track 8 not present in database

None of the tracks are present in the AccurateRip database

End of status report


Edward Ka-Spel: Discography part 07 (1997-2010)

Tracklist Disc 07-08. 1997 - Das Digitale Vertrauen [CD & Vinyl, Soleilmoon SOL 54]:

01. Millenium I / Edward Ka-Spel (12:02)
02. Millenium II / Edward Ka-Spel (11:16)
03. Supra (Ablaufmechanismusversion) / Jetzmann / L. Ski (03:44)
04. Nur Unterschicht / Jetzmann / L. Ski (03:39)
05. Techniskop / Jetzmann / L. Ski (08:21)
06. Schwachholz vorsetzen / Tietchens / Liquidsky (01:49)
07. Mit Buschen reden / Asmus Tietchens (01:40)
08. Und wenn ich kroche / Asmus Tietchens (06:48)
09. See You / Asmus Tietchens (04:22)
10. CD Details (01:44)

Exact Audio Copy V1.0 beta 3 from 29. August 2011

EAC extraction logfile from 4. December 2011, 11:15

Edward K-Spel / Jetzmann / L.Ski / Asmus Tietchens / Das Digitale Vertrauen (CD)

Used drive : PLEXTOR DVDR PX-760A Adapter: 0 ID: 1

Read mode : Secure
Utilize accurate stream : Yes
Defeat audio cache : Yes
Make use of C2 pointers : No

Read offset correction : 30
Overread into Lead-In and Lead-Out : Yes
Fill up missing offset samples with silence : Yes
Delete leading and trailing silent blocks : No
Null samples used in CRC calculations : Yes
Used interface : Installed external ASPI interface

Used output format : Internal WAV Routines
Sample format : 44.100 Hz; 16 Bit; Stereo


TOC of the extracted CD

Track | Start | Length | Start sector | End sector
––––––––––––––––––––––––––––-
1 | 0:00.30 | 12:01.34 | 30 | 54138
2 | 12:01.64 | 11:16.13 | 54139 | 104851
3 | 23:18.02 | 3:43.52 | 104852 | 121628
4 | 27:01.54 | 3:39.27 | 121629 | 138080
5 | 30:41.06 | 8:20.43 | 138081 | 175623
6 | 39:01.49 | 1:49.07 | 175624 | 183805
7 | 40:50.56 | 1:40.27 | 183806 | 191332
8 | 42:31.08 | 6:48.12 | 191333 | 221944
9 | 49:19.20 | 4:22.20 | 221945 | 241614
10 | 53:41.40 | 1:44.33 | 241615 | 249447


Range status and errors

Selected range

Filename Z:\data\mp3\Seeding Archive\Edward Ka-Spel\Various Artists-1997-Das Digitale Vertrauen\Das Digitale Vertrauen (CD).wav

Peak level 100.0 %
Extraction speed 6.1 X
Range quality 99.9 %
Test CRC F0429A26
Copy CRC F0429A26
Copy OK

No errors occurred


AccurateRip summary

Track 1 accurately ripped (confidence 4) [FBCBFCB4] (AR v1)
Track 2 accurately ripped (confidence 4) [24B27676] (AR v1)
Track 3 accurately ripped (confidence 4) [F6FD0953] (AR v1)
Track 4 accurately ripped (confidence 4) [C74BEB2F] (AR v1)
Track 5 accurately ripped (confidence 4) [DDC544FB] (AR v1)
Track 6 accurately ripped (confidence 4) [575AB035] (AR v1)
Track 7 accurately ripped (confidence 4) [BFA189EE] (AR v1)
Track 8 accurately ripped (confidence 4) [5C30DA7E] (AR v1)
Track 9 accurately ripped (confidence 4) [430638BB] (AR v1)
Track 10 accurately ripped (confidence 3) [5F6A12F6] (AR v1)

All tracks accurately ripped

End of status report

==== Log checksum E26616CBB3F0931B4F9BD824B399874AC2B041A6584EC27914D0BC108B6E1B32 ====


01. The Boomerang Effect / Edward Ka-Spel (07:57)
02. Right on, food / Edward Ka-Spel (04:34)
03. The train to never / Edward Ka-Spel (04:34)
04. Icing / Edward Ka-Spel (08:05)
05. Inter / Jetzmann / L.Ski (07:55)
06. Turbo / Jetzmann / L.Ski (05:46)
07. Para / Jetzmann / L.Ski (04:20)
08. Retro / Jetzmann / L.Ski (03:52)
09. Flut / Asmus Tietchens (03:30)
10. Hertzlicht / Asmus Tietchens (03:54)
11. Kreuze des Sudens / Asmus Tietchens (04:55)
12. Vom Pol zum Metropol / Asmus Tietchens (06:47)
13. Atommacht Indien / Asmus Tietchens (03:43)

Exact Audio Copy V1.0 beta 3 from 29. August 2011

EAC extraction logfile from 4. December 2011, 14:04

Edward Ka-Spel / Jetzmann / L.Ski / Asmus Tietchens / Das Digitale Vertrauen (Vinyl)

Used drive : PLEXTOR CD-R PX-240A Adapter: 0 ID: 0

Read mode : Secure
Utilize accurate stream : Yes
Defeat audio cache : Yes
Make use of C2 pointers : No

Read offset correction : 6
Overread into Lead-In and Lead-Out : No
Fill up missing offset samples with silence : Yes
Delete leading and trailing silent blocks : No
Null samples used in CRC calculations : Yes
Used interface : Installed external ASPI interface

Used output format : Internal WAV Routines
Sample format : 44.100 Hz; 16 Bit; Stereo


TOC of the extracted CD

Track | Start | Length | Start sector | End sector
––––––––––––––––––––––––––––-
1 | 0:00.30 | 7:56.21 | 30 | 35750
2 | 7:56.51 | 4:34.01 | 35751 | 56301
3 | 12:30.52 | 4:34.11 | 56302 | 76862
4 | 17:04.63 | 8:05.07 | 76863 | 113244
5 | 25:09.70 | 7:55.25 | 113245 | 148894
6 | 33:05.20 | 5:46.00 | 148895 | 174844
7 | 38:51.20 | 4:20.11 | 174845 | 194355
8 | 43:11.31 | 3:52.11 | 194356 | 211766
9 | 47:03.42 | 3:30.11 | 211767 | 227527
10 | 50:33.53 | 3:53.61 | 227528 | 245063
11 | 54:27.39 | 4:54.45 | 245064 | 267158
12 | 59:22.09 | 6:47.31 | 267159 | 297714
13 | 66:09.40 | 3:43.11 | 297715 | 314450


Range status and errors

Selected range

Filename Z:\data\mp3\Seeding Archive\Edward Ka-Spel\Various Artists-1997-Das Digitale Vertrauen\Das Digitale Vertrauen (Vinyl).wav

Peak level 100.0 %
Extraction speed 8.7 X
Range quality 100.0 %
Test CRC 270CA6FA
Copy CRC 270CA6FA
Copy OK

No errors occurred


AccurateRip summary

Track 1 accurately ripped (confidence 3) [0FD12A95] (AR v1)
Track 2 accurately ripped (confidence 3) [405005F3] (AR v1)
Track 3 accurately ripped (confidence 3) [09D005C8] (AR v1)
Track 4 accurately ripped (confidence 3) [6243FFFF] (AR v1)
Track 5 accurately ripped (confidence 3) [04661350] (AR v1)
Track 6 accurately ripped (confidence 3) [E3971013] (AR v1)
Track 7 accurately ripped (confidence 3) [8BD658DB] (AR v1)
Track 8 accurately ripped (confidence 3) [B14B69D5] (AR v1)
Track 9 accurately ripped (confidence 3) [4AAF9B84] (AR v1)
Track 10 accurately ripped (confidence 3) [80AF0509] (AR v1)
Track 11 accurately ripped (confidence 3) [80654C00] (AR v1)
Track 12 accurately ripped (confidence 3) [E1BD9576] (AR v1)
Track 13 not present in database

12 track(s) accurately ripped
1 track(s) not present in the AccurateRip database

Some tracks could not be verified as accurate

End of status report

==== Log checksum B0350FEF2B156BF5A484E4E062DD443EA57F8E1280F06BCB9A6F8422CAA590B1 ====


All thanks go to the original releasers

Edward Ka-Spel in my Blog

Download Anna Domino - Anna Domino (1986):