Subcategories

Electric Light Orchestra - Live In Stuttgart (1986)

Posted By: v3122
Electric Light Orchestra - Live In Stuttgart (1986)

Electric Light Orchestra - Live In Stuttgart (1986)
EAC | Flac(Image) + Cue + Log & MP3 CBR 320Kbps
Not On Label | ~ 371 or 127 Mb | Artwork(jpg) -> 1.14 Mb
Progressive Rock | Unofficial Release

~ Live in Stuttgart, 13.07.1986 ~

Electric Light Orchestra - Live In Stuttgart (1986):

Tracklist:

01 - Twilight
02 - Evil Woman
03 - Livin' Thing
04 - 10538 Overture / Showdown / Sweet Talkin' Woman / Confusion
05 - Telephone Line
06 - Ma-Ma-Ma Belle / Do Ya / Rockaria
07 - Calling America
08 - Rock'n'Roll Is King
09 - Mr.Blue Sky
10 - Hold On Tight
11 - Don't Bring Me Down
12 - Roll Over Beethoven

Exact Audio Copy V0.99 prebeta 4 from 23. January 2008

Отчёт EAC об извлечении, выполненном 23. ноября 2010, 16:52

Electric Light Orchestra / Live In Stuttgart

Дисковод: HL-DT-STDVDRAM GSA-E40N Adapter: 2 ID: 0

Режим чтения : Достоверность
Использование точного потока : Да
Отключение кэша аудио : Да
Использование указателей C2 : Нет

Коррекция смещения при чтении : 667
Способность читать области Lead-in и Lead-out : Нет
Заполнение пропущенных сэмплов тишиной : Да
Удаление блоков с тишиной в начале и конце : Нет
При вычислениях CRC использовались нулевые сэмплы : Да
Интерфейс : Встроенный Win32-интерфейс для Win NT/2000
Обработка зазоров : Добавлено к предыдущему треку

Выходной формат : Пользовательский кодировщик
Выбранный битрейт : 128 kBit/s
Качество : Высокий
Добавление ID3-тэга : Нет
Утилита сжатия : C:\Program Files\Exact Audio Copy\FLAC\FLAC.EXE
Дополнительные параметры : -6 -V -T "ARTIST=%a" -T "TITLE=%t" -T "ALBUM=%g" -T "DATE=%y" -T "TRACKNUMBER=%n" -T "GENRE=%m" -T "COMMENT=%e" %s -o %d


TOC извлечённого CD

Трек | Старт | Длительность | Начальный сектор | Конечный сектор
––––––––––––––––––––––––––––––––––-
1 | 0:00.00 | 3:37.30 | 0 | 16304
2 | 3:37.30 | 4:10.05 | 16305 | 35059
3 | 7:47.35 | 4:23.70 | 35060 | 54854
4 | 12:11.30 | 6:18.55 | 54855 | 83259
5 | 18:30.10 | 4:58.10 | 83260 | 105619
6 | 23:28.20 | 6:53.65 | 105620 | 136659
7 | 30:22.10 | 3:12.20 | 136660 | 151079
8 | 33:34.30 | 3:05.50 | 151080 | 165004
9 | 36:40.05 | 3:47.45 | 165005 | 182074
10 | 40:27.50 | 3:05.10 | 182075 | 195959
11 | 43:32.60 | 4:56.25 | 195960 | 218184
12 | 48:29.10 | 5:22.72 | 218185 | 242406


Трек 1

Имя файла G:\ELO - Live in Stuttgart '86\01 - Twilight.wav

Длина предзазора 0:00:02.00

Пиковый уровень 97.4 %
Качество трека 100.0 %
CRC теста 1A5A4EA7
CRC копии 1A5A4EA7
Копирование… OK

Трек 2

Имя файла G:\ELO - Live in Stuttgart '86\02 - Evil Woman.wav

Пиковый уровень 100.0 %
Качество трека 99.9 %
CRC теста 61763A2A
CRC копии 61763A2A
Копирование… OK

Трек 3

Имя файла G:\ELO - Live in Stuttgart '86\03 - Livin' Thing.wav

Пиковый уровень 100.0 %
Качество трека 100.0 %
CRC теста 4A49DCED
CRC копии 4A49DCED
Копирование… OK

Трек 4

Имя файла G:\ELO - Live in Stuttgart '86\04 - 10538 Overture , Showdown , Sweet Talkin' Woman , Confusion.wav

Пиковый уровень 100.0 %
Качество трека 100.0 %
CRC теста 5EC081B9
CRC копии 5EC081B9
Копирование… OK

Трек 5

Имя файла G:\ELO - Live in Stuttgart '86\05 - Telephone Line.wav

Пиковый уровень 97.3 %
Качество трека 100.0 %
CRC теста 11D25FAA
CRC копии 11D25FAA
Копирование… OK

Трек 6

Имя файла G:\ELO - Live in Stuttgart '86\06 - Ma-Ma-Ma Belle , Do Ya , Rockaria.wav

Пиковый уровень 100.0 %
Качество трека 100.0 %
CRC теста BAAF8ECA
CRC копии BAAF8ECA
Копирование… OK

Трек 7

Имя файла G:\ELO - Live in Stuttgart '86\07 - Calling America.wav

Пиковый уровень 98.2 %
Качество трека 99.9 %
CRC теста 6CD472BE
CRC копии 6CD472BE
Копирование… OK

Трек 8

Имя файла G:\ELO - Live in Stuttgart '86\08 - Rock'n'Roll Is King.wav

Пиковый уровень 95.8 %
Качество трека 100.0 %
CRC теста 41382C9A
CRC копии 41382C9A
Копирование… OK

Трек 9

Имя файла G:\ELO - Live in Stuttgart '86\09 - Mr.Blue Sky.wav

Пиковый уровень 99.9 %
Качество трека 100.0 %
CRC теста 7961F8F8
CRC копии 7961F8F8
Копирование… OK

Трек 10

Имя файла G:\ELO - Live in Stuttgart '86\10 - Hold On Tight.wav

Пиковый уровень 85.5 %
Качество трека 100.0 %
CRC теста A6EA14BD
CRC копии A6EA14BD
Копирование… OK

Трек 11

Имя файла G:\ELO - Live in Stuttgart '86\11 - Don't Bring Me Down.wav

Пиковый уровень 100.0 %
Качество трека 99.9 %
CRC теста 6DF0A1B1
CRC копии 6DF0A1B1
Копирование… OK

Трек 12

Имя файла G:\ELO - Live in Stuttgart '86\12 - Roll Over Beethoven.wav

Пиковый уровень 100.0 %
Качество трека 100.0 %
CRC теста 90578836
CRC копии 90578836
Копирование… OK

Ошибок не произошло

Конец отчёта


[CUETools log; Date: 10.09.2020 13:31:42; Version: 2.1.4]
[AccurateRip ID: 00183528-00e1e19d-820ca00c] disk not present in database.

Track Peak [ CRC32 ] [W/O NULL] [ LOG ]
– 100,0 [A39C3311] [3A0F8E42]
01 97,4 [1A5A4EA7] [AB99E21F] CRC32
02 100,0 [61763A2A] [066878B9] CRC32
03 100,0 [4A49DCED] [A2E75904] CRC32
04 100,0 [5EC081B9] [341F90E4] CRC32
05 97,3 [11D25FAA] [9C1017C8] CRC32
06 100,0 [BAAF8ECA] [86DF785D] CRC32
07 98,2 [6CD472BE] [5133116C] CRC32
08 95,8 [41382C9A] [E3B5CB88] CRC32
09 99,9 [7961F8F8] [FC3CB722] CRC32
10 85,5 [A6EA14BD] [2BA0C743] CRC32
11 100,0 [6DF0A1B1] [ACFB21E6] CRC32
12 100,0 [90578836] [FB811B27] CRC32


Electric Light Orchestra - Live In Stuttgart (1986)

All thanks go to the original releaser

Electric Light Orchestra in my Blog

Download Electric Light Orchestra - Live In Stuttgart (1986):