Subcategories

Electric Light Orchestra (ELO) - The Classic Albums Collection (2011) [11CD Box Set] Re-up

Posted By: Andi_Deris
Electric Light Orchestra (ELO) - The Classic Albums Collection (2011) [11CD Box Set] Re-up

Electric Light Orchestra (ELO) - The Classic Albums Collection (2011) [11CD Box Set]
EAC Rip | FLAC: Image+Cue+Log | MP3 CBR 320 kbps | Scans
4.2 Gb | 1.6 Gb | 864 Mb | Total Time: 10:25:19
Sony Music Entertainment | 88697873262
Progressive Rock, Symphonic Rock, Art Rock

Electric Light Orchestra (ELO) were a British rock group from Birmingham, England, who released eleven studio albums between 1971 and 1986 and another album in 2001. ELO were formed to accommodate Roy Wood and Jeff Lynne's desire to create modern rock and pop songs with classical overtones. After Wood's departure following the band's debut record, Lynne wrote and arranged all of the group's original compositions and produced every album.

Electric Light Orchestra (ELO) - The Classic Albums Collection (2011) [11CD Box Set] Re-up




Electric Light Orchestra - The Classic Albums Collection by Legacy Recordings

England's Electric Light Orchestra, better known to its fans as ELO, went from cult status to arena-level superstardom in the 1970s, evolving from eclectic classically-influenced prog-rockers to state-of-the-art hitmakers. At the peak of their popularity, they were one of the world's biggest-selling recording acts, and also one of the most unusual. Combining rock instrumentation with a full string section, ELO couldn't help but stand out, both musically and visually.

Originally launched by Jeff Lynne, Bev Bevan and Roy Wood as a sideline to their legendary band the Move, ELO arrived in 1971 with their debut album No Answer. Wood departed soon after, but singer/songwriter/guitarist/producer Lynne continued to pilot ELO through a series of ambitious albums that blended the band's expansive symphonic-rock sound with songs that were both sonically adventurous and infectiously catchy. ELO was particularly successful in America, where the band scored a series of multi-platinum albums as well as 19 Top 20 singles.

ELO's recordings grew progressively more ambitious, with the playful experimentation of the group's early efforts evolving into the extended orchestral excursions of 1974's Eldorado and the rousing, concise songcraft of the dual commercial breakthroughs A New World Record and Out of the Blue.


Albums included:

No Answer
Electric Light Orchestra II
On the Third Day
Eldorado
Face the Music
A New World Record
Out of the Blue
Discovery
Time
Secret Messages
Balance of Power


•Each album features rare bonus tracks, including numerous alternate versions and unreleased tracks.
•Each album is packaged in a replica mini-LP-style sleeve reproducing that album's original cover art.

Electric Light Orchestra (ELO) - The Classic Albums Collection (2011) [11CD Box Set] Re-up


No Answer (The Electric Light Orchestra) (1971)
EAC Rip | FLAC: Image+Cue+Log | MP3 CBR 320 kbps | Scans
375 Mb | 162 Mb | Time: 59:34
Sony Music Entertainment | 88697873262-1

The Electric Light Orchestra is the debut studio album by English rock band Electric Light Orchestra (ELO), released in December 1971. In the US, the album was released in early 1972 as No Answer, after a misunderstood telephone message made by a United Artists Records executive asking about the album name. The caller, having failed to reach the ELO contact, wrote down "no answer" in their notes, and this was misconstrued to be the name of the album. ~ Wikipedia

Track Listing

01. 10538 Overture (5:30)
02. Look At Me Now (3:17)
03. Nellie Takes Her Bow (5:59)
04. The Battle Of Marston Moor (July 2nd 1644) (6:03)
05. First Movement (Jumping Biz) (3:00)
06. Mr. Radio (5:04)
07. Manhattan Rumble (49th Street Massacre) (4:22)
08. Queen Of The Hours (3:22)
09. Whisper In The Night (4:50)

BONUS TRACKS
10. The Battle Of Marston Moor (Take 1 / Alternate Mix) (1:00)
11. Nellie Takes Her Bow (Alternate Mix) (6:02)
12. Mr. Radio (Take 9) (5:19)
13. 10538 Overture (Take 1 / Alternate Mix) (5:46)

Produced by Jeff Lynne and Roy Wood

The Band

• Jeff Lynne - Vocals, Piano, Electric guitar, Percussion, Bass
• Roy Wood - Vocals, Cello, Acoustic guitar, Bass, String bass, Oboe, Bassoon, Clarinet, Recorders, Slide guitar, Percussion, Krumhorn
• Bev Bevan - Drums, Percussion
• Bill Hunt - French horn, Hunting horn
• Steve Woolam - Violin

Additional personnel:
• Rick Price - Bass guitar on some original tracks (erased and redubbed by Wood and Lynne respectively)
• Richard Tandy - Bass guitar, Keyboards
• Wilfred Gibson - Violin
• Hugh McDowell, Mike Edwards & Andy Craig - Cello

Exact Audio Copy V1.0 beta 3 from 29. August 2011

EAC extraction logfile from 25. December 2011, 21:23

ELO / No Answer

Used drive : HL-DT-STDVDRAM GSA-H60N Adapter: 2 ID: 0

Read mode : Secure
Utilize accurate stream : Yes
Defeat audio cache : Yes
Make use of C2 pointers : No

Read offset correction : 667
Overread into Lead-In and Lead-Out : No
Fill up missing offset samples with silence : Yes
Delete leading and trailing silent blocks : No
Null samples used in CRC calculations : Yes
Used interface : Native Win32 interface for Win NT & 2000

Used output format : Internal WAV Routines
Sample format : 44.100 Hz; 16 Bit; Stereo


TOC of the extracted CD

Track | Start | Length | Start sector | End sector
––––––––––––––––––––––––––––-
1 | 0:00.00 | 5:30.04 | 0 | 24753
2 | 5:30.04 | 3:17.16 | 24754 | 39544
3 | 8:47.20 | 5:59.17 | 39545 | 66486
4 | 14:46.37 | 6:03.40 | 66487 | 93751
5 | 20:50.02 | 3:00.46 | 93752 | 107297
6 | 23:50.48 | 5:04.37 | 107298 | 130134
7 | 28:55.10 | 4:22.33 | 130135 | 149817
8 | 33:17.43 | 3:22.63 | 149818 | 165030
9 | 36:40.31 | 4:50.63 | 165031 | 186843
10 | 41:31.19 | 1:00.06 | 186844 | 191349
11 | 42:31.25 | 6:02.11 | 191350 | 218510
12 | 48:33.36 | 5:19.08 | 218511 | 242443
13 | 53:52.44 | 5:46.04 | 242444 | 268397


Range status and errors

Selected range

Filename C:\Documents and Settings\Admin\2011 ELO - The Classic Albums Collection (11CD Box Set Sony Music)\1971 No Answer (The Electric Light Orchestra)\ELO - No Answer.wav

Peak level 98.8 %
Extraction speed 6.1 X
Range quality 99.9 %
Test CRC DB6373C9
Copy CRC DB6373C9
Copy OK

No errors occurred


AccurateRip summary

Track 1 cannot be verified as accurate (confidence 27) [AE373027], AccurateRip returned [E38149FF] (AR v2)
Track 2 cannot be verified as accurate (confidence 28) [DF6F3397], AccurateRip returned [EAD8E157] (AR v2)
Track 3 cannot be verified as accurate (confidence 28) [463090CD], AccurateRip returned [0BDBF072] (AR v2)
Track 4 cannot be verified as accurate (confidence 28) [55AB0678], AccurateRip returned [BAC5EBA5] (AR v2)
Track 5 cannot be verified as accurate (confidence 28) [097BF75C], AccurateRip returned [6B6E6D03] (AR v2)
Track 6 cannot be verified as accurate (confidence 28) [9E57FCB4], AccurateRip returned [CD8939BD] (AR v2)
Track 7 cannot be verified as accurate (confidence 28) [2AECE7EE], AccurateRip returned [8682F629] (AR v2)
Track 8 cannot be verified as accurate (confidence 28) [37B143DC], AccurateRip returned [A0AFC103] (AR v2)
Track 9 cannot be verified as accurate (confidence 28) [3F34FC4D], AccurateRip returned [18A26C7D] (AR v2)
Track 10 cannot be verified as accurate (confidence 27) [534FA754], AccurateRip returned [DD279824] (AR v2)
Track 11 cannot be verified as accurate (confidence 27) [A569C4AB], AccurateRip returned [01FDC926] (AR v2)
Track 12 cannot be verified as accurate (confidence 27) [88709340], AccurateRip returned [9356D45E] (AR v2)
Track 13 cannot be verified as accurate (confidence 26) [82E037A2], AccurateRip returned [677F6F0B] (AR v2)

No tracks could be verified as accurate
You may have a different pressing from the one(s) in the database

End of status report

==== Log checksum E919A775FBC191466F3D2D0AF9D4D751F045EB3D9E6EFE60C9A44B67DDED626A ====


Electric Light Orchestra (ELO) - The Classic Albums Collection (2011) [11CD Box Set] Re-up


ELO II (1973)
EAC Rip | FLAC: Image+Cue+Log | MP3 CBR 320 kbps | Scans
436 Mb | 170 Mb | Time: 01:02:11
Sony Music Entertainment | 88697873262-2

ELO 2 is the second album by Electric Light Orchestra (ELO), released in 1973. In the US the album was released as Electric Light Orchestra II and is sometimes known as ELO II.

Originally to be titled The Lost Planet, but that concept was quietly dropped, it was during the initial recording sessions for this album that Roy Wood left the band and formed Wizzard in early 1972. Although uncredited at the time Wood performed on two tracks, playing cello and bass on "In Old England Town" and "From the Sun to the World". Classically trained cellists Colin Walker and Mike Edwards replaced Wood, and Wilfred Gibson played on violin. Richard Tandy made his ELO studio debut, playing keyboards on the album although he had earlier performed live with the original lineup playing bass. Bassist and Vocalist Mike de Albuquerque also made his ELO studio debut on the album. All five pieces are longer than standard rock songs, and feature multi-layered orchestral instruments that create a dense, complex sound. ~ Wikipedia

Track Listing

01. In Old England Town (Boogie No.2) (6:57)
02. Mama… (6:59)
03. Roll Over Beethoven (7:04)
04. From The Sun To The World (Boogie No.1) (8:17)
05. Kuiama (11:17)

BONUS TRACKS
06. In Old England Town (Instrumental) (2:43)
07. Baby I Apologise (Session Outtake) (3:43)
08. In Old England Town (Take 1 / Alternate Mix) (6:56)
09. Roll Over Beethoven (Take 1 / Alternate Mix) (8:15)

Produced by Jeff Lynne

The Band

• Jeff Lynne - Vocals, Guitar, Moog Synthesizer
• Bev Bevan - Drums, Percussion
• Richard Tandy - Keyboards, Moog Synthesizer, Guitar, Harmonium
• Mike de Albuquerque - Bass, Backing vocals
• Wilfred Gibson - Violin
• Mike Edwards - Cello
• Colin Walker - Cello

Additional personnel:
Marc Bolan - Guitar on ELO 2 tracks 10–12
• Roy Wood - Bass, Cello on ELO 2 tracks 1 and 4
• Carl Wayne - Lead Vocals on The Lost Planet tracks 6–8

Exact Audio Copy V1.0 beta 3 from 29. August 2011

EAC extraction logfile from 25. December 2011, 20:39

ELO / ELO II

Used drive : HL-DT-STDVDRAM GSA-H60N Adapter: 2 ID: 0

Read mode : Secure
Utilize accurate stream : Yes
Defeat audio cache : Yes
Make use of C2 pointers : No

Read offset correction : 667
Overread into Lead-In and Lead-Out : No
Fill up missing offset samples with silence : Yes
Delete leading and trailing silent blocks : No
Null samples used in CRC calculations : Yes
Used interface : Native Win32 interface for Win NT & 2000

Used output format : Internal WAV Routines
Sample format : 44.100 Hz; 16 Bit; Stereo


TOC of the extracted CD

Track | Start | Length | Start sector | End sector
––––––––––––––––––––––––––––-
1 | 0:00.00 | 6:57.49 | 0 | 31323
2 | 6:57.49 | 6:59.32 | 31324 | 62780
3 | 13:57.06 | 7:04.27 | 62781 | 94607
4 | 21:01.33 | 8:17.51 | 94608 | 131933
5 | 29:19.09 | 11:17.45 | 131934 | 182753
6 | 40:36.54 | 2:43.46 | 182754 | 195024
7 | 43:20.25 | 3:43.56 | 195025 | 211805
8 | 47:04.06 | 6:56.01 | 211806 | 243006
9 | 54:00.07 | 8:15.40 | 243007 | 280171


Range status and errors

Selected range

Filename C:\Documents and Settings\Admin\2011 ELO - The Classic Albums Collection (11CD Box Set Sony Music)\1973 ELO II\ELO - ELO II.wav

Peak level 100.0 %
Extraction speed 6.0 X
Range quality 100.0 %
Test CRC A568FF35
Copy CRC A568FF35
Copy OK

No errors occurred


AccurateRip summary

Track 1 cannot be verified as accurate (confidence 31) [31F86A33], AccurateRip returned [B8178BEE] (AR v2)
Track 2 cannot be verified as accurate (confidence 32) [3AAB77B6], AccurateRip returned [6A5F818F] (AR v2)
Track 3 cannot be verified as accurate (confidence 32) [AC2C0F3F], AccurateRip returned [ADE85ACE] (AR v2)
Track 4 cannot be verified as accurate (confidence 32) [CAAC2C87], AccurateRip returned [7DCFE717] (AR v2)
Track 5 cannot be verified as accurate (confidence 32) [50E5DE6D], AccurateRip returned [3298E977] (AR v2)
Track 6 cannot be verified as accurate (confidence 31) [754D3154], AccurateRip returned [F74AF2DD] (AR v2)
Track 7 cannot be verified as accurate (confidence 31) [14CF229B], AccurateRip returned [EBF525C0] (AR v2)
Track 8 cannot be verified as accurate (confidence 31) [40499DFE], AccurateRip returned [31616916] (AR v2)
Track 9 cannot be verified as accurate (confidence 30) [269C9849], AccurateRip returned [1BC0B9B4] (AR v2)

No tracks could be verified as accurate
You may have a different pressing from the one(s) in the database

End of status report

==== Log checksum 075207CD705BB34DF6461DA5AD7A691F0D59333ECA5F2B3CDC6BB9A573F940EE ====


Electric Light Orchestra (ELO) - The Classic Albums Collection (2011) [11CD Box Set] Re-up


On The Third Day (1973)
EAC Rip | FLAC: Image+Cue+Log | MP3 CBR 320 kbps | Scans
385 Mb | 158 Mb | Time: 57:30
Sony Music Entertainment | 88697873262-3

On the Third Day is the third studio album by Electric Light Orchestra (ELO) and the first to be recorded without any input from Roy Wood.

Of all other ELO albums, except for ELO 2, this might be considered closest in style to progressive rock, with some elaborate band arrangements and complicated musical segués between tracks. The Mini Moog synthesizer can be heard prominently on several tracks, particularly as lead instrument on the instrumental "Daybreaker". It was to be the last ELO album where Jeff Lynne attempted to re-create an orchestral sound in the studio by multi-tracking the cellos and solo violin of the band members - for the next album, a real orchestra would be hired. Marc Bolan played guitar on "Ma-Ma-Ma Belle" and "Dreaming of 4000", both originally uncredited, as well as on "Everyone's Born to Die", which was not released at the time but appears as a bonus track on the 2006 remaster.

"Ocean Breakup/King of the Universe" contains a sequence of morse code signaling ELO, something Lynne would also do 10 years later on "Secret Messages". "Bluebird Is Dead" features a guitar solo played backwards. The working titles for "In the Hall of the Mountain King" was "In the Hole of the Mounted Parrot", "Daybreaker" was "Theme from Glass Table" and "Dreaming of 4000" was "I'm Only Dreaming" and "Mambo". Ted Blight (an ELO sound engineer) plays cello on this album. ~ Wikipedia

Track Listing

01. Ocean Breakup/King Of The Universe (4:07)
02. Bluebird Is Dead (4:42)
03. Oh No Not Susan (3:07)
04. New World Rising/Ocean Breakup Reprise (4:05)
05. Showdown (4:09)
06. Daybreaker (3:51)
07. Ma-Ma-Ma Belle (3:56)
08. Dreaming Of 4000 (5:04)
09. In The Hall Of The Mountain King (6:37)

BONUS TRACKS
10. Auntie ('Ma-Ma-Ma Belle' Take 1) (1:19)
11. Auntie ('Ma-Ma-Ma Belle' Take 2) (4:05)
12. Mambo ('Dreaming Of 4000' Alternate Mix) (5:05)
13. Everyone's Born To Die (3:43)
14. Interludes (Previously Unreleased) (3:40)

Produced by Jeff Lynne

The Band

• Jeff Lynne - Vocals, Guitars
• Bev Bevan - Drums, Percussion
• Richard Tandy - Piano, Moog, Clavinet, Guitar, Backing Vocals
• Mike de Albuquerque - Bass, Backing Vocals
• Wilf Gibson - Violin on tracks 5–14
• Colin Walker - Cello on tracks 5–14
• Mike Edwards - Cello
• Mik Kaminski - Violin on tracks 1–4

Additional personnel:
Marc Bolan - Guitar on tracks 8, 10–13 (maybe 7 unconfirmed)

Exact Audio Copy V1.0 beta 3 from 29. August 2011

EAC extraction logfile from 25. December 2011, 19:47

ELO / On The Third Day

Used drive : HL-DT-STDVDRAM GSA-H60N Adapter: 2 ID: 0

Read mode : Secure
Utilize accurate stream : Yes
Defeat audio cache : Yes
Make use of C2 pointers : No

Read offset correction : 667
Overread into Lead-In and Lead-Out : No
Fill up missing offset samples with silence : Yes
Delete leading and trailing silent blocks : No
Null samples used in CRC calculations : Yes
Used interface : Native Win32 interface for Win NT & 2000

Used output format : Internal WAV Routines
Sample format : 44.100 Hz; 16 Bit; Stereo


TOC of the extracted CD

Track | Start | Length | Start sector | End sector
––––––––––––––––––––––––––––-
1 | 0:00.00 | 4:07.05 | 0 | 18529
2 | 4:07.05 | 4:42.58 | 18530 | 39737
3 | 8:49.63 | 3:07.15 | 39738 | 53777
4 | 11:57.03 | 4:05.05 | 53778 | 72157
5 | 16:02.08 | 4:09.17 | 72158 | 90849
6 | 20:11.25 | 3:51.26 | 90850 | 108200
7 | 24:02.51 | 3:56.47 | 108201 | 125947
8 | 27:59.23 | 5:04.27 | 125948 | 148774
9 | 33:03.50 | 6:37.51 | 148775 | 178600
10 | 39:41.26 | 1:19.15 | 178601 | 184540
11 | 41:00.41 | 4:05.08 | 184541 | 202923
12 | 45:05.49 | 5:05.12 | 202924 | 225810
13 | 50:10.61 | 3:43.30 | 225811 | 242565
14 | 53:54.16 | 3:40.43 | 242566 | 259108


Range status and errors

Selected range

Filename C:\Documents and Settings\Admin\2011 ELO - The Classic Albums Collection (11CD Box Set Sony Music)\1973 On The Third Day\ELO - On The Third Day.wav

Peak level 99.9 %
Extraction speed 6.1 X
Range quality 99.9 %
Test CRC 9FD10955
Copy CRC 9FD10955
Copy OK

No errors occurred


AccurateRip summary

Track 1 cannot be verified as accurate (confidence 36) [7B6C3405], AccurateRip returned [D865D183] (AR v2)
Track 2 cannot be verified as accurate (confidence 36) [AE858915], AccurateRip returned [758B675C] (AR v2)
Track 3 cannot be verified as accurate (confidence 37) [6B47560A], AccurateRip returned [4CAB9181] (AR v2)
Track 4 cannot be verified as accurate (confidence 37) [D2CAA7A0], AccurateRip returned [C8DDD04E] (AR v2)
Track 5 cannot be verified as accurate (confidence 38) [33CC1EE9], AccurateRip returned [172FBC50] (AR v2)
Track 6 cannot be verified as accurate (confidence 37) [C879B8E2], AccurateRip returned [924A1FA4] (AR v2)
Track 7 cannot be verified as accurate (confidence 37) [47FDE525], AccurateRip returned [602E9717] (AR v2)
Track 8 cannot be verified as accurate (confidence 38) [D99428FF], AccurateRip returned [F1023D5F] (AR v2)
Track 9 cannot be verified as accurate (confidence 38) [FE245DD1], AccurateRip returned [FAC7B98C] (AR v2)
Track 10 cannot be verified as accurate (confidence 37) [E7F9D0C1], AccurateRip returned [249D8A9F] (AR v2)
Track 11 cannot be verified as accurate (confidence 37) [C13A6549], AccurateRip returned [FAF67214] (AR v2)
Track 12 cannot be verified as accurate (confidence 36) [C02CAD52], AccurateRip returned [3470CFC3] (AR v2)
Track 13 cannot be verified as accurate (confidence 37) [D09B6922], AccurateRip returned [963CBD3D] (AR v2)
Track 14 cannot be verified as accurate (confidence 37) [027BDAEC], AccurateRip returned [CEEED989] (AR v2)

No tracks could be verified as accurate
You may have a different pressing from the one(s) in the database

End of status report

==== Log checksum 18A4B5F5A3E69AF8882519D746FC051B380F65E85FF4386C0D8E7E8FA076A41B ====


Electric Light Orchestra (ELO) - The Classic Albums Collection (2011) [11CD Box Set] Re-up


Eldorado - A Symphony By The Electric Light Orchestra (1974)
EAC Rip | FLAC: Image+Cue+Log | MP3 CBR 320 kbps | Scans
326 Mb | 121 Mb | Time: 47:53
Sony Music Entertainment | 88697873262-2

Eldorado (sometimes known as Eldorado - A Symphony by the Electric Light Orchestra) is the fourth studio album by the Electric Light Orchestra (ELO), released in 1974.

Eldorado marks the first album on which Jeff Lynne hired an orchestra; on previous albums, Lynne would overdub the strings. Louis Clark co-arranged and conducted the strings, and would go on to become a full member. The group's three resident string players continued to perform on recordings, however, and can be heard most prominently on the songs "Boy Blue" and "Laredo Tornado". Mike de Albuquerque departed early on in the recording process, as touring made him feel separated from his family. Lynne plays the bass and provides most of the backing vocals for the album, even though de Albuquerque received credit. Kelly Groucutt replaced de Albuquerque for the subsequent tour, when cellist Melvyn Gale also joined. "Eldorado Finale" is heavily orchestrated much like "Eldorado Overture". Jeff Lynne said of the song, "I like the heavy chords and the slightly daft ending, where you hear the double bass players packing up their basses, because they wouldn't play another millisecond past the allotted moment."

Concept

Eldorado is the first complete ELO concept album; vocalist Jeff Lynne conceived the storyline before he wrote any music. The plot follows a Walter Mitty-like character who journeys into fantasy worlds via dreams, to escape the disillusionment of his mundane reality. Lynne began to write the album in response to criticisms from his father, a classical music lover, who said that Electric Light Orchestra's repertoire "had no tune". ~ Wikipedia

Track Listing

01. Eldorado Overture (2:12)
02. Can't Get It Out Of My Head (4:21)
03. Boy Blue (5:19)
04. Laredo Tornado (5:29)
05. Poor Boy (The Greenwood) (2:57)
06. Mister Kingdom (5:29)
07. Nobody's Child (3:56)
08. Illusions In G Major (2:37)
09. Eldorado (5:17)
10. Eldorado Finale (1:34)

BONUS TRACKS
11. Eldorado Instrumental Medley (Previously Unreleased) (7:56)
12. Dark City (Previously Unreleased) (0:46)

Produced by Jeff Lynne

The Band

• Jeff Lynne - Lead & backing vocals, Electric, Acoustic, & Bass guitars, Keyboards, Orchestra and Choral arrangements
• Bev Bevan - Drums, Percussion
• Richard Tandy - Piano, Moog synthesiser, Guitar, Backing vocals, Orchestra and Choral arrangements
• Mike de Albuquerque - Bass guitar, Backing vocals
• Mik Kaminski - Violin
• Hugh McDowell & Mike Edwards - Cello

Additional personnel:
• Louis Clark - arrangements, orchestra conductor
• Prologue spoken by Peter Forbes-Robertson

Exact Audio Copy V1.0 beta 3 from 29. August 2011

EAC extraction logfile from 25. December 2011, 13:22

ELO / Eldorado

Used drive : HL-DT-STDVDRAM GSA-H60N Adapter: 2 ID: 0

Read mode : Secure
Utilize accurate stream : Yes
Defeat audio cache : Yes
Make use of C2 pointers : No

Read offset correction : 667
Overread into Lead-In and Lead-Out : No
Fill up missing offset samples with silence : Yes
Delete leading and trailing silent blocks : No
Null samples used in CRC calculations : Yes
Used interface : Native Win32 interface for Win NT & 2000

Used output format : Internal WAV Routines
Sample format : 44.100 Hz; 16 Bit; Stereo


TOC of the extracted CD

Track | Start | Length | Start sector | End sector
––––––––––––––––––––––––––––-
1 | 0:00.00 | 2:12.12 | 0 | 9911
2 | 2:12.12 | 4:21.63 | 9912 | 29549
3 | 6:34.00 | 5:19.00 | 29550 | 53474
4 | 11:53.00 | 5:29.57 | 53475 | 78206
5 | 17:22.57 | 2:57.55 | 78207 | 91536
6 | 20:20.37 | 5:29.48 | 91537 | 116259
7 | 25:50.10 | 3:56.42 | 116260 | 134001
8 | 29:46.52 | 2:37.28 | 134002 | 145804
9 | 32:24.05 | 5:17.62 | 145805 | 169641
10 | 37:41.67 | 1:34.50 | 169642 | 176741
11 | 39:16.42 | 7:56.48 | 176742 | 212489
12 | 47:13.15 | 0:46.35 | 212490 | 215974


Range status and errors

Selected range

Filename C:\Documents and Settings\Admin\2011 ELO - The Classic Albums Collection (11CD Box Set Sony Music)\1974 Eldorado\ELO - Eldorado.wav

Peak level 100.0 %
Extraction speed 4.9 X
Range quality 100.0 %
Test CRC 0491C211
Copy CRC 0491C211
Copy OK

No errors occurred


AccurateRip summary

Track 1 accurately ripped (confidence 5) [BDA23102] (AR v1)
Track 2 accurately ripped (confidence 6) [08DBE74B] (AR v1)
Track 3 accurately ripped (confidence 5) [5D888577] (AR v1)
Track 4 accurately ripped (confidence 6) [848BE4A7] (AR v1)
Track 5 accurately ripped (confidence 5) [EB4FF932] (AR v1)
Track 6 accurately ripped (confidence 5) [D096DFB9] (AR v1)
Track 7 accurately ripped (confidence 5) [DD328D9F] (AR v1)
Track 8 accurately ripped (confidence 5) [E5667773] (AR v1)
Track 9 accurately ripped (confidence 6) [02446157] (AR v1)
Track 10 accurately ripped (confidence 5) [DEF7B508] (AR v1)
Track 11 accurately ripped (confidence 5) [201F636D] (AR v1)
Track 12 accurately ripped (confidence 5) [D21F38EA] (AR v1)

All tracks accurately ripped

End of status report

==== Log checksum 09A997020FD899E4DAC515863F731E709BE78449276D4F8018C3B3450326CFC2 ====


Electric Light Orchestra (ELO) - The Classic Albums Collection (2011) [11CD Box Set] Re-up


Face The Music (1975)
EAC Rip | FLAC: Image+Cue+Log | MP3 CBR 320 kbps | Scans
348 Mb | 132 Mb | Time: 52:28
Sony Music Entertainment | 88697873262-5

Face the Music is the fifth studio album by Electric Light Orchestra (ELO), and features a new line-up following their previous studio album, Eldorado.

ELO's fifth studio LP was released in 1975 and the first to be recorded in Musicland Studios Munich, which was introduced by Deep Purple in a tour in the United States. The band featured a new line-up with bassist Kelly Groucutt and cellist Melvyn Gale replacing Mike de Albuquerque and Mike Edwards respectively.

The back cover of the record sleeve shows the members of the band with their faces pressed against a glass panel, supposedly watching the "electrocution" depicted on the front cover. The band member who is looking away is Richard Tandy, who didn't like the idea and didn't want to participate. New member Kelly Groucutt sang lead vocals on "Poker" and "Down Home Town" (while Jeff Lynne sang harmony) as well as one of the verses in "Nightrider." (Usually, Lynne sang all lead vocals for ELO.) ~ Wikipedia

Track Listing

01. Fire On High (5:31)
02. Waterfall (4:11)
03. Evil Woman (4:29)
04. Nightrider (4:26)
05. Poker (3:32)
06. Strange Magic (4:29)
07. Down Home Town (3:54)
08. One Summer Dream (5:51)

BONUS TRACKS
09. Fire On High Intro (Early Alternate Mix) (3:23)
10. Evil Woman (Stripped Down Mix) (5:00)
11. Strange Magic (U.S. Single Edit) (3:27)
12. Waterfall (Instrumental Mix) (4:15)

Produced by Jeff Lynne

The Band

• Jeff Lynne - Vocals, Guitar, String arranger
• Bev Bevan - Drums, Percussion, Spoken intro (backwards), Vocals
• Richard Tandy - Piano, Clavinet, Moog, Guitar, String arranger
• Kelly Groucutt - Bass, Vocals
• Mik Kaminski - Violin
• Hugh McDowell & Melvyn Gale - cello

Additional personnel:
• Louis Clark - string arranger
• Ellie Greenwich, Susan Collins, Nancy O'Neill & Margaret Raymond - uncredited vocals

Exact Audio Copy V1.0 beta 3 from 29. August 2011

EAC extraction logfile from 25. December 2011, 12:45

ELO / Face The Music

Used drive : HL-DT-STDVDRAM GSA-H60N Adapter: 2 ID: 0

Read mode : Secure
Utilize accurate stream : Yes
Defeat audio cache : Yes
Make use of C2 pointers : No

Read offset correction : 667
Overread into Lead-In and Lead-Out : No
Fill up missing offset samples with silence : Yes
Delete leading and trailing silent blocks : No
Null samples used in CRC calculations : Yes
Used interface : Native Win32 interface for Win NT & 2000

Used output format : Internal WAV Routines
Sample format : 44.100 Hz; 16 Bit; Stereo


TOC of the extracted CD

Track | Start | Length | Start sector | End sector
––––––––––––––––––––––––––––-
1 | 0:00.00 | 5:31.43 | 0 | 24867
2 | 5:31.43 | 4:11.57 | 24868 | 43749
3 | 9:43.25 | 4:29.63 | 43750 | 63987
4 | 14:13.13 | 4:26.12 | 63988 | 83949
5 | 18:39.25 | 3:32.36 | 83950 | 99885
6 | 22:11.61 | 4:29.47 | 99886 | 120107
7 | 26:41.33 | 3:54.64 | 120108 | 137721
8 | 30:36.22 | 5:51.01 | 137722 | 164047
9 | 36:27.23 | 3:23.23 | 164048 | 179295
10 | 39:50.46 | 5:00.13 | 179296 | 201808
11 | 44:50.59 | 3:27.63 | 201809 | 217396
12 | 48:18.47 | 4:15.12 | 217397 | 236533


Range status and errors

Selected range

Filename C:\Documents and Settings\Admin\2011 ELO - The Classic Albums Collection (11CD Box Set Sony Music)\1975 Face The Music\ELO - Face The Music.wav

Peak level 100.0 %
Extraction speed 6.1 X
Range quality 100.0 %
Test CRC EE9BF79C
Copy CRC EE9BF79C
Copy OK

No errors occurred


AccurateRip summary

Track 1 cannot be verified as accurate (confidence 49) [06EFC438], AccurateRip returned [647DAF05] (AR v2)
Track 2 cannot be verified as accurate (confidence 46) [A8D105DC], AccurateRip returned [B75EE546] (AR v2)
Track 3 cannot be verified as accurate (confidence 49) [29D8D75E], AccurateRip returned [31E4E625] (AR v2)
Track 4 cannot be verified as accurate (confidence 47) [134BC9F2], AccurateRip returned [A1306E58] (AR v2)
Track 5 cannot be verified as accurate (confidence 46) [871E6CA4], AccurateRip returned [ACE29DB7] (AR v2)
Track 6 cannot be verified as accurate (confidence 48) [5CA86095], AccurateRip returned [74603FCE] (AR v2)
Track 7 cannot be verified as accurate (confidence 47) [14181F99], AccurateRip returned [40EEF6F1] (AR v2)
Track 8 cannot be verified as accurate (confidence 47) [18207C46], AccurateRip returned [356F59E2] (AR v2)
Track 9 cannot be verified as accurate (confidence 47) [440F0715], AccurateRip returned [AFC1DA3A] (AR v2)
Track 10 cannot be verified as accurate (confidence 48) [CAE65F0B], AccurateRip returned [D34F887D] (AR v2)
Track 11 cannot be verified as accurate (confidence 47) [42427D7D], AccurateRip returned [5C49AFC4] (AR v2)
Track 12 cannot be verified as accurate (confidence 47) [8D9EE5FE], AccurateRip returned [971C3775] (AR v2)

No tracks could be verified as accurate
You may have a different pressing from the one(s) in the database

End of status report

==== Log checksum 3C3639CBAEDE4B62C03BCDDCE13BD4EDB0A174BE490542A60AA76BED54DCC185 ====


Fury In The Slaughterhouse - 30: The Ultimate Best of Collection (2017)


A New World Record (1976)
EAC Rip | FLAC: Image+Cue+Log | MP3 CBR 320 kbps | Scans
399 Mb | 147 Mb | Time: 59:06
Sony Music Entertainment | 88697873262-6

A New World Record is the sixth studio album by Electric Light Orchestra (ELO), released in 1976.

Their second album to be recorded at Musicland Studios in Munich, the LP proved to be the band's long awaited breakthrough in the UK: after seeing their previous three studio recordings fail to chart in their home market, A New World Record became their first top ten album in the UK. It became a huge global success and would consolidate the band's position as one of the biggest selling rock bands in the world, reaching multi-platinum status in the US and UK, The album sold five million units worldwide within its first year of release. The cover art features the famous ELO logo, designed by Kosh, for the first time. This logo would be included on most of the group's subsequent releases.

The album included the hit singles "Telephone Line", which became the band's first gold US single, "Livin' Thing", and "Do Ya" (US); and "Rockaria!" (UK). "Do Ya" was an ELO updating of The Move's late 1972 final US single on United Artists Records. The focus is more on shorter pop songs, a trend which would continue throughout the rest of ELO's future albums. In 1977, many of the album's songs were featured on the "Joyride" soundtrack. In 2006, the album was remastered and released with bonus tracks on Sony's Epic/Legacy imprint. "Surrender" was also issued as a promotional single and an iTunes download single, which entered the top 100 download chart. ~ Wikipedia

Track Listing

01. Tightrope (5:06)
02. Telephone Line (4:40)
03. Rockaria! (3:12)
04. Mission (A World Record) (4:25)
05. So Fine (3:55)
06. Livin' Thing (3:32)
07. Above The Clouds (2:17)
08. Do Ya (3:45)
09. Shangri-La (5:40)

BONUS TRACKS
10. Telephone Line (Different Vocal) (4:41)
11. Surrender (2:37)
12. Tightrope (Instrumental Early Rough Mix) (4:55)
13. Above The Clouds (Instrumental Rough Mix) (1:14)
14. So Fine (Instrumental Early Rough Mix) (4:16)
15. Telephone Line (Instrumental) (4:51)

Produced by Jeff Lynne

The Band

• Jeff Lynne - Vocals, Lead, Rhythm and Slide guitars, Percussion, Piano
• Bev Bevan - Drums, Minimoog drum, Percussion, Vocals
• Richard Tandy - Piano, Minimoog, Micromoog, Polyphonic keyboard, Electric guitars, Clavinet, Grand piano, Mellotron, Percussion, Vocals
• Kelly Groucutt - Vocals, Bass guitar, Percussion, Backing vocals
• Mik Kaminski - Violin
• Hugh McDowell & Melvyn Gale - Cello

Additional personnel:
• Mary Thomas - operatic vocals
• Patti Quatro, Brie Brandt & Addie Lee - uncredited vocals
• Orchestra and choral arrangements - Jeff Lynne, Richard Tandy, Louis Clark

Exact Audio Copy V1.0 beta 3 from 29. August 2011

EAC extraction logfile from 25. December 2011, 11:33

ELO / A New World Record

Used drive : HL-DT-STDVDRAM GSA-H60N Adapter: 2 ID: 0

Read mode : Secure
Utilize accurate stream : Yes
Defeat audio cache : Yes
Make use of C2 pointers : No

Read offset correction : 667
Overread into Lead-In and Lead-Out : No
Fill up missing offset samples with silence : Yes
Delete leading and trailing silent blocks : No
Null samples used in CRC calculations : Yes
Used interface : Native Win32 interface for Win NT & 2000

Used output format : Internal WAV Routines
Sample format : 44.100 Hz; 16 Bit; Stereo


TOC of the extracted CD

Track | Start | Length | Start sector | End sector
––––––––––––––––––––––––––––-
1 | 0:00.00 | 5:06.06 | 0 | 22955
2 | 5:06.06 | 4:40.27 | 22956 | 43982
3 | 9:46.33 | 3:12.63 | 43983 | 58445
4 | 12:59.21 | 4:25.56 | 58446 | 78376
5 | 17:25.02 | 3:55.34 | 78377 | 96035
6 | 21:20.36 | 3:32.23 | 96036 | 111958
7 | 24:52.59 | 2:17.07 | 111959 | 122240
8 | 27:09.66 | 3:45.08 | 122241 | 139123
9 | 30:54.74 | 5:40.09 | 139124 | 164632
10 | 36:35.08 | 4:41.34 | 164633 | 185741
11 | 41:16.42 | 2:37.36 | 185742 | 197552
12 | 43:54.03 | 4:55.40 | 197553 | 219717
13 | 48:49.43 | 1:14.57 | 219718 | 225324
14 | 50:04.25 | 4:16.28 | 225325 | 244552
15 | 54:20.53 | 4:51.30 | 244553 | 266407


Range status and errors

Selected range

Filename C:\Documents and Settings\Admin\2011 ELO - The Classic Albums Collection (11CD Box Set Sony Music)\1976 A New World Record\ELO - A New World Record.wav

Peak level 100.0 %
Extraction speed 6.1 X
Range quality 99.9 %
Test CRC 2ECD5756
Copy CRC 2ECD5756
Copy OK

No errors occurred


AccurateRip summary

Track 1 cannot be verified as accurate (confidence 65) [FF593569], AccurateRip returned [E76FD2AB] (AR v2)
Track 2 cannot be verified as accurate (confidence 66) [91B7F2AD], AccurateRip returned [97B30786] (AR v2)
Track 3 cannot be verified as accurate (confidence 65) [83DF98AB], AccurateRip returned [7844C5ED] (AR v2)
Track 4 cannot be verified as accurate (confidence 63) [B312665A], AccurateRip returned [54A4B2E9] (AR v2)
Track 5 cannot be verified as accurate (confidence 64) [68F35190], AccurateRip returned [A7CBEA23] (AR v2)
Track 6 cannot be verified as accurate (confidence 64) [14F44038], AccurateRip returned [6B06FED5] (AR v2)
Track 7 cannot be verified as accurate (confidence 63) [02E868B6], AccurateRip returned [239C772E] (AR v2)
Track 8 cannot be verified as accurate (confidence 65) [EC6214E5], AccurateRip returned [E75FC03F] (AR v2)
Track 9 cannot be verified as accurate (confidence 63) [A577EF54], AccurateRip returned [6AD05653] (AR v2)
Track 10 cannot be verified as accurate (confidence 61) [DC3D4440], AccurateRip returned [768CD3D3] (AR v2)
Track 11 cannot be verified as accurate (confidence 62) [5C77F454], AccurateRip returned [DEC0016D] (AR v2)
Track 12 cannot be verified as accurate (confidence 60) [CEA471C8], AccurateRip returned [DE08B7AC] (AR v2)
Track 13 cannot be verified as accurate (confidence 60) [BF5C18CC], AccurateRip returned [A48143CD] (AR v2)
Track 14 cannot be verified as accurate (confidence 60) [CCB06905], AccurateRip returned [F8E226CD] (AR v2)
Track 15 cannot be verified as accurate (confidence 56) [6535318F], AccurateRip returned [59447D2B] (AR v2)

No tracks could be verified as accurate
You may have a different pressing from the one(s) in the database

End of status report

==== Log checksum A456AE93A7DB10C5702A74823BC949A168B4956FA61EF630374EAD1B6CC7036D ====


Fury In The Slaughterhouse - 30: The Ultimate Best of Collection (2017)


Out Of The Blue (1977)
EAC Rip | FLAC: Image+Cue+Log | MP3 CBR 320 kbps | Scans
521 Mb | 199 Mb | Time: 01:16:20
Sony Music Entertainment | 88697873262-7

Out of the Blue is the seventh studio album by the British rock group Electric Light Orchestra (ELO), released in October 1977. Written and produced by ELO frontman Jeff Lynne, the double album is among the most commercially successful records in the group's history.

Jeff Lynne wrote the entire album in three and a half weeks after a sudden burst of creativity while hidden away in his rented chalet in the Swiss Alps. It took a further two months to record in Munich. Side three of the original double LP consisted of the symphonic Concerto for a Rainy Day, composed of four separate tracks which together made up a cohesive suite, instead of one continuous track. The inclement weather effects heard on "Concerto" were real and recorded by Lynne during a very rainy summer in Munich 1977. The Concerto suite would be Lynne's last dabbling in symphonic rock. ~ Wikipedia

Track Listing

01. Turn To Stone (3:49)
02. It's Over (4:08)
03. Sweet Talkin' Woman (3:49)
04. Across The Border (3:53)
05. Night In The City (4:04)
06. Starlight (4:31)
07. Jungle (3:53)
08. Believe Me Now (1:21)
09. Steppin' Out (4:40)
10. Standin' In The Rain (3:59)
11. Big Wheels (5:32)
12. Summer And Lightning (4:15)
13. Mr. Blue Sky (5:03)
14. Sweet Is The Night (3:28)
15. The Whale (5:07)
16. Birmingham Blues (4:23)
17. Wild West Hero (4:45)

BONUS TRACKS
18. Wild West Hero (Previously Unreleased Alternate Bridge / Home Demo) (0:26)
19. The Quick And The Daft (Previously Unreleased) (1:50)
20. Latitude 88 North (Previously Unreleased) (3:24)

Produced by Jeff Lynne

The Band

• Jeff Lynne - Lead and Backing vocals, Guitar, Keyboards, Percussion
• Bev Bevan - Drums, Percussion, Backing vocals, Fire extinguisher on "Mr. Blue Sky"
• Richard Tandy - Keyboards, Guitar
• Kelly Groucutt - Co-lead vocals on "Sweet Is the Night", Backing vocals, Bass guitar, Percussion
• Mik Kaminski - Violin
• Melvyn Gale - Cello, Piano
• Hugh McDowell - Cello

Additional personnel:
• Louis Clark - Orchestral and choral arrangements, orchestra conductor

Notes

Billy Altman in a January 1978 review in Rolling Stone felt that the album was "meticulously produced and performed" and showed the influence of the Beach Boys, Bee Gees and the Beatles, but that the end result was "perfectly hollow and bland". Over the years a more positive view has developed, typified by this Rob Mitchum review from 2007: "Calling in the string section and commissioning the spaceship cover-art may be a big gamble, but Out of the Blue is proof of how good it can sound when the grand approach works."

The album is included in the book 1001 Albums You Must Hear Before You Die.

On 3 October 2013, the album was ranked #23 at 1 million units sold on VH1's Double Trouble: The 35 Best-Selling Double Albums Of All Time.


Exact Audio Copy V1.0 beta 3 from 29. August 2011

EAC extraction logfile from 25. December 2011, 14:07

ELO / Out Of The Blue

Used drive : HL-DT-STDVDRAM GSA-H60N Adapter: 2 ID: 0

Read mode : Secure
Utilize accurate stream : Yes
Defeat audio cache : Yes
Make use of C2 pointers : No

Read offset correction : 667
Overread into Lead-In and Lead-Out : No
Fill up missing offset samples with silence : Yes
Delete leading and trailing silent blocks : No
Null samples used in CRC calculations : Yes
Used interface : Native Win32 interface for Win NT & 2000

Used output format : Internal WAV Routines
Sample format : 44.100 Hz; 16 Bit; Stereo


TOC of the extracted CD

Track | Start | Length | Start sector | End sector
––––––––––––––––––––––––––––-
1 | 0:00.00 | 3:49.07 | 0 | 17181
2 | 3:49.07 | 4:08.65 | 17182 | 35846
3 | 7:57.72 | 3:49.65 | 35847 | 53086
4 | 11:47.62 | 3:53.60 | 53087 | 70621
5 | 15:41.47 | 4:03.70 | 70622 | 88916
6 | 19:45.42 | 4:31.60 | 88917 | 109301
7 | 24:17.27 | 3:53.22 | 109302 | 126798
8 | 28:10.49 | 1:21.20 | 126799 | 132893
9 | 29:31.69 | 4:40.35 | 132894 | 153928
10 | 34:12.29 | 3:59.65 | 153929 | 171918
11 | 38:12.19 | 5:32.16 | 171919 | 196834
12 | 43:44.35 | 4:14.72 | 196835 | 215956
13 | 47:59.32 | 5:03.28 | 215957 | 238709
14 | 53:02.60 | 3:27.71 | 238710 | 254305
15 | 56:30.56 | 5:07.26 | 254306 | 277356
16 | 61:38.07 | 4:23.49 | 277357 | 297130
17 | 66:01.56 | 4:45.51 | 297131 | 318556
18 | 70:47.32 | 0:26.14 | 318557 | 320520
19 | 71:13.46 | 1:49.71 | 320521 | 328766
20 | 73:03.42 | 0.03 | 328767 | 344069


Range status and errors

Selected range

Filename C:\Documents and Settings\Admin\2011 ELO - The Classic Albums Collection (11CD Box Set Sony Music)\1977 Out Of The Blue\ELO - Out Of The Blue.wav

Peak level 100.0 %
Extraction speed 6.2 X
Range quality 99.9 %
Test CRC BF7F82AC
Copy CRC BF7F82AC
Copy OK

No errors occurred


AccurateRip summary

Track 1 cannot be verified as accurate (confidence 50) [E0FE371E], AccurateRip returned [697EEA1C] (AR v2)
Track 2 cannot be verified as accurate (confidence 50) [BE51A7BD], AccurateRip returned [C79581FB] (AR v2)
Track 3 cannot be verified as accurate (confidence 51) [AEEB501F], AccurateRip returned [B9CA9000] (AR v2)
Track 4 cannot be verified as accurate (confidence 49) [5140C985], AccurateRip returned [F9BB2139] (AR v2)
Track 5 cannot be verified as accurate (confidence 50) [6C602490], AccurateRip returned [A93E8D22] (AR v2)
Track 6 cannot be verified as accurate (confidence 50) [92AFDAE9], AccurateRip returned [56B64B50] (AR v2)
Track 7 cannot be verified as accurate (confidence 49) [7BC66108], AccurateRip returned [D3540703] (AR v2)
Track 8 cannot be verified as accurate (confidence 49) [6CE2CEC5], AccurateRip returned [98AAD30D] (AR v2)
Track 9 cannot be verified as accurate (confidence 49) [C31B7870], AccurateRip returned [B3ECFEE4] (AR v2)
Track 10 cannot be verified as accurate (confidence 48) [107CA50B], AccurateRip returned [67EEA9EB] (AR v2)
Track 11 cannot be verified as accurate (confidence 46) [51E7DAEF], AccurateRip returned [898262E4] (AR v2)
Track 12 cannot be verified as accurate (confidence 46) [F1B855FA], AccurateRip returned [0795F763] (AR v2)
Track 13 cannot be verified as accurate (confidence 48) [FCD12031], AccurateRip returned [F9190BAC] (AR v2)
Track 14 cannot be verified as accurate (confidence 49) [46A13F4A], AccurateRip returned [2F73A01A] (AR v2)
Track 15 cannot be verified as accurate (confidence 47) [CF08A81E], AccurateRip returned [D8D33D71] (AR v2)
Track 16 cannot be verified as accurate (confidence 48) [8FE4B9CC], AccurateRip returned [3958485D] (AR v2)
Track 17 cannot be verified as accurate (confidence 48) [BA3467FB], AccurateRip returned [2685A4FC] (AR v2)
Track 18 cannot be verified as accurate (confidence 48) [93DBD532], AccurateRip returned [085FB26F] (AR v2)
Track 19 cannot be verified as accurate (confidence 48) [85C2092F], AccurateRip returned [C318DA69] (AR v2)
Track 20 cannot be verified as accurate (confidence 46) [00F55700], AccurateRip returned [13DAA510] (AR v2)

No tracks could be verified as accurate
You may have a different pressing from the one(s) in the database

End of status report

==== Log checksum 1DF83F715CC0D5FBFDE9639E9BB4663A14F58D716129661081686A2C78DFDE0E ====


Fury In The Slaughterhouse - 30: The Ultimate Best of Collection (2017)


Discovery (1979)
EAC Rip | FLAC: Image+Cue+Log | MP3 CBR 320 kbps | Scans
321 Mb | 125 Mb | Time: 43:35
Sony Music Entertainment | 88697873262-8

Discovery is a 1979 album by Electric Light Orchestra (ELO).

Discovery was the band's first number 1 album in the UK, entering the chart at that position and staying there for five weeks. The album contained five hit songs in "Shine a Little Love", "Don't Bring Me Down", "Last Train to London", "Confusion" and "The Diary of Horace Wimp", many of which were heavily influenced by disco (in fact, Richard Tandy came up with its well known nickname, Disco Very). "Don't Bring Me Down" would become one of their only two top three hits in the UK throughout their career ("Xanadú" will be number One in 1980), and also their highest-charting US single at number 4. "The Diary of Horace Wimp" was also a hit single in the UK, not patterned after the disco sound; instead it was closer in its Beatlesque style to the band's earlier hit "Mr. Blue Sky". The album itself was the first ever to generate four top-ten singles (one of which was a Double A-side) from a single LP in the UK and was eventually certified 2x platinum by the RIAA in 1997. ~ Wikipedia

Track Listing

01. Shine A Little Love (4:42)
02. Confusion (3:42)
03. Need Her Love (5:12)
04. The Diary Of Horace Wimp (4:18)
05. Last Train To London (4:31)
06. Midnight Blue (4:19)
07. On The Run (3:55)
08. Wishing (4:13)
09. Don't Bring Me Down (4:06)

BONUS TRACKS
10. On The Run (Previously Unissued Home Demo 1979) (1:01)
11. Second Time Around (Previously Unissued Home Demo 1979) (0:43)
12. Little Town Flirt (Previously Unissued) (2:53)

Produced by Jeff Lynne

The Band

• Jeff Lynne - Vocals, Guitar, Piano, Synthesizer
• Bev Bevan - Drums, Percussion
• Richard Tandy - Piano, Synthesiser, Electric piano, Clavinet
• Kelly Groucutt - Bass guitar, Vocals

Additional personnel:
• Louis Clark - string and choral arrangements, orchestra conductor

Exact Audio Copy V1.0 beta 3 from 29. August 2011

EAC extraction logfile from 25. December 2011, 22:07

ELO / Discovery

Used drive : HL-DT-STDVDRAM GSA-H60N Adapter: 2 ID: 0

Read mode : Secure
Utilize accurate stream : Yes
Defeat audio cache : Yes
Make use of C2 pointers : No

Read offset correction : 667
Overread into Lead-In and Lead-Out : No
Fill up missing offset samples with silence : Yes
Delete leading and trailing silent blocks : No
Null samples used in CRC calculations : Yes
Used interface : Native Win32 interface for Win NT & 2000

Used output format : Internal WAV Routines
Sample format : 44.100 Hz; 16 Bit; Stereo


TOC of the extracted CD

Track | Start | Length | Start sector | End sector
––––––––––––––––––––––––––––-
1 | 0:00.00 | 4:42.50 | 0 | 21199
2 | 4:42.50 | 3:42.45 | 21200 | 37894
3 | 8:25.20 | 5:11.70 | 37895 | 61289
4 | 13:37.15 | 4:17.72 | 61290 | 80636
5 | 17:55.12 | 4:31.23 | 80637 | 100984
6 | 22:26.35 | 4:19.12 | 100985 | 120421
7 | 26:45.47 | 3:55.65 | 120422 | 138111
8 | 30:41.37 | 4:13.50 | 138112 | 157136
9 | 34:55.12 | 4:06.30 | 157137 | 175616
10 | 39:01.42 | 1:01.33 | 175617 | 180224
11 | 40:03.00 | 0:43.30 | 180225 | 183479
12 | 40:46.30 | 2:53.27 | 183480 | 196481


Range status and errors

Selected range

Filename C:\Documents and Settings\Admin\2011 ELO - The Classic Albums Collection (11CD Box Set Sony Music)\1979 Discovery\ELO - Discovery.wav

Peak level 99.8 %
Extraction speed 5.7 X
Range quality 100.0 %
Test CRC 00378215
Copy CRC 00378215
Copy OK

No errors occurred


AccurateRip summary

Track 1 accurately ripped (confidence 2) [6F1EC8E6] (AR v2)
Track 2 accurately ripped (confidence 2) [0CBF7EC8] (AR v2)
Track 3 accurately ripped (confidence 2) [3BECC3B1] (AR v2)
Track 4 accurately ripped (confidence 2) [79715DB2] (AR v2)
Track 5 accurately ripped (confidence 2) [E4A31BFE] (AR v2)
Track 6 accurately ripped (confidence 2) [9FF4EDC6] (AR v2)
Track 7 accurately ripped (confidence 2) [A0A2A91B] (AR v2)
Track 8 accurately ripped (confidence 2) [E166FF4F] (AR v2)
Track 9 accurately ripped (confidence 2) [88234E7D] (AR v2)
Track 10 accurately ripped (confidence 2) [F6FE1085] (AR v2)
Track 11 accurately ripped (confidence 2) [083193F8] (AR v2)
Track 12 accurately ripped (confidence 2) [2C219193] (AR v2)

All tracks accurately ripped

End of status report

==== Log checksum 32500C31BA4FCBB915B5510D15C2ADFB8F4D1417D49251D1952D6EB654166232 ====


Fury In The Slaughterhouse - 30: The Ultimate Best of Collection (2017)


Time (1981)
EAC Rip | FLAC: Image+Cue+Log | MP3 CBR 320 kbps | Scans
402 Mb | 138 Mb | Time: 54:29
Sony Music Entertainment | 88697873262-9

Time is a concept album by Electric Light Orchestra (ELO) released in 1981 through Jet Records. The album tells the story, through its songs and lyrics, of a man from the 1980s finding himself in the year 2095 and trying to come to terms with being unable to return and adjusting to his new surroundings.

An immediate success upon its original release, Time would rank as the eighth highest charting album in the world for 1981. ~ Wikipedia

Track Listing

01. Prologue (1:16)
02. Twilight (3:41)
03. Yours Truly, 2095 (3:12)
04. Ticket To The Moon (4:07)
05. The Way Life's Meant To Be (4:38)
06. Another Heart Breaks (3:49)
07. Rain Is Falling (3:55)
08. From The End Of The World (3:16)
09. The Lights Go Down (3:33)
10. Here Is The News (3:49)
11. 21st Century Man (4:02)
12. Hold On Tight (3:06)
13. Epilogue (1:36)

BONUS TRACKS
14. The Bouncer (B-side of UK 'Four Little Diamonds' 12'' Single) (3:14)
15. When Time Stood Still (B-side of UK 'Hold of Tight' 12'' Single) (3:33)
16. Julie Don't Live Here (B-side of UK 'Twilight' 12'' Single) (3:42)

Produced by Jeff Lynne

The Band

• Jeff Lynne - Lead and Backing vocals, Electric and Acoustic guitars, Piano, Synthesizer
• Bev Bevan - Drums, Percussion
• Richard Tandy - Acoustic and Electric pianos, Synthesizer, Guitar
• Kelly Groucutt - Bass, Backing vocals

Additional personnel:
• Ghislaine - French verse (track 12)
• Rainer Pietsch - conductor, string arrangements
• Sandi - girl’s voice (track 5)

Notes

The album's sound influenced the band Brave Saint Saturn to create the astro-rock music genre. The musical style and theme of Time were echoed in later albums such as The Sophtware Slump by Grandaddy, who cited the album as a great influence; and Yoshimi Battles the Pink Robots by The Flaming Lips. In an early 1980s Rolling Stone magazine interview, Steve Winwood said that ELO's Time had influenced him. Ladyhawke has stated that ELO's Time is one of her five favourite albums. In 1998, Cher sampled a synth sound from "Prologue" and "Epilogue" at the beginning of her number 1 hit single "Believe". In 2012, on his mixtape "Nehru Jackets," the rapper Himanshu Suri aka Heems sampled the chorus of "Yours Truly, 2095" in his track "Computers," which deals with themes similar to the original song. The song "Hold on Tight" was featured prominently in a Coffee Achievers ad campaign.

Exact Audio Copy V1.0 beta 3 from 29. August 2011

EAC extraction logfile from 24. December 2011, 14:22

ELO / Time

Used drive : HL-DT-STDVDRAM GSA-H60N Adapter: 2 ID: 0

Read mode : Secure
Utilize accurate stream : Yes
Defeat audio cache : Yes
Make use of C2 pointers : No

Read offset correction : 667
Overread into Lead-In and Lead-Out : No
Fill up missing offset samples with silence : Yes
Delete leading and trailing silent blocks : No
Null samples used in CRC calculations : Yes
Used interface : Native Win32 interface for Win NT & 2000

Used output format : Internal WAV Routines
Sample format : 44.100 Hz; 16 Bit; Stereo


TOC of the extracted CD

Track | Start | Length | Start sector | End sector
––––––––––––––––––––––––––––-
1 | 0:00.00 | 1:15.72 | 0 | 5696
2 | 1:15.72 | 3:41.65 | 5697 | 22336
3 | 4:57.62 | 3:12.00 | 22337 | 36736
4 | 8:09.62 | 4:07.13 | 36737 | 55274
5 | 12:17.00 | 4:38.67 | 55275 | 76191
6 | 16:55.67 | 3:49.28 | 76192 | 93394
7 | 20:45.20 | 3:55.37 | 93395 | 111056
8 | 24:40.57 | 3:16.48 | 111057 | 125804
9 | 27:57.30 | 3:33.35 | 125805 | 141814
10 | 31:30.65 | 3:49.55 | 141815 | 159044
11 | 35:20.45 | 4:02.70 | 159045 | 177264
12 | 39:23.40 | 3:06.30 | 177265 | 191244
13 | 42:29.70 | 1:36.02 | 191245 | 198446
14 | 44:05.72 | 3:14.50 | 198447 | 213046
15 | 47:20.47 | 3:33.00 | 213047 | 229021
16 | 50:53.47 | 3:41.73 | 229022 | 245669


Range status and errors

Selected range

Filename C:\Documents and Settings\Admin\2011 ELO - The Classic Albums Collection (11CD Box Set Sony Music)\1981 Time\ELO - Time.wav

Peak level 100.0 %
Extraction speed 6.1 X
Range quality 100.0 %
Test CRC DB6E7759
Copy CRC DB6E7759
Copy OK

No errors occurred


AccurateRip summary

Track 1 accurately ripped (confidence 2) [292057A4] (AR v2)
Track 2 accurately ripped (confidence 2) [9BE579BE] (AR v2)
Track 3 accurately ripped (confidence 2) [171AF2EB] (AR v2)
Track 4 accurately ripped (confidence 2) [DF06605A] (AR v2)
Track 5 accurately ripped (confidence 2) [0D151FB2] (AR v2)
Track 6 accurately ripped (confidence 2) [65B076AE] (AR v2)
Track 7 accurately ripped (confidence 2) [7354C371] (AR v2)
Track 8 accurately ripped (confidence 2) [8827F3EC] (AR v2)
Track 9 accurately ripped (confidence 2) [7A094539] (AR v2)
Track 10 accurately ripped (confidence 2) [B1EE37BE] (AR v2)
Track 11 accurately ripped (confidence 2) [C39E2F50] (AR v2)
Track 12 accurately ripped (confidence 2) [DCE121A9] (AR v2)
Track 13 accurately ripped (confidence 2) [814B9815] (AR v2)
Track 14 accurately ripped (confidence 2) [C678186E] (AR v2)
Track 15 accurately ripped (confidence 2) [4039DBCE] (AR v2)
Track 16 accurately ripped (confidence 2) [6BB426F3] (AR v2)

All tracks accurately ripped

End of status report

==== Log checksum 3338D6F6DB2BFC7304F4453DFD7894F288E89FB327F60EF0E4609375ED19FDE6 ====


Fury In The Slaughterhouse - 30: The Ultimate Best of Collection (2017)


Secret Messages (1983)
EAC Rip | FLAC: Image+Cue+Log | MP3 CBR 320 kbps | Scans
403 Mb | 143 Mb | Time: 56:03
Sony Music Entertainment | 88697873262-10

Secret Messages is an album by Electric Light Orchestra (ELO), released in 1983 through Jet Records. It was the last ELO album with bass guitarist Kelly Groucutt, conductor Louis Clark, and real stringed instruments. It was also the final ELO studio album to become a worldwide top 40 hit upon release. ~ Wikipedia

Track Listing

01. Secret Messages (4:43)
02. Loser Gone Wild (5:27)
03. Bluebird (4:13)
04. Take Me On And On (4:57)
05. Time After Time (4:01)
06. Four Little Diamonds (4:05)
07. Stranger (4:27)
08. Danger Ahead (3:52)
09. Letter From Spain (2:51)
10. Train Of Gold (4:20)
11. Rock 'N' Roll Is King (3:49)

BONUS TRACKS
12. No Way Out (Unused Track from the Original Double Album Version of Secret Messages) (3:28)
13. Endless Lies (Previously Unreleased / Unused Trackfrom the Original Double Album Version of Secret Messages) (3:26)
14. After All (B-side of ''Rock 'n' Roll Is King'' Single) (2:24)

Produced by Jeff Lynne

The Band

• Jeff Lynne - Vocals, Background vocals, Guitar, Synthesisers, Bass, Piano, Percussion, Oberheim DMX
• Bev Bevan - Drums, Percussion
• Richard Tandy - Synthesizers, Grand piano, Electric piano, Harmonica, Oberheim DMX
• Kelly Groucutt - Bass guitar, Background vocals ("Train of Gold", "Rock 'n' Roll Is King", "No Way Out" and "Beatles Forever")

Additional personnel:
• Louis Clark - string conductor (tracks 7, 8 and 10)
• Dennis - bark
• Mik Kaminski - violin solo (track 11)
• Dave Morgan - background vocals

Notes

Secret Messages, as its title suggests, was littered with hidden messages in the form of backmasking, some obvious and others less so. This was Jeff Lynne's second tongue-in-cheek response to allegations of hidden Satanic messages in earlier Electric Light Orchestra LPs by Christian fundamentalists which led up to early 1980s American congressional hearings (a similar response had been made by Lynne on the Face the Music album, during the intro to the "Fire on High" track). In Britain, the cover of Secret Messages has a mock warning to youth about the hidden messages. Word of the album's impending release in the United States caused enough of a furore to cause CBS Records to delete the cover blurb there.

Exact Audio Copy V1.0 beta 3 from 29. August 2011

EAC extraction logfile from 24. December 2011, 13:14

ELO / Secret Messages

Used drive : HL-DT-STDVDRAM GSA-H60N Adapter: 2 ID: 0

Read mode : Secure
Utilize accurate stream : Yes
Defeat audio cache : Yes
Make use of C2 pointers : No

Read offset correction : 667
Overread into Lead-In and Lead-Out : No
Fill up missing offset samples with silence : Yes
Delete leading and trailing silent blocks : No
Null samples used in CRC calculations : Yes
Used interface : Native Win32 interface for Win NT & 2000

Used output format : Internal WAV Routines
Sample format : 44.100 Hz; 16 Bit; Stereo


TOC of the extracted CD

Track | Start | Length | Start sector | End sector
––––––––––––––––––––––––––––-
1 | 0:00.00 | 4:43.42 | 0 | 21266
2 | 4:43.42 | 5:27.15 | 21267 | 45806
3 | 10:10.57 | 4:13.13 | 45807 | 64794
4 | 14:23.70 | 4:57.65 | 64795 | 87134
5 | 19:21.60 | 4:01.15 | 87135 | 105224
6 | 23:23.00 | 4:05.17 | 105225 | 123616
7 | 27:28.17 | 4:27.25 | 123617 | 143666
8 | 31:55.42 | 3:52.18 | 143667 | 161084
9 | 35:47.60 | 2:51.27 | 161085 | 173936
10 | 38:39.12 | 4:20.55 | 173937 | 193491
11 | 42:59.67 | 3:49.38 | 193492 | 210704
12 | 46:49.30 | 3:28.15 | 210705 | 226319
13 | 50:17.45 | 3:26.40 | 226320 | 241809
14 | 53:44.10 | 2:24.20 | 241810 | 252629


Range status and errors

Selected range

Filename C:\Documents and Settings\Admin\2011 ELO - The Classic Albums Collection (11CD Box Set Sony Music)\1983 Secret Messages\ELO - Secret Messages.wav

Peak level 99.8 %
Extraction speed 5.9 X
Range quality 100.0 %
Test CRC A1101C93
Copy CRC A1101C93
Copy OK

No errors occurred


AccurateRip summary

Track 1 not present in database
Track 2 not present in database
Track 3 not present in database
Track 4 not present in database
Track 5 not present in database
Track 6 not present in database
Track 7 not present in database
Track 8 not present in database
Track 9 not present in database
Track 10 not present in database
Track 11 not present in database
Track 12 not present in database
Track 13 not present in database
Track 14 not present in database

None of the tracks are present in the AccurateRip database

End of status report

==== Log checksum BAF14B67D9E3F1519AA3D46AA9AC5287D1E58AE0BA23F4BACFF419CCEBFADE48 ====


Fury In The Slaughterhouse - 30: The Ultimate Best of Collection (2017)

Balance Of Power (1986)
EAC Rip | FLAC: Image+Cue+Log | MP3 CBR 320 kbps | Scans
395 Mb | 142 Mb | Time: 56:10
Sony Music Entertainment | 88697873262-11

Balance of Power is an album by the Electric Light Orchestra (ELO) released in 1986.

Balance of Power was the last studio album by the Electric Light Orchestra for a period of over 15 years (until Zoom was released in 2001). By this time Kelly Groucutt had departed and the group was pared down to a trio, with Jeff Lynne handling bass (in addition to his usual guitar work) and more dabbling with electronic percussion and synthesisers. ELO played some live concerts in the UK and Europe (their last for fifteen years), and in one UK show George Harrison performed as guest guitarist.

The video for the single "Calling America" was shot in Paris, and contains shots of the band playing in front of Centre Georges Pompidou. A video was also made for the single "So Serious." The track "Endless Lies" was intended as an homage to Roy Orbison, and was originally recorded for the never-released double LP version of Secret Messages; it reappeared on this album in a slightly reworked and more compact form. A number of "ELO firsts" can be attributed to this album: it was the first ELO album not to feature any strings whatsoever; the first to feature a saxophone solo; and the band's first compact disc issued. The album, in its original form has also the shortest running time in the ELO catalogue. ~ Wikipedia

Track Listing

01. Heaven Only Knows (2:56)
02. So Serious (2:43)
03. Getting To The Point (4:30)
04. Secret Lives (3:32)
05. Is It Alright (3:27)
06. Sorrow About To Fall (4:04)
07. Without Someone (3:51)
08. Calling America (3:30)
09. Endless Lies (3:00)
10. Send It (3:10)

BONUS TRACKS
11. Opening (0:24)
12. Heaven Only Knows (Alternate Version) (2:34)
13. In For The Kill (3:16)
14. Secret Lives (Alternate Take) (3:26)
15. Sorrow About To Fall (Alternate Mix) (3:50)
16. Caught In A Trap (B-side of UK Single) (3:47)
17. Destination Unknown (B-side of UK Single) (4:10)

Produced by Jeff Lynne

The Band

• Jeff Lynne - Vocals, Guitars, Synclavier II computer synthesizer, Keyboards, Piano
• Bev Bevan - Drums, Percussion
• Richard Tandy - Keyboards, Piano, Sequence programming

Additional personnel:
• Christian Schneider - saxophone

Exact Audio Copy V1.0 beta 3 from 29. August 2011

EAC extraction logfile from 24. December 2011, 11:05

ELO / Balance Of Power

Used drive : HL-DT-STDVDRAM GSA-H60N Adapter: 2 ID: 0

Read mode : Secure
Utilize accurate stream : Yes
Defeat audio cache : Yes
Make use of C2 pointers : No

Read offset correction : 667
Overread into Lead-In and Lead-Out : No
Fill up missing offset samples with silence : Yes
Delete leading and trailing silent blocks : No
Null samples used in CRC calculations : Yes
Used interface : Native Win32 interface for Win NT & 2000

Used output format : Internal WAV Routines
Sample format : 44.100 Hz; 16 Bit; Stereo


TOC of the extracted CD

Track | Start | Length | Start sector | End sector
––––––––––––––––––––––––––––-
1 | 0:00.00 | 2:56.41 | 0 | 13240
2 | 2:56.41 | 2:43.63 | 13241 | 25528
3 | 5:40.29 | 4:30.41 | 25529 | 45819
4 | 10:10.70 | 3:31.73 | 45820 | 61717
5 | 13:42.68 | 3:27.14 | 61718 | 77256
6 | 17:10.07 | 4:04.62 | 77257 | 95618
7 | 21:14.69 | 3:51.04 | 95619 | 112947
8 | 25:05.73 | 3:30.40 | 112948 | 128737
9 | 28:36.38 | 3:00.01 | 128738 | 142238
10 | 31:36.39 | 3:10.20 | 142239 | 156508
11 | 34:46.59 | 0:24.09 | 156509 | 158317
12 | 35:10.68 | 2:34.61 | 158318 | 169928
13 | 37:45.54 | 3:16.12 | 169929 | 184640
14 | 41:01.66 | 3:26.67 | 184641 | 200157
15 | 44:28.58 | 3:50.45 | 200158 | 217452
16 | 48:19.28 | 3:47.31 | 217453 | 234508
17 | 52:06.59 | 4:10.24 | 234509 | 253282


Range status and errors

Selected range

Filename C:\Documents and Settings\Admin\2011 ELO - The Classic Albums Collection (11CD Box Set Sony Music)\1986 Balance Of Power\ELO - Balance Of Power.wav

Peak level 99.7 %
Extraction speed 6.1 X
Range quality 99.9 %
Test CRC 8A1243F2
Copy CRC 8A1243F2
Copy OK

No errors occurred


AccurateRip summary

Track 1 accurately ripped (confidence 3) [3DDE1068] (AR v2)
Track 2 accurately ripped (confidence 3) [FBF95701] (AR v2)
Track 3 accurately ripped (confidence 3) [EE2ED113] (AR v2)
Track 4 accurately ripped (confidence 3) [31A6FB94] (AR v2)
Track 5 accurately ripped (confidence 3) [D9E43E72] (AR v2)
Track 6 accurately ripped (confidence 3) [99FCD46A] (AR v2)
Track 7 accurately ripped (confidence 3) [584153BB] (AR v2)
Track 8 accurately ripped (confidence 3) [DAE0CDDF] (AR v2)
Track 9 accurately ripped (confidence 3) [93936CE9] (AR v2)
Track 10 accurately ripped (confidence 3) [679B88AA] (AR v2)
Track 11 accurately ripped (confidence 3) [25A8C505] (AR v2)
Track 12 accurately ripped (confidence 3) [311C90DE] (AR v2)
Track 13 accurately ripped (confidence 3) [1766DC15] (AR v2)
Track 14 accurately ripped (confidence 3) [EE297FE8] (AR v2)
Track 15 accurately ripped (confidence 3) [7AC313F8] (AR v2)
Track 16 accurately ripped (confidence 3) [F00D8157] (AR v2)
Track 17 accurately ripped (confidence 3) [F10BF9B8] (AR v2)

All tracks accurately ripped

End of status report

==== Log checksum 7E176E11078526C24C69E5DC7E8DF3F287A42CBB3954AE01F16C34E30368D0EE ====


Fury In The Slaughterhouse - 30: The Ultimate Best of Collection (2017)


Many thanks to the original uploader: ALLexxess


Arjen Lucassen 1996 Strange Hobby

Dave Edmunds 1979 Repeat When Necessary [Reissue 1991]
Dave Edmunds 1982 D.E. 7th [Japan (mini LP) CD 2008]
Dave Edmunds 1983 Information [Japan (mini LP) CD2008]
Dave Edmunds 1984 Riff Raff [Japan (mini LP) CD 2008]
Dave Edmunds 1994 Plugged In [Digipak]

Dave Morgan & Richard Tandy 1984 EarthRise [Special Ed. 2011]

ELO 1974 The Night The Light Went On (In Long Beach) [Remastered 1998]
ELO 1987 First Movement [Compilation]
ELO 1990 Afterglow [3CD Box Set]
ELO 1995 Strange Magic: The Best Of Electric Light Orchestra [2CD]
ELO 1998 Live At Winterland '76
ELO 1998 Live At Wembley '78
ELO 1999 The BBC Sessions

The Idle Race 1968 The Birthday Party [Japan (mini LP) CD 2007]
The Idle Race 1996 Back To The Story [2CD]

Jeff Lynne 1990 Armchair Theatre [Japan SHM-CD 2013]

Jimmy Nail 1999 Tadpoles In A Jar

Louis Clark 1979 (Per-spek-tiv)n.

The Move 1968 Move [Deluxe 2-CD Expanded Edition 2007]
The Move 1970 Shazam [Deluxe Expanded Edition 2007]
The Move 1971 Message From The Country [Japan Japan (mini LP) CD 2006]
The Move 1974 California Man (Compilation) [Remastered 1999]
The Move 2008 Anthology 1966-1972 [Deluxe 4-CD Box Set]

Roy Wood 1973 Boulders [Remastered 2007]
Roy Wood 1975 Mustard [Reissue 1999]
Roy Wood 1987 Starting Up [Remastered 1993]
Roy Wood 1993 Singles

Secret Powers 2008 Explorers Of The Polar Eclipse
Secret Powers 2009 Secret Powers And The Electric Family Choir
Secret Powers 2010 Lies And Fairy Tales
Secret Powers 2011 What Every Rose-Grower Should Know

Tom Petty and The Heartbreakers 2007 Runnin' Down A Dream [3 DVD Box Set]

Wizzard 1973 Wizzard Brew [Remastered 1999]
Wizzard 1973 Wizzard Brew [Expanded Remastered Ed. 2006]