Tags
Language
Tags

Enoch Light and The Light Brigade - Big Bold and Brassy (1960) & Vibrations (1962) [Reissue 2013]

Posted By: gribovar
Enoch Light and The Light Brigade - Big Bold and Brassy (1960) & Vibrations (1962) [Reissue 2013]

Enoch Light and The Light Brigade - Big Bold and Brassy (1960) & Vibrations (1962) [Reissue 2013]
EAC Rip | FLAC (image+.cue+log) - 348 MB | MP3 CBR 320 kbps (LAME 3.93) - 161 MB | Covers - 39 MB
Genre: Jazz, Big Band, Easy Listening | RAR 3% Rec. | Label: Sepia Records (SEPIA 1264)

Innovative record producer and orchestra leader Enoch Light produced a string of hit stereo percussion albums including Persuasive Percussion, Provocative Percussion and Stereo 35/MM, all of which reached the Top 3 in the US best-selling albums chart. Big Bold and Brassy (1960) & Vibrations (1962) follow the series of thrilling albums that cover the whole spectrum of percussive sound resulting in a kaleidoscope of rich contrasts that gives the tunes here a new sheen of excitement.
Personnel in the Light Brigade include Doc Severinsen on trumpet and Tony Mottola on guitar, solo stars in their own right. First time on CD and re-mastered in glorious Stereo.
Tracklist:

Big Bold and Brassy (Percussion in Brass) (1960):
01. Great Day
02. Theme from "The Apartment"
03. Rachmaninoff Prelude in C Sharp Minor
04. The Whiffenpoof Song
05. Colonel Bogey March
06. No Rest for the Drummer Man
07. American Patrol
08. Lullaby of Broadway
09. Wabash Blues
10. Parade of the Wooden Soldiers
11. When Yuba Plays the Rumba on the Tuba
12. Rambling Wreck from Georgia Tech

Vibrations (1962):
13. Temptation
14. I Get a Kick Out of You
15. Remember
16. Green Eyes
17. Stars Fell on Alabama
18. As Time Goes By
19. That Old Black Magic
20. Yesterdays
21. Music, Maestro, Please
22. Bidin' My Time
23. A Game of Chance
24. Dancing on the Ceiling

Total time: 01:08:28

Exact Audio Copy V1.0 beta 3 from 29. August 2011

EAC extraction logfile from 22. December 2014, 22:19

Enoch Light / Big Bold and Brassy & Vibrations

Used drive : ASUS DRW-24B1LT Adapter: 5 ID: 1

Read mode : Secure
Utilize accurate stream : Yes
Defeat audio cache : Yes
Make use of C2 pointers : No

Read offset correction : 6
Overread into Lead-In and Lead-Out : No
Fill up missing offset samples with silence : Yes
Delete leading and trailing silent blocks : No
Null samples used in CRC calculations : Yes
Used interface : Native Win32 interface for Win NT & 2000

Used output format : User Defined Encoder
Selected bitrate : 768 kBit/s
Quality : High
Add ID3 tag : No
Command line compressor : C:\Program Files\Exact Audio Copy\Flac\flac.exe
Additional command line options : -8 -V -T "ARTIST=%artist%" -T "TITLE=%title%" -T "ALBUM=%albumtitle%" -T "DATE=%year%" -T "TRACKNUMBER=%tracknr%" -T "TOTALTRACKS=%numtracks%" -T "GENRE=%genre%" -T "ALBUMARTIST=%albumartist%" -T "ALBUM ARTIST=%albumartist%" -T "COMMENT=EAC Secure Mode, Test & Copy, AccurateRip, FLAC -8" %source%


TOC of the extracted CD

Track | Start | Length | Start sector | End sector
––––––––––––––––––––––––––––-
1 | 0:00.00 | 1:55.42 | 0 | 8666
2 | 1:55.42 | 3:17.12 | 8667 | 23453
3 | 5:12.54 | 2:40.56 | 23454 | 35509
4 | 7:53.35 | 4:00.12 | 35510 | 53521
5 | 11:53.47 | 2:33.74 | 53522 | 65070
6 | 14:27.46 | 3:03.18 | 65071 | 78813
7 | 17:30.64 | 3:11.48 | 78814 | 93186
8 | 20:42.37 | 2:48.29 | 93187 | 105815
9 | 23:30.66 | 2:52.38 | 105816 | 118753
10 | 26:23.29 | 3:30.58 | 118754 | 134561
11 | 29:54.12 | 2:31.63 | 134562 | 145949
12 | 32:26.00 | 2:25.04 | 145950 | 156828
13 | 34:51.04 | 3:03.34 | 156829 | 170587
14 | 37:54.38 | 2:21.22 | 170588 | 181184
15 | 40:15.60 | 2:56.28 | 181185 | 194412
16 | 43:12.13 | 2:54.42 | 194413 | 207504
17 | 46:06.55 | 3:16.19 | 207505 | 222223
18 | 49:22.74 | 2:29.61 | 222224 | 233459
19 | 51:52.60 | 2:21.61 | 233460 | 244095
20 | 54:14.46 | 3:07.30 | 244096 | 258150
21 | 57:22.01 | 3:14.10 | 258151 | 272710
22 | 60:36.11 | 2:20.74 | 272711 | 283284
23 | 62:57.10 | 2:57.53 | 283285 | 296612
24 | 65:54.63 | 2:32.74 | 296613 | 308086


Range status and errors

Selected range

Filename F:\audio\Enoch Light - Big Bold and Brassy & Vibrations.wav

Peak level 96.6 %
Extraction speed 6.1 X
Range quality 99.9 %
Test CRC 47C489C6
Copy CRC 47C489C6
Copy OK

No errors occurred


AccurateRip summary

Track 1 not present in database
Track 2 not present in database
Track 3 not present in database
Track 4 not present in database
Track 5 not present in database
Track 6 not present in database
Track 7 not present in database
Track 8 not present in database
Track 9 not present in database
Track 10 not present in database
Track 11 not present in database
Track 12 not present in database
Track 13 not present in database
Track 14 not present in database
Track 15 not present in database
Track 16 not present in database
Track 17 not present in database
Track 18 not present in database
Track 19 not present in database
Track 20 not present in database
Track 21 not present in database
Track 22 not present in database
Track 23 not present in database
Track 24 not present in database

None of the tracks are present in the AccurateRip database

End of status report

–– CUETools DB Plugin V2.1.3

[CTDB TOCID: Fu4qMVFVL4ACpjObNLEUW5ypuHo-] disk not present in database, Submit result: Fu4qMVFVL4ACpjObNLEUW5ypuHo- has been uploaded


==== Log checksum AA2F704C1A14663617E2407743AD5B4DE5C2B252A232635535642AC341E1D4D3 ====

[CUETools log; Date: 15.12.2020 2:20:38; Version: 2.1.4]
[CTDB TOCID: Fu4qMVFVL4ACpjObNLEUW5ypuHo-] found.
Track | CTDB Status
1 | (3/3) Accurately ripped
2 | (3/3) Accurately ripped
3 | (3/3) Accurately ripped
4 | (3/3) Accurately ripped
5 | (3/3) Accurately ripped
6 | (3/3) Accurately ripped
7 | (3/3) Accurately ripped
8 | (3/3) Accurately ripped
9 | (3/3) Accurately ripped
10 | (3/3) Accurately ripped
11 | (3/3) Accurately ripped
12 | (3/3) Accurately ripped
13 | (3/3) Accurately ripped
14 | (3/3) Accurately ripped
15 | (3/3) Accurately ripped
16 | (3/3) Accurately ripped
17 | (3/3) Accurately ripped
18 | (3/3) Accurately ripped
19 | (3/3) Accurately ripped
20 | (3/3) Accurately ripped
21 | (3/3) Accurately ripped
22 | (3/3) Accurately ripped
23 | (3/3) Accurately ripped
24 | (3/3) Accurately ripped
[AccurateRip ID: 003b64e6-0404a955-7d100b18] found.
Track [ CRC | V2 ] Status
01 [7d6e180c|9e4b7aa4] (0+5/5) Accurately ripped
02 [340f254a|7853bdc7] (0+5/5) Accurately ripped
03 [922bf911|f5354934] (0+5/5) Accurately ripped
04 [09cc03b1|6612b424] (0+5/5) Accurately ripped
05 [53dc09c9|09fc77de] (0+5/5) Accurately ripped
06 [5b4bbd66|eb3ee4c2] (0+5/5) Accurately ripped
07 [b9909589|0eb7450c] (0+5/5) Accurately ripped
08 [af4a0d11|aa748f04] (0+5/5) Accurately ripped
09 [7aee5b0c|ecee372c] (0+5/5) Accurately ripped
10 [e8ca8a3c|89c4f4e6] (0+5/5) Accurately ripped
11 [0b882bc6|1bcc3691] (0+5/5) Accurately ripped
12 [921d73f2|433674c8] (0+5/5) Accurately ripped
13 [30760faa|41b1be76] (0+5/5) Accurately ripped
14 [db2b363d|8328d06a] (0+5/5) Accurately ripped
15 [4f72303b|3f1243e1] (0+5/5) Accurately ripped
16 [d8e7d7bb|86024d5d] (0+5/5) Accurately ripped
17 [50944f11|66a51613] (0+5/5) Accurately ripped
18 [9d2178e7|a4792b2d] (0+5/5) Accurately ripped
19 [3cb289b6|2e488efe] (0+5/5) Accurately ripped
20 [566d6b9e|b13d839c] (0+5/5) Accurately ripped
21 [c6532c02|424119ec] (0+5/5) Accurately ripped
22 [81367702|f9a277b8] (0+5/5) Accurately ripped
23 [3650d31b|e0873af0] (0+5/5) Accurately ripped
24 [99677f4c|7fecc543] (0+4/4) Accurately ripped
Offsetted by 508:
01 [0e747794] (0/5) No match
02 [a474e032] (0/5) No match
03 [b4837e39] (0/5) No match
04 [30ea1699] (0/5) No match
05 [d1fde859] (0/5) No match
06 [6d30d422] (0/5) No match (V2 was not tested)
07 [3ce084a5] (0/5) No match
08 [75aef321] (0/5) No match
09 [d43ac76c] (0/5) No match
10 [245b1134] (0/5) No match
11 [b2e81736] (0/5) No match
12 [78883d5a] (0/5) No match
13 [92252252] (0/5) No match
14 [a3f50c31] (0/5) No match
15 [59639317] (0/5) No match
16 [8f911903] (0/5) No match
17 [f7e4f259] (0/5) No match
18 [2bbafd7b] (0/5) No match
19 [6bda58f2] (0/5) No match
20 [76e92586] (0/5) No match
21 [c39c9256] (0/5) No match
22 [3daa6936] (0/5) No match
23 [35817923] (0/5) No match
24 [099e8760] (0/4) No match

Track Peak [ CRC32 ] [W/O NULL] [ LOG ]
– 96,6 [47C489C6] [4B07AFF2] CRC32
01 95,6 [55026197] [B9239A0B]
02 85,4 [CA30C299] [C75B3C33]
03 93,6 [6E02E913] [484C50BF]
04 91,3 [7D86F613] [6D3816F8]
05 91,6 [573F33DE] [3B644831]
06 91,7 [DF4ACC43] [3ACEEAC8]
07 95,1 [6317A331] [DC4BE160]
08 96,6 [5E5302DB] [4B9E915E]
09 96,0 [A9298EB7] [2BCAF3EB]
10 96,3 [74F49D82] [FEE00C7D]
11 93,8 [17D7FABD] [FBDEA246]
12 91,3 [A2B1DB87] [490D4C9D]
13 94,3 [2D1DECB5] [346FEEF3]
14 94,2 [FA8ACC3C] [7A1822E8]
15 94,4 [C34BBDDD] [5BDC0B1F]
16 93,4 [839C6B6A] [6F992455]
17 94,1 [62996352] [9D91DA06]
18 93,9 [6F07C2B2] [5E49DDD8]
19 94,5 [2C984AC5] [2E60B9D1]
20 95,9 [C6B67B47] [87CE1AED]
21 95,9 [4F264678] [101636BA]
22 92,6 [1082F2B4] [D9BFA513]
23 86,0 [198939BC] [74E8CB27]
24 95,2 [EDCC8015] [DAE26CC5]

Thanks to fiks22

See also:
Enoch Light - Big Band Bossa N...ssa Nova (1963) [Reissue 2013]