Tags
Language
Tags

Ensemble Turicum - Pergolesi: Messa a 5 voci; Leo: Sinfonia "Il Demetrio"; Gallassi: Te Deum; Perez: Trio (2004)

Posted By: ArlegZ
Ensemble Turicum - Pergolesi: Messa a 5 voci; Leo: Sinfonia "Il Demetrio"; Gallassi: Te Deum; Perez: Trio (2004)

Ensemble Turicum - Pergolesi: Messa a 5 voci; Leo: Sinfonia "Il Demetrio"; Gallassi: Te Deum; Perez: Trio (2004)
EAC | FLAC | Image (Cue & Log) ~ 273 Mb | Total time: 57:44 | Scans included
Classical | Label: K617 | # K617159 | Recorded: 2003

The world has not yet fully discovered the riches of the impressive music libraries and archives of Portugal. They testify to the often complex trajectories followed all over Europe by a repertoire of splendid pieces, many of them showing the extent to which the Italian style had taken root in eighteenth-century Portugal. The superb mass by Pergolesi recorded here is a highly characteristic example. But the ensemble Turicum wanted to go even further in their exploration of this repertoire, accompanying the mass with performances of works by composers now totally (and unjustly) unknown, such as Antonio Gallassi and David Perez, not to mention Leonardo leo, acknowledged in his own time as a supreme master of sacred music.

Performer:
Ensemble Turicum
Luiz Alves da Silva & Mathias Weibel, direction

Track List:
Giovanni Battista Pergolesi (1710-1736)
Messa a 5 voci
01. 1. Kyrie
02. 2. Christe
03. 3. Gloria
04. 4. Laudamus (soprano)
05. 5. Gratias
06. 6. Domine Deus (soprano/alto)
07. 7. Qui tollis
08. 8. Quoniam
09. 9. Cum Sancto Spiritu
Leonardo Leo (1694-1744)
Sinfonia "Il Demetrio"
10. 1. Allegro
11. 2. Andantino
12. 3. Allego
Antonio Gallassi (1750-1790)
Te Deum
13. 1. Te Deum Laudamus
14. 2. Te gloriosus Apostolorum chorus
15. 3. Tu Patris sempiternus
16. 4. Tu devicto
17. 5. Tu ergo quaesumus
18. 6. Aeterna fac cum santis tuis
19. 7. Fiat misericordia
20. 8. In te Domine speravi
David Perez (1711-1778)
Trio
21.1. Andante
22. 2. Minuete


Exact Audio Copy V1.5 from 20. February 2020

EAC extraction logfile from 30. December 2020, 23:45

Ensemble Turicum / Pergolesi - Messa a 5 voci

Used drive : HL-DT-STDVDRAM GH24NS95 Adapter: 1 ID: 0

Read mode : Secure
Utilize accurate stream : Yes
Defeat audio cache : Yes
Make use of C2 pointers : No

Read offset correction : 6
Overread into Lead-In and Lead-Out : No
Fill up missing offset samples with silence : Yes
Delete leading and trailing silent blocks : No
Null samples used in CRC calculations : Yes
Used interface : Native Win32 interface for Win NT & 2000

Used output format : User Defined Encoder
Selected bitrate : 128 kBit/s
Quality : High
Add ID3 tag : No
Command line compressor : C:\Program Files\Exact Audio Copy\Flac\flac.exe
Additional command line options : -V -8 -T "Date=%year%" -T "Genre=%genre%" %source%


TOC of the extracted CD

Track | Start | Length | Start sector | End sector
––––––––––––––––––––––––––––-
1 | 0:00.00 | 1:31.40 | 0 | 6864
2 | 1:31.40 | 4:02.47 | 6865 | 25061
3 | 5:34.12 | 3:44.18 | 25062 | 41879
4 | 9:18.30 | 2:43.55 | 41880 | 54159
5 | 12:02.10 | 1:16.50 | 54160 | 59909
6 | 13:18.60 | 4:16.22 | 59910 | 79131
7 | 17:35.07 | 4:50.13 | 79132 | 100894
8 | 22:25.20 | 2:52.30 | 100895 | 113824
9 | 25:17.50 | 4:06.20 | 113825 | 132294
10 | 29:23.70 | 1:22.32 | 132295 | 138476
11 | 30:46.27 | 0:58.00 | 138477 | 142826
12 | 31:44.27 | 1:10.73 | 142827 | 148149
13 | 32:55.25 | 3:48.17 | 148150 | 165266
14 | 36:43.42 | 4:24.73 | 165267 | 185139
15 | 41:08.40 | 1:39.15 | 185140 | 192579
16 | 42:47.55 | 3:00.60 | 192580 | 206139
17 | 45:48.40 | 2:10.07 | 206140 | 215896
18 | 47:58.47 | 4:14.68 | 215897 | 235014
19 | 52:13.40 | 0:58.67 | 235015 | 239431
20 | 53:12.32 | 1:24.13 | 239432 | 245744
21 | 54:36.45 | 2:40.67 | 245745 | 257811
22 | 57:17.37 | 1:30.23 | 257812 | 264584


Range status and errors

Selected range

Filename C:\ArlegZ\Pergolesi - Messa a 5 voci - Ensemble Turicum.wav

Peak level 97.9 %
Extraction speed 1.7 X
Range quality 99.9 %
Test CRC F7BF8B59
Copy CRC F7BF8B59
Copy OK

No errors occurred


AccurateRip summary

Track 1 accurately ripped (confidence 11) [7D7CDE4A] (AR v2)
Track 2 accurately ripped (confidence 12) [3806015F] (AR v2)
Track 3 accurately ripped (confidence 12) [3A92586E] (AR v2)
Track 4 accurately ripped (confidence 12) [20AD3028] (AR v2)
Track 5 accurately ripped (confidence 12) [E76CD7E3] (AR v2)
Track 6 accurately ripped (confidence 12) [FE81D3FC] (AR v2)
Track 7 accurately ripped (confidence 12) [3C283B40] (AR v2)
Track 8 accurately ripped (confidence 12) [829298C0] (AR v2)
Track 9 accurately ripped (confidence 11) [E010CC47] (AR v2)
Track 10 accurately ripped (confidence 12) [E7B62019] (AR v2)
Track 11 accurately ripped (confidence 12) [2E2795DE] (AR v2)
Track 12 accurately ripped (confidence 12) [3A2E390E] (AR v2)
Track 13 accurately ripped (confidence 12) [6B074883] (AR v2)
Track 14 accurately ripped (confidence 12) [BA66FCF5] (AR v2)
Track 15 accurately ripped (confidence 12) [CF606013] (AR v2)
Track 16 accurately ripped (confidence 12) [2FDAD203] (AR v2)
Track 17 accurately ripped (confidence 12) [3B5072C2] (AR v2)
Track 18 accurately ripped (confidence 12) [0A6F706B] (AR v2)
Track 19 accurately ripped (confidence 12) [108A7556] (AR v2)
Track 20 accurately ripped (confidence 11) [DF12F189] (AR v2)
Track 21 accurately ripped (confidence 12) [7E26C9D8] (AR v2)
Track 22 accurately ripped (confidence 12) [4B928CE2] (AR v2)

All tracks accurately ripped

End of status report

–– CUETools DB Plugin V2.1.6

[CTDB TOCID: utZdHsMYzWmBKqQ65.PuTj9VpFM-] found
Submit result: utZdHsMYzWmBKqQ65.PuTj9VpFM- has been confirmed
Track | CTDB Status
1 | (9/9) Accurately ripped
2 | (9/9) Accurately ripped
3 | (9/9) Accurately ripped
4 | (9/9) Accurately ripped
5 | (9/9) Accurately ripped
6 | (9/9) Accurately ripped
7 | (9/9) Accurately ripped
8 | (9/9) Accurately ripped
9 | (9/9) Accurately ripped
10 | (9/9) Accurately ripped
11 | (9/9) Accurately ripped
12 | (9/9) Accurately ripped
13 | (9/9) Accurately ripped
14 | (9/9) Accurately ripped
15 | (9/9) Accurately ripped
16 | (9/9) Accurately ripped
17 | (9/9) Accurately ripped
18 | (9/9) Accurately ripped
19 | (9/9) Accurately ripped
20 | (9/9) Accurately ripped
21 | (9/9) Accurately ripped
22 | (9/9) Accurately ripped


==== Log checksum 5C24A516E93A9A936B7ACFE57521235A9F135AD9D9897E62D2A158B9A0635FE3 ====

Ensemble Turicum - Pergolesi: Messa a 5 voci; Leo: Sinfonia "Il Demetrio"; Gallassi: Te Deum; Perez: Trio (2004)