Subcategories
Tags
Language
Tags

Era - Reborn (2008)

Posted By: gribovar
Era - Reborn (2008)

Era - Reborn (2008)
EAC Rip | FLAC (tracks+.cue+log) - 353 MB | MP3 CBR 320 kbps (LAME 3.93) - 127 MB | Covers - 207 MB
Genre: New Age, Enigmatic | RAR 3% Rec. | Label: Mercury (0600753073254)

Reborn is the fourth studio record by French composer Eric Levi's new age music project Era. It was issued in 2008 and marked the last time Levi presented his own original compositions on Era records - following Reborn he started adapting famous works of classical composers for his albums.
Tracklist:
01. Reborn
02. Prayers
03. Dark Voices
04. Sinfoni Deo (Inspired by the Ave Maria of Caccini)
05. Come Into My World
06. Kilimandjaro
07. Thousand Words
08. After Thousand Words
09. Last Song
10. Come Into My World (Remix)

Total time: 53:56

Exact Audio Copy V1.0 beta 3 from 29. August 2011

Отчёт EAC об извлечении, выполненном 28. февраля 2015, 14:58

Era / Reborn (Mercury - 0600753073254)

Дисковод: Optiarc DVD RW AD-7803H Adapter: 1 ID: 0

Режим чтения : Достоверность
Использование точного потока : Да
Отключение кэша аудио : Да
Использование указателей C2 : Нет

Коррекция смещения при чтении : 48
Способность читать области Lead-in и Lead-out : Нет
Заполнение пропущенных сэмплов тишиной : Да
Удаление блоков с тишиной в начале и конце : Нет
При вычислениях CRC использовались нулевые сэмплы : Да
Интерфейс : Встроенный Win32-интерфейс для Win NT/2000
Обработка зазоров : Добавлено к предыдущему треку

Выходной формат : Пользовательский кодировщик
Выбранный битрейт : 1024 kBit/s
Качество : Высокий
Добавление ID3-тега : Нет
Утилита сжатия : C:\Program Files (x86)\Exact Audio Copy\Flac\flac.exe
Дополнительные параметры : -8 -V -T "ARTIST=%artist%" -T "TITLE=%title%" -T "ALBUM=%albumtitle%" -T "DATE=%year%" -T "TRACKNUMBER=%tracknr%" -T "GENRE=%genre%" -T "COMMENT=ripped by Jurassic Giant Bird" %source%


TOC извлечённого CD

Трек | Старт | Длительность | Начальный сектор | Конечный сектор
––––––––––––––––––––––––––––––––––-
1 | 0:00.00 | 5:33.34 | 0 | 25008
2 | 5:33.34 | 4:20.39 | 25009 | 44547
3 | 9:53.73 | 5:01.44 | 44548 | 67166
4 | 14:55.42 | 4:42.13 | 67167 | 88329
5 | 19:37.55 | 5:18.56 | 88330 | 112235
6 | 24:56.36 | 4:35.21 | 112236 | 132881
7 | 29:31.57 | 5:21.38 | 132882 | 156994
8 | 34:53.20 | 4:58.33 | 156995 | 179377
9 | 39:51.53 | 4:50.49 | 179378 | 201176
10 | 44:42.27 | 9:13.31 | 201177 | 242682


Трек 1

Имя файла D:\01. Reborn.wav

Длина предзазора 0:00:02.00

Пиковый уровень 98.8 %
Скорость извлечения 1.2 X
Качество трека 100.0 %
CRC теста 9906F570
CRC копии 9906F570
Точное извлечение (достоверность 15) [11CCE6D3] (AR v2)
Копирование… OK

Трек 2

Имя файла D:\02. Prayers.wav

Длина предзазора 0:00:01.16

Пиковый уровень 98.8 %
Скорость извлечения 1.3 X
Качество трека 100.0 %
CRC теста FD1C33B6
CRC копии FD1C33B6
Точное извлечение (достоверность 15) [C3700C92] (AR v2)
Копирование… OK

Трек 3

Имя файла D:\03. Dark Voices.wav

Длина предзазора 0:00:01.74

Пиковый уровень 98.9 %
Скорость извлечения 1.5 X
Качество трека 100.0 %
CRC теста 746337C3
CRC копии 746337C3
Точное извлечение (достоверность 15) [15BBFE9B] (AR v2)
Копирование… OK

Трек 4

Имя файла D:\04. Sinfoni Deo (Inspired by the Ave Maria of Caccini).wav

Длина предзазора 0:00:02.49

Пиковый уровень 98.8 %
Скорость извлечения 1.5 X
Качество трека 99.9 %
CRC теста 28BFA35D
CRC копии 28BFA35D
Точное извлечение (достоверность 15) [946FCE4E] (AR v2)
Копирование… OK

Трек 5

Имя файла D:\05. Come Into My World.wav

Длина предзазора 0:00:02.07

Пиковый уровень 98.8 %
Скорость извлечения 1.8 X
Качество трека 100.0 %
CRC теста 9D0993ED
CRC копии 9D0993ED
Точное извлечение (достоверность 15) [60BBE483] (AR v2)
Копирование… OK

Трек 6

Имя файла D:\06. Kilimandjaro.wav

Длина предзазора 0:00:03.25

Пиковый уровень 98.8 %
Скорость извлечения 1.8 X
Качество трека 100.0 %
CRC теста B48D15E3
CRC копии B48D15E3
Точное извлечение (достоверность 15) [1D395538] (AR v2)
Копирование… OK

Трек 7

Имя файла D:\07. Thousand Words.wav

Длина предзазора 0:00:02.50

Пиковый уровень 98.8 %
Скорость извлечения 2.0 X
Качество трека 100.0 %
CRC теста E0CF5792
CRC копии E0CF5792
Точное извлечение (достоверность 15) [AF0660EC] (AR v2)
Копирование… OK

Трек 8

Имя файла D:\08. After Thousand Words.wav

Пиковый уровень 98.8 %
Скорость извлечения 1.9 X
Качество трека 99.9 %
CRC теста 549AF7F9
CRC копии 549AF7F9
Точное извлечение (достоверность 15) [305172DD] (AR v2)
Копирование… OK

Трек 9

Имя файла D:\09. Last Song.wav

Длина предзазора 0:00:01.11

Пиковый уровень 98.8 %
Скорость извлечения 2.2 X
Качество трека 100.0 %
CRC теста BAEFE723
CRC копии BAEFE723
Точное извлечение (достоверность 15) [590DDAB5] (AR v2)
Копирование… OK

Трек 10

Имя файла D:\10. Come Into My World (Remix).wav

Длина предзазора 0:00:04.15

Пиковый уровень 98.8 %
Скорость извлечения 2.3 X
Качество трека 99.9 %
CRC теста 34E597B9
CRC копии 34E597B9
Точное извлечение (достоверность 15) [B094044B] (AR v2)
Копирование… OK


Все треки извлечены точно

Ошибок не произошло

Конец отчёта

==== Контрольная сумма отчёта D5E264C47CC36DC1661E479EE20A978AFD0B8E97012DF9FD4C610EDC5DB4E7E2 ====

[CUETools log; Date: 02.06.2021 1:18:02; Version: 2.1.4]
[CTDB TOCID: Z80odk0l_0OyAS5YR9vdocXRq_E-] found.
Track | CTDB Status
1 | (100/101) Accurately ripped
2 | ( 99/101) Accurately ripped
3 | (100/101) Accurately ripped
4 | (100/101) Accurately ripped
5 | (100/101) Accurately ripped
6 | (100/101) Accurately ripped
7 | (100/101) Accurately ripped
8 | (100/101) Accurately ripped
9 | (100/101) Accurately ripped
10 | (100/101) Accurately ripped
[AccurateRip ID: 00131465-009956c0-a70ca30a] found.
Track [ CRC | V2 ] Status
01 [38956b6f|11cce6d3] (21+29/65) Accurately ripped
02 [004171c5|c3700c92] (21+29/65) Accurately ripped
03 [c0cd3b22|15bbfe9b] (21+29/63) Accurately ripped
04 [c50495ec|946fce4e] (21+29/63) Accurately ripped
05 [3f217f77|60bbe483] (21+29/65) Accurately ripped
06 [5cbaeec5|1d395538] (21+29/65) Accurately ripped
07 [f26616ea|af0660ec] (21+29/65) Accurately ripped
08 [c5278a00|305172dd] (21+29/65) Accurately ripped
09 [325c60aa|590ddab5] (20+29/64) Accurately ripped
10 [933a6f44|b094044b] (21+29/65) Accurately ripped
Offsetted by -664:
01 [0aa49a7f] (03/65) Accurately ripped
02 [3652822d] (03/65) Accurately ripped
03 [3709564a] (03/63) Accurately ripped
04 [db08f16c] (03/63) Accurately ripped
05 [8807f72f] (03/65) Accurately ripped
06 [2928e98d] (03/65) Accurately ripped
07 [226a0ece] (03/65) Accurately ripped
08 [7505c550] (03/65) Accurately ripped
09 [d8ee7f62] (03/64) Accurately ripped
10 [a72fb01c] (03/65) Accurately ripped
Offsetted by -12:
01 [f25b1777] (04/65) Accurately ripped
02 [341fd339] (04/65) Accurately ripped
03 [775f47f6] (04/63) Accurately ripped
04 [a507bfac] (04/63) Accurately ripped
05 [6575db13] (04/65) Accurately ripped
06 [58b6c069] (04/65) Accurately ripped
07 [77b05612] (04/65) Accurately ripped
08 [a64635e4] (04/65) Accurately ripped
09 [718407c6] (04/64) Accurately ripped
10 [5d9cf070] (04/65) Accurately ripped
Offsetted by -676:
01 [c46a4687] (00/65) No match (V2 was not tested)
02 [6a30e3a1] (00/65) No match (V2 was not tested)
03 [ed9b631e] (00/63) No match (V2 was not tested)
04 [bb0c1b2c] (00/63) No match (V2 was not tested)
05 [ae5c52cb] (00/65) No match (V2 was not tested)
06 [2524bb31] (00/65) No match (V2 was not tested)
07 [ada6f594] (00/65) No match (V2 was not tested)
08 [eeeadeee] (00/65) No match (V2 was not tested)
09 [1816267e] (00/64) No match (V2 was not tested)
10 [71923148] (00/65) No match (V2 was not tested)
Offsetted by -18:
01 [cf3ded7b] (02/65) Accurately ripped
02 [ce0f03f3] (02/65) Accurately ripped
03 [d2a84e60] (00/63) No match (V2 was not tested)
04 [1509548c] (00/63) No match (V2 was not tested)
05 [f8a008e1] (02/65) Accurately ripped
06 [56b4a93b] (02/65) Accurately ripped
07 [6f48d765] (02/65) Accurately ripped
08 [29bc36df] (02/65) Accurately ripped
09 [1117db54] (02/64) Accurately ripped
10 [42ce3106] (02/65) Accurately ripped

Track Peak [ CRC32 ] [W/O NULL] [ LOG ]
– 98,9 [CA3390A7] [0EB8057E]
01 98,8 [9906F570] [3649E104] CRC32
02 98,8 [FD1C33B6] [0DACAC93] CRC32
03 98,9 [746337C3] [F14227F6] CRC32
04 98,8 [28BFA35D] [7FFD3C3A] CRC32
05 98,8 [9D0993ED] [DF116A44] CRC32
06 98,8 [B48D15E3] [9020F91B] CRC32
07 98,8 [E0CF5792] [DFD900B8] CRC32
08 98,8 [549AF7F9] [C5A4CA54] CRC32
09 98,8 [BAEFE723] [63B5648A] CRC32
10 98,8 [34E597B9] [AD97F7E3] CRC32

Thanks to Jurassic Giant Bird

See also:
Era - The 7th Sword (2017)