Subcategories
Tags
Language
Tags

Erasure - Hits! The Very Best Of Erasure (2003)

Posted By: gribovar
Erasure - Hits! The Very Best Of Erasure (2003)

Erasure - Hits! The Very Best Of Erasure (2003)
EAC Rip | FLAC (tracks+.cue+log) - 1,1 GB | MP3 CBR 320 kbps (LAME 3.93) - 371 MB | Covers - 125 MB
Genre: Synthpop | RAR 3% Rec. | Label: Mute (LCDMutel10)

An early track record of releasing one glistening single after another made Erasure's first compilation, Erasure Pop!: The First 20 Hits, a no-brainer to compile, but what to do with the duo's spotty later years? Hits! The Very Best of Erasure puts the old hits with the new ones, adds some rarities and remixes, and keeps with Pop!'s chronological structure. The first 13 tracks on Hits! The Very Best of Erasure cover the same, more successful, time Pop! did, and after that it's all moody epilogue. Later tracks like "Always," "Freedom," and "In My Arms" don't have the name recognition of "Chains of Love," but they do show a more mature Erasure in both delivery and composition. The problem is that no one ever wanted them to be Dylan or Radiohead, and the kind of albums they put out post-Pop! don't lend themselves well to greatest-hits collections. The later tracks at least answer the "whatever happened to" question for most people, but what's really confusing is why the four-song Abba-esque EP is overly represented by three tracks while the sparkling Wonderland album gets covered in only one and Cowboy and 1995's self-titled album are ignored completely. Despite the mishandlings, there's an incredible amount of great pop and dance music here, and you can program out the fluff if you want. Just know that even as a casual fan you will at some point in your life have to get back in the car, head to the store, and buy the other Erasure collection.
CD 1 Tracklist:
01. Oh L'Amour (Single Remix)
02. Sometimes
03. Victim Of Love (Single Remix)
04. Ship Of Fools
05. Chains Of Love (Single Remix)
06. A Little Respect
07. Stop! (Single Fade)
08. Blue Savannah (Album Edit)
09. Chorus
10. Love To Hate You
11. Breath Of Life (Single Mix)
12. Lay All Your Love On Me
13. Take A Chance On Me
14. Voulez-Vous
15. Always
16. Stay With Me (Commercial Mix)
17. In My Arms (UK Album Version)
18. Freedom
19. Solsbury Hill
20. Oh L'Amour (August Mix)

Total time: 01:18:23

CD 2 Tracklist (ErasureMegaMix):
01. Stay With Me
02. You Surround Me
03. In My Arms (UK Album Version)
04. Solsbury Hill
05. A Little Respect (Big Train Mix)
06. Chains Of Love (Truly In Love With The Marks Bros. Mix)
07. Take A Chance On Me
08. Love To Hate You (Paul Dakeyne Mix)
09. Stop! (12" Remix)
10. Victim Of Love (Vixen Vitesse Mix)
11. Blue Savannah (Der Deutsche Mix I)
12. Always (Microbots Trance Dance Mix)
13. Freedom (JC's Freedom Of Flight Remix)
14. Chorus (Aggressive Trance Mix)
15. Oh L'Amour (Matt Darey Mix)
16. Breath Of Life (Divine Inspiration Mix)
17. Sometimes (John Fleming's Full Vocal Club Mix)
18. Ship Of Fools

Total time: 01:13:49

Exact Audio Copy V1.0 beta 6 from 9. April 2015

EAC extraction logfile from 20. September 2015, 19:27

Erasure / Hits! The Very Best Of Erasure (CD1)

Used drive : PIONEER DVD-RW DVR-221L Adapter: 1 ID: 1

Read mode : Secure
Utilize accurate stream : Yes
Defeat audio cache : Yes
Make use of C2 pointers : No

Read offset correction : 6
Overread into Lead-In and Lead-Out : No
Fill up missing offset samples with silence : Yes
Delete leading and trailing silent blocks : No
Null samples used in CRC calculations : Yes
Used interface : Native Win32 interface for Win NT & 2000
Gap handling : Appended to previous track

Used output format : User Defined Encoder
Selected bitrate : 1024 kBit/s
Quality : High
Add ID3 tag : Yes
Command line compressor : C:\Program Files (x86)\Exact Audio Copy\FLAC\FLAC.EXE
Additional command line options : -6 -V -T "COMMENT=Ripped by RRC" -T "ARTIST=%artist%" -T "TITLE=%title%" -T "ALBUM=%albumtitle%" -T "DATE=%year%" -T "TRACKNUMBER=%tracknr%" -T "GENRE=%genre%" -T "BAND=%albuminterpret%" -T "ALBUMARTIST=%albuminterpret%" -T "COMPOSER=%composer%" %haslyrics%–tag-from-file=LYRICS="%lyricsfile%"%haslyrics% -T "DISCNUMBER=%cdnumber%" -T "TOTALDISCS=%totalcds%" -T "TOTALTRACKS=%numtracks%" %hascover%–picture="%coverfile%"%hascover% %source%


TOC of the extracted CD

Track | Start | Length | Start sector | End sector
––––––––––––––––––––––––––––-
1 | 0:00.00 | 3:11.34 | 0 | 14358
2 | 3:11.34 | 3:41.03 | 14359 | 30936
3 | 6:52.37 | 3:43.27 | 30937 | 47688
4 | 10:35.64 | 4:02.70 | 47689 | 65908
5 | 14:38.59 | 3:45.38 | 65909 | 82821
6 | 18:24.22 | 3:33.65 | 82822 | 98861
7 | 21:58.12 | 2:57.20 | 98862 | 112156
8 | 24:55.32 | 4:20.17 | 112157 | 131673
9 | 29:15.49 | 4:29.61 | 131674 | 151909
10 | 33:45.35 | 3:57.46 | 151910 | 169730
11 | 37:43.06 | 3:56.24 | 169731 | 187454
12 | 41:39.30 | 4:44.67 | 187455 | 208821
13 | 46:24.22 | 3:46.43 | 208822 | 225814
14 | 50:10.65 | 5:31.45 | 225815 | 250684
15 | 55:42.35 | 4:03.18 | 250685 | 268927
16 | 59:45.53 | 4:44.30 | 268928 | 290257
17 | 64:30.08 | 3:29.23 | 290258 | 305955
18 | 67:59.31 | 2:55.15 | 305956 | 319095
19 | 70:54.46 | 4:19.72 | 319096 | 338592
20 | 75:14.43 | 3:08.27 | 338593 | 352719


Track 1

Filename E:\RRCLtd Rip\01-Oh L'Amour (Single Remix).wav

Pre-gap length 0:00:02.00

Peak level 100.0 %
Extraction speed 4.7 X
Track quality 100.0 %
Test CRC E22680A3
Copy CRC E22680A3
Accurately ripped (confidence 59) [3C237B06] (AR v2)
Copy OK

Track 2

Filename E:\RRCLtd Rip\02-Sometimes.wav

Pre-gap length 0:00:01.67

Peak level 100.0 %
Extraction speed 5.1 X
Track quality 100.0 %
Test CRC 4B063E79
Copy CRC 4B063E79
Accurately ripped (confidence 60) [591E0666] (AR v2)
Copy OK

Track 3

Filename E:\RRCLtd Rip\03-Victim Of Love (Single Remix).wav

Pre-gap length 0:00:02.38

Peak level 100.0 %
Extraction speed 5.5 X
Track quality 100.0 %
Test CRC C3CFB6FE
Copy CRC C3CFB6FE
Accurately ripped (confidence 59) [64FDFB85] (AR v2)
Copy OK

Track 4

Filename E:\RRCLtd Rip\04-Ship Of Fools.wav

Pre-gap length 0:00:02.00

Peak level 100.0 %
Extraction speed 5.7 X
Track quality 100.0 %
Test CRC 971C78D1
Copy CRC 971C78D1
Accurately ripped (confidence 60) [3A43ED2D] (AR v2)
Copy OK

Track 5

Filename E:\RRCLtd Rip\05-Chains Of Love (Single Remix).wav

Pre-gap length 0:00:02.08

Peak level 100.0 %
Extraction speed 6.3 X
Track quality 100.0 %
Test CRC BCA37584
Copy CRC BCA37584
Accurately ripped (confidence 61) [46BAB09C] (AR v2)
Copy OK

Track 6

Filename E:\RRCLtd Rip\06-A Little Respect.wav

Pre-gap length 0:00:01.67

Peak level 100.0 %
Extraction speed 6.5 X
Track quality 100.0 %
Test CRC E70AE89F
Copy CRC E70AE89F
Accurately ripped (confidence 62) [3693C2DB] (AR v2)
Copy OK

Track 7

Filename E:\RRCLtd Rip\07-Stop! (Single Fade).wav

Pre-gap length 0:00:03.15

Peak level 100.0 %
Extraction speed 5.1 X
Track quality 99.9 %
Test CRC C2A1B8EA
Copy CRC C2A1B8EA
Accurately ripped (confidence 61) [F4393B4D] (AR v2)
Copy OK

Track 8

Filename E:\RRCLtd Rip\08-Blue Savannah (Album Edit).wav

Pre-gap length 0:00:02.15

Peak level 100.0 %
Extraction speed 7.2 X
Track quality 100.0 %
Test CRC 75C67FFC
Copy CRC 75C67FFC
Accurately ripped (confidence 60) [3AC6A6E3] (AR v2)
Copy OK

Track 9

Filename E:\RRCLtd Rip\09-Chorus.wav

Pre-gap length 0:00:01.70

Peak level 100.0 %
Extraction speed 7.2 X
Track quality 100.0 %
Test CRC 993FF304
Copy CRC 993FF304
Accurately ripped (confidence 60) [9658E5C3] (AR v2)
Copy OK

Track 10

Filename E:\RRCLtd Rip\10-Love To Hate You.wav

Pre-gap length 0:00:02.51

Peak level 100.0 %
Extraction speed 7.7 X
Track quality 100.0 %
Test CRC 7ABC56D1
Copy CRC 7ABC56D1
Accurately ripped (confidence 60) [3E3063DA] (AR v2)
Copy OK

Track 11

Filename E:\RRCLtd Rip\11-Breath Of Life (Single Mix).wav

Pre-gap length 0:00:02.48

Peak level 100.0 %
Extraction speed 7.9 X
Track quality 100.0 %
Test CRC 8D7538D6
Copy CRC 8D7538D6
Accurately ripped (confidence 60) [59D2F9EA] (AR v2)
Copy OK

Track 12

Filename E:\RRCLtd Rip\12-Lay All Your Love On Me.wav

Pre-gap length 0:00:01.41

Peak level 100.0 %
Extraction speed 8.4 X
Track quality 100.0 %
Test CRC E1F1EEB1
Copy CRC E1F1EEB1
Accurately ripped (confidence 60) [BA2A2DE8] (AR v2)
Copy OK

Track 13

Filename E:\RRCLtd Rip\13-Take A Chance On Me.wav

Pre-gap length 0:00:01.58

Peak level 100.0 %
Extraction speed 8.4 X
Track quality 100.0 %
Test CRC 6AEAE591
Copy CRC 6AEAE591
Accurately ripped (confidence 60) [6DF5F6E5] (AR v2)
Copy OK

Track 14

Filename E:\RRCLtd Rip\14-Voulez-Vous.wav

Pre-gap length 0:00:02.14

Peak level 100.0 %
Extraction speed 9.1 X
Track quality 100.0 %
Test CRC 08A04114
Copy CRC 08A04114
Accurately ripped (confidence 60) [15E8E9DB] (AR v2)
Copy OK

Track 15

Filename E:\RRCLtd Rip\15-Always.wav

Pre-gap length 0:00:01.44

Peak level 100.0 %
Extraction speed 9.0 X
Track quality 100.0 %
Test CRC 4E809F35
Copy CRC 4E809F35
Accurately ripped (confidence 60) [75EF2E78] (AR v2)
Copy OK

Track 16

Filename E:\RRCLtd Rip\16-Stay With Me (Commercial Mix).wav

Pre-gap length 0:00:02.31

Peak level 100.0 %
Extraction speed 9.4 X
Track quality 100.0 %
Test CRC 321A7AFB
Copy CRC 321A7AFB
Accurately ripped (confidence 60) [FF7053F0] (AR v2)
Copy OK

Track 17

Filename E:\RRCLtd Rip\17-In My Arms (UK Album Version).wav

Pre-gap length 0:00:02.02

Peak level 94.9 %
Extraction speed 9.3 X
Track quality 100.0 %
Test CRC 142D0A5F
Copy CRC 142D0A5F
Accurately ripped (confidence 60) [6A099514] (AR v2)
Copy OK

Track 18

Filename E:\RRCLtd Rip\18-Freedom.wav

Pre-gap length 0:00:02.39

Peak level 96.8 %
Extraction speed 9.0 X
Track quality 100.0 %
Test CRC B6671A53
Copy CRC B6671A53
Accurately ripped (confidence 59) [82E5EE67] (AR v2)
Copy OK

Track 19

Filename E:\RRCLtd Rip\19-Solsbury Hill.wav

Pre-gap length 0:00:01.58

Peak level 93.0 %
Extraction speed 8.2 X
Track quality 99.9 %
Test CRC F6D3CC43
Copy CRC F6D3CC43
Accurately ripped (confidence 58) [741CA95C] (AR v2)
Copy OK

Track 20

Filename E:\RRCLtd Rip\20-Oh L'Amour (August Mix).wav

Pre-gap length 0:00:02.39

Peak level 100.0 %
Extraction speed 9.6 X
Track quality 100.0 %
Test CRC F7A39110
Copy CRC F7A39110
Accurately ripped (confidence 57) [BD146AA1] (AR v2)
Copy OK


All tracks accurately ripped

No errors occurred

End of status report

–– CUETools DB Plugin V2.1.6

[CTDB TOCID: RjKWgSPxxytuaqynISETzX35Ifo-] found
Submit result: RjKWgSPxxytuaqynISETzX35Ifo- has been confirmed
Track | CTDB Status
1 | (79/83) Accurately ripped
2 | (79/83) Accurately ripped
3 | (81/83) Accurately ripped
4 | (81/83) Accurately ripped
5 | (82/83) Accurately ripped
6 | (82/83) Accurately ripped
7 | (82/83) Accurately ripped
8 | (82/83) Accurately ripped
9 | (80/83) Accurately ripped
10 | (82/83) Accurately ripped
11 | (82/83) Accurately ripped
12 | (81/83) Accurately ripped
13 | (80/83) Accurately ripped
14 | (81/83) Accurately ripped
15 | (76/83) Accurately ripped
16 | (77/83) Accurately ripped
17 | (80/83) Accurately ripped
18 | (80/83) Accurately ripped
19 | (80/83) Accurately ripped
20 | (75/83) Accurately ripped


==== Log checksum B97E6F15C780277A56EB72E11347C1F57952647B29AF40FCDCFB14C221E4B903 ====

[CUETools log; Date: 02.05.2020 20:06:37; Version: 2.1.4]
[CTDB TOCID: RjKWgSPxxytuaqynISETzX35Ifo-] found.
Track | CTDB Status
1 | (361/365) Accurately ripped
2 | (360/365) Accurately ripped
3 | (363/365) Accurately ripped
4 | (361/365) Accurately ripped
5 | (364/365) Accurately ripped
6 | (363/365) Accurately ripped
7 | (364/365) Accurately ripped
8 | (363/365) Accurately ripped
9 | (361/365) Accurately ripped
10 | (363/365) Accurately ripped
11 | (363/365) Accurately ripped
12 | (363/365) Accurately ripped
13 | (360/365) Accurately ripped
14 | (359/365) Accurately ripped
15 | (351/365) Accurately ripped
16 | (349/365) Accurately ripped
17 | (358/365) Accurately ripped
18 | (360/365) Accurately ripped
19 | (359/365) Accurately ripped
20 | (350/365) Accurately ripped
[AccurateRip ID: 0037c2ea-033a96c9-16125e14] found.
Track [ CRC | V2 ] Status
01 [1e602985|3c237b06] (069+106/284) Accurately ripped
02 [0da1395d|591e0666] (070+107/282) Accurately ripped
03 [124309ce|64fdfb85] (071+106/286) Accurately ripped
04 [f7bd7384|3a43ed2d] (068+107/282) Accurately ripped
05 [956ded60|46bab09c] (068+108/285) Accurately ripped
06 [b093f5ae|3693c2db] (071+109/289) Accurately ripped
07 [39c34706|f4393b4d] (070+108/284) Accurately ripped
08 [55e8091b|3ac6a6e3] (069+107/284) Accurately ripped
09 [fd09edbd|9658e5c3] (067+107/281) Accurately ripped
10 [81170c38|3e3063da] (069+107/284) Accurately ripped
11 [0ebab21a|59d2f9ea] (069+107/282) Accurately ripped
12 [d521d6a7|ba2a2de8] (067+108/283) Accurately ripped
13 [6366fd2a|6df5f6e5] (068+107/284) Accurately ripped
14 [83aad303|15e8e9db] (069+108/283) Accurately ripped
15 [7175a5f3|75ef2e78] (066+107/279) Accurately ripped
16 [503ef262|ff7053f0] (063+107/274) Accurately ripped
17 [9f9992d3|6a099514] (065+107/278) Accurately ripped
18 [f1336304|82e5ee67] (067+106/279) Accurately ripped
19 [5b3aa0ba|741ca95c] (063+105/269) Accurately ripped
20 [2fa534a6|bd146aa1] (060+103/266) Accurately ripped
Offsetted by -695:
01 [3b032900] (033/284) Accurately ripped
02 [47836342] (033/282) Accurately ripped
03 [57aaad00] (033/286) Accurately ripped
04 [a0996cc7] (033/282) Accurately ripped
05 [13cd7ddb] (033/285) Accurately ripped
06 [ca37c7d3] (033/289) Accurately ripped
07 [d9e1c212] (032/284) Accurately ripped
08 [39e083f4] (032/284) Accurately ripped
09 [c2ecde0a] (033/281) Accurately ripped
10 [2f16b2f6] (033/284) Accurately ripped
11 [9d9761e8] (033/282) Accurately ripped
12 [5c3559dd] (032/283) Accurately ripped
13 [505bba2b] (033/284) Accurately ripped
14 [5fba2afd] (031/283) Accurately ripped
15 [6bb4bc67] (033/279) Accurately ripped
16 [508cb2bf] (032/274) Accurately ripped
17 [73f1a6ae] (032/278) Accurately ripped
18 [e12d690d] (032/279) Accurately ripped
19 [01990d98] (031/269) Accurately ripped
20 [e1a261d8] (031/266) Accurately ripped
Offsetted by -689:
01 [dfc8a8d2] (002/284) Accurately ripped
02 [481e59b0] (002/282) Accurately ripped
03 [c00bc2cc] (002/286) Accurately ripped
04 [1f5361c9] (002/282) Accurately ripped
05 [a1a133ad] (002/285) Accurately ripped
06 [6104a3c1] (002/289) Accurately ripped
07 [9bb8fa1a] (002/284) Accurately ripped
08 [a7e2ca5a] (002/284) Accurately ripped
09 [fa4f7768] (002/281) Accurately ripped
10 [dfdd9bca] (002/284) Accurately ripped
11 [8ebaae1c] (002/282) Accurately ripped
12 [4dc82701] (002/283) Accurately ripped
13 [9623d601] (002/284) Accurately ripped
14 [b8cf07f9] (002/283) Accurately ripped
15 [8b10a55f] (002/279) Accurately ripped
16 [f35b097d] (002/274) Accurately ripped
17 [ecc50ec0] (002/278) Accurately ripped
18 [2dee7993] (002/279) Accurately ripped
19 [dd2b352c] (002/269) Accurately ripped
20 [59a6d3a4] (002/266) Accurately ripped
Offsetted by -1358:
01 [1bc37cdb] (000/284) No match (V2 was not tested)
02 [84a004c7] (000/282) No match (V2 was not tested)
03 [c9c2c472] (000/286) No match (V2 was not tested)
04 [ed552b6a] (000/282) No match (V2 was not tested)
05 [dbeb82b6] (000/285) No match (V2 was not tested)
06 [b2cad998] (000/289) No match (V2 was not tested)
07 [2e7c129e] (000/284) No match (V2 was not tested)
08 [bde520ed] (000/284) No match (V2 was not tested)
09 [5addaaf7] (000/281) No match (V2 was not tested)
10 [e13b3374] (000/284) No match (V2 was not tested)
11 [87dafd76] (000/282) No match (V2 was not tested)
12 [9657cdd3] (000/283) No match (V2 was not tested)
13 [b17bb64c] (000/284) No match (V2 was not tested)
14 [6c38c837] (000/283) No match (V2 was not tested)
15 [6288ad5b] (000/279) No match (V2 was not tested)
16 [0a7c41bc] (000/274) No match (V2 was not tested)
17 [ccb13ae9] (000/278) No match (V2 was not tested)
18 [bfd7c736] (000/279) No match (V2 was not tested)
19 [3b02f836] (000/269) No match (V2 was not tested)
20 [13b7434a] (000/266) No match (V2 was not tested)
Offsetted by -713:
01 [4cb2a98a] (000/284) No match (V2 was not tested)
02 [45b27ff8] (000/282) No match (V2 was not tested)
03 [1e876b9c] (000/286) No match (V2 was not tested)
04 [246b8dc1] (000/282) No match (V2 was not tested)
05 [6a525c65] (000/285) No match (V2 was not tested)
06 [05d13409] (000/289) No match (V2 was not tested)
07 [945c19fa] (000/284) No match (V2 was not tested)
08 [efd9b0c2] (000/284) No match (V2 was not tested)
09 [1cc511f0] (000/281) No match (V2 was not tested)
10 [1cc1f87a] (000/284) No match (V2 was not tested)
11 [ca2d7d4c] (000/282) No match (V2 was not tested)
12 [877cf271] (000/283) No match (V2 was not tested)
13 [7f0366a9] (000/284) No match (V2 was not tested)
14 [547b9409] (000/283) No match (V2 was not tested)
15 [0da1017f] (000/279) No match (V2 was not tested)
16 [6821ae85] (000/274) No match (V2 was not tested)
17 [09776e78] (000/278) No match (V2 was not tested)
18 [faea377b] (000/279) No match (V2 was not tested)
19 [6ee296dc] (000/269) No match (V2 was not tested)
20 [79950c74] (000/266) No match (V2 was not tested)
Offsetted by -703:
01 [09fbd3e8] (000/284) No match (V2 was not tested)
02 [46b4c55a] (000/282) No match (V2 was not tested)
03 [cc7e8ff0] (000/286) No match (V2 was not tested)
04 [f7a17b6f] (000/282) No match (V2 was not tested)
05 [015de0c3] (000/285) No match (V2 was not tested)
06 [567bf7eb] (000/289) No match (V2 was not tested)
07 [2cc2ccb2] (000/284) No match (V2 was not tested)
08 [51dd7b6c] (000/284) No match (V2 was not tested)
09 [ce6966e2] (000/281) No match (V2 was not tested)
10 [ee0d7c86] (000/284) No match (V2 was not tested)
11 [06bda6f8] (000/282) No match (V2 was not tested)
12 [6f719dad] (000/283) No match (V2 was not tested)
13 [f350ea63] (000/284) No match (V2 was not tested)
14 [939e59ad] (000/283) No match (V2 was not tested)
15 [ec8f85c7] (000/279) No match (V2 was not tested)
16 [22243f17] (000/274) No match (V2 was not tested)
17 [d2d7c696] (000/278) No match (V2 was not tested)
18 [25815305] (000/279) No match (V2 was not tested)
19 [dcd62e28] (000/269) No match (V2 was not tested)
20 [419c74c8] (000/266) No match (V2 was not tested)
Offsetted by -676:
01 [ef749319] (000/284) No match (V2 was not tested)
02 [c96e1a49] (000/282) No match (V2 was not tested)
03 [22337206] (000/286) No match (V2 was not tested)
04 [31e649f8] (000/282) No match (V2 was not tested)
05 [7f9692f4] (000/285) No match (V2 was not tested)
06 [fd15d59a] (000/289) No match (V2 was not tested)
07 [950b48d6] (000/284) No match (V2 was not tested)
08 [40e7b837] (000/284) No match (V2 was not tested)
09 [47a51909] (000/281) No match (V2 was not tested)
10 [098c9440] (000/284) No match (V2 was not tested)
11 [43dc7de2] (000/282) No match (V2 was not tested)
12 [2e8638cf] (000/283) No match (V2 was not tested)
13 [ad5567a6] (000/284) No match (V2 was not tested)
14 [a47c3c1b] (000/283) No match (V2 was not tested)
15 [f9ad1e23] (000/279) No match (V2 was not tested)
16 [fec4c56e] (000/274) No match (V2 was not tested)
17 [728f1ae7] (000/278) No match (V2 was not tested)
18 [7ee61d60] (000/279) No match (V2 was not tested)
19 [b8e7e042] (000/269) No match (V2 was not tested)
20 [5db074de] (000/266) No match (V2 was not tested)
Offsetted by -664:
01 [38ff92bd] (002/284) Accurately ripped
02 [caa40725] (000/282) No match (V2 was not tested)
03 [f2f59d9e] (003/286) Accurately ripped
04 [2f5a33fc] (002/282) Accurately ripped
05 [9b3dfe98] (002/285) Accurately ripped
06 [2aaf8d76] (002/289) Accurately ripped
07 [18b9b8e6] (000/284) No match (V2 was not tested)
08 [1cec4503] (002/284) Accurately ripped
09 [b66a4bc5] (002/281) Accurately ripped
10 [6b1a65e8] (002/284) Accurately ripped
11 [2623164a] (000/282) No match (V2 was not tested)
12 [11abd317] (002/283) Accurately ripped
13 [38e59f52] (002/284) Accurately ripped
14 [56a5f613] (002/283) Accurately ripped
15 [3864f013] (002/279) Accurately ripped
16 [446172ea] (000/274) No match (V2 was not tested)
17 [6435eb0b] (002/278) Accurately ripped
18 [18683e6c] (002/279) Accurately ripped
19 [700c2f6a] (000/269) No match (V2 was not tested)
20 [4db95876] (000/266) No match (V2 was not tested)
Offsetted by -48:
01 [f8342af5] (000/284) No match (V2 was not tested)
02 [08c985ed] (000/282) No match (V2 was not tested)
03 [cf3a5b6e] (000/286) No match (V2 was not tested)
04 [01edcb74] (000/282) No match (V2 was not tested)
05 [26d03ed0] (000/285) No match (V2 was not tested)
06 [fa2d163e] (000/289) No match (V2 was not tested)
07 [2b0986c6] (000/284) No match (V2 was not tested)
08 [e5d5d5eb] (000/284) No match (V2 was not tested)
09 [41f522cd] (000/281) No match (V2 was not tested)
10 [fadfc598] (000/284) No match (V2 was not tested)
11 [85a0507a] (000/282) No match (V2 was not tested)
12 [488b6d87] (000/283) No match (V2 was not tested)
13 [35261e7a] (000/284) No match (V2 was not tested)
14 [bb03eb23] (000/283) No match (V2 was not tested)
15 [76965e33] (000/279) No match (V2 was not tested)
16 [39cc3c72] (000/274) No match (V2 was not tested)
17 [d8fe5243] (000/278) No match (V2 was not tested)
18 [8b2aded4] (000/279) No match (V2 was not tested)
19 [7ea9641a] (000/269) No match (V2 was not tested)
20 [6f81a646] (000/266) No match (V2 was not tested)
Offsetted by 6:
01 [c325a957] (000/284) No match
02 [0e3c2fcb] (000/282) No match
03 [7aa41f9a] (000/286) No match
04 [76776886] (000/282) No match
05 [2341a332] (000/285) No match
06 [4760d19c] (000/289) No match
07 [fb9a7f0e] (000/284) No match
08 [c3ea4f81] (000/284) No match
09 [346c871b] (000/281) No match
10 [31ddf50c] (000/284) No match
11 [ffddfe4e] (000/282) No match
12 [c6b4a3cb] (000/283) No match
13 [a92f1900] (000/284) No match
14 [dcbfafff] (000/283) No match
15 [90d18eeb] (000/279) No match
16 [f30d4920] (000/274) No match
17 [186cfae5] (000/278) No match (V2 was not tested)
18 [3df4738a] (000/279) No match
19 [36ccc84e] (000/269) No match
20 [a7a9a672] (000/266) No match

Track Peak [ CRC32 ] [W/O NULL] [ LOG ]
– 100,0 [244F1247] [C2F73ECA]
01 100,0 [E22680A3] [76892213] CRC32
02 100,0 [4B063E79] [43CBFBD1] CRC32
03 100,0 [C3CFB6FE] [625C5008] CRC32
04 100,0 [971C78D1] [65E37FFA] CRC32
05 100,0 [BCA37584] [E2412B20] CRC32
06 100,0 [E70AE89F] [279D4F34] CRC32
07 100,0 [C2A1B8EA] [75E5D774] CRC32
08 100,0 [75C67FFC] [E6F7F7A3] CRC32
09 100,0 [993FF304] [92405903] CRC32
10 100,0 [7ABC56D1] [B0E4029B] CRC32
11 100,0 [8D7538D6] [B372E773] CRC32
12 100,0 [E1F1EEB1] [850B1B63] CRC32
13 100,0 [6AEAE591] [EB9316F5] CRC32
14 100,0 [08A04114] [B0F5046E] CRC32
15 100,0 [4E809F35] [3244C55F] CRC32
16 100,0 [321A7AFB] [FD18226E] CRC32
17 94,9 [142D0A5F] [C968E59D] CRC32
18 96,8 [B6671A53] [7E904646] CRC32
19 93,0 [F6D3CC43] [E74BE74E] CRC32
20 100,0 [F7A39110] [D9A33F0D] CRC32

Exact Audio Copy V1.0 beta 6 from 9. April 2015

EAC extraction logfile from 20. September 2015, 21:15

Erasure / Hits! The Very Best of Erasure (CD2)

Used drive : PIONEER DVD-RW DVR-221L Adapter: 1 ID: 1

Read mode : Secure
Utilize accurate stream : Yes
Defeat audio cache : Yes
Make use of C2 pointers : No

Read offset correction : 6
Overread into Lead-In and Lead-Out : No
Fill up missing offset samples with silence : Yes
Delete leading and trailing silent blocks : No
Null samples used in CRC calculations : Yes
Used interface : Native Win32 interface for Win NT & 2000
Gap handling : Appended to previous track

Used output format : User Defined Encoder
Selected bitrate : 1024 kBit/s
Quality : High
Add ID3 tag : Yes
Command line compressor : C:\Program Files (x86)\Exact Audio Copy\FLAC\FLAC.EXE
Additional command line options : -6 -V -T "COMMENT=Ripped by RRC" -T "ARTIST=%artist%" -T "TITLE=%title%" -T "ALBUM=%albumtitle%" -T "DATE=%year%" -T "TRACKNUMBER=%tracknr%" -T "GENRE=%genre%" -T "BAND=%albuminterpret%" -T "ALBUMARTIST=%albuminterpret%" -T "COMPOSER=%composer%" %haslyrics%–tag-from-file=LYRICS="%lyricsfile%"%haslyrics% -T "DISCNUMBER=%cdnumber%" -T "TOTALDISCS=%totalcds%" -T "TOTALTRACKS=%numtracks%" %hascover%–picture="%coverfile%"%hascover% %source%


TOC of the extracted CD

Track | Start | Length | Start sector | End sector
––––––––––––––––––––––––––––-
1 | 0:00.00 | 5:05.71 | 0 | 22945
2 | 5:05.71 | 5:40.24 | 22946 | 48469
3 | 10:46.20 | 3:35.66 | 48470 | 64660
4 | 14:22.11 | 3:38.25 | 64661 | 81035
5 | 18:00.36 | 3:43.11 | 81036 | 97771
6 | 21:43.47 | 4:10.27 | 97772 | 116548
7 | 25:53.74 | 3:21.16 | 116549 | 131639
8 | 29:15.15 | 3:56.42 | 131640 | 149381
9 | 33:11.57 | 3:56.60 | 149382 | 167141
10 | 37:08.42 | 3:25.07 | 167142 | 182523
11 | 40:33.49 | 3:45.04 | 182524 | 199402
12 | 44:18.53 | 4:56.02 | 199403 | 221604
13 | 49:14.55 | 3:37.66 | 221605 | 237945
14 | 52:52.46 | 4:03.36 | 237946 | 256206
15 | 56:56.07 | 4:27.38 | 256207 | 276269
16 | 61:23.45 | 4:39.61 | 276270 | 297255
17 | 66:03.31 | 4:40.09 | 297256 | 318264
18 | 70:43.40 | 3:05.54 | 318265 | 332193


Track 1

Filename E:\RRCLtd Rip\01-Stay With Me.wav

Pre-gap length 0:00:02.00

Peak level 99.8 %
Extraction speed 3.1 X
Track quality 100.0 %
Test CRC A6A6A879
Copy CRC A6A6A879
Accurately ripped (confidence 24) [285FFFDC] (AR v2)
Copy OK

Track 2

Filename E:\RRCLtd Rip\02-You Surround Me.wav

Peak level 99.8 %
Extraction speed 3.6 X
Track quality 100.0 %
Test CRC 24BA31EF
Copy CRC 24BA31EF
Accurately ripped (confidence 24) [1485ED51] (AR v2)
Copy OK

Track 3

Filename E:\RRCLtd Rip\03-In My Arms.wav

Peak level 84.1 %
Extraction speed 3.7 X
Track quality 100.0 %
Test CRC 6ED6CAFF
Copy CRC 6ED6CAFF
Accurately ripped (confidence 24) [221242EE] (AR v2)
Copy OK

Track 4

Filename E:\RRCLtd Rip\04-Solsbury Hill.wav

Peak level 87.0 %
Extraction speed 3.9 X
Track quality 100.0 %
Test CRC 894A8F17
Copy CRC 894A8F17
Accurately ripped (confidence 24) [17A5FDEA] (AR v2)
Copy OK

Track 5

Filename E:\RRCLtd Rip\05-A Little Respect.wav

Peak level 93.2 %
Extraction speed 4.1 X
Track quality 100.0 %
Test CRC 42005F3F
Copy CRC 42005F3F
Accurately ripped (confidence 24) [FDE3B0FE] (AR v2)
Copy OK

Track 6

Filename E:\RRCLtd Rip\06-Chains of Love.wav

Peak level 99.8 %
Extraction speed 4.4 X
Track quality 100.0 %
Test CRC AB8829E7
Copy CRC AB8829E7
Accurately ripped (confidence 24) [76215A64] (AR v2)
Copy OK

Track 7

Filename E:\RRCLtd Rip\07-Take a Chance on Me.wav

Peak level 99.8 %
Extraction speed 4.4 X
Track quality 100.0 %
Test CRC 198F6CE2
Copy CRC 198F6CE2
Accurately ripped (confidence 24) [99B7A6F9] (AR v2)
Copy OK

Track 8

Filename E:\RRCLtd Rip\08-Love to Hate You.wav

Peak level 94.4 %
Extraction speed 4.7 X
Track quality 100.0 %
Test CRC 7226FE07
Copy CRC 7226FE07
Accurately ripped (confidence 24) [23598592] (AR v2)
Copy OK

Track 9

Filename E:\RRCLtd Rip\09-Stop!.wav

Peak level 95.3 %
Extraction speed 4.9 X
Track quality 100.0 %
Test CRC 0D5239BE
Copy CRC 0D5239BE
Accurately ripped (confidence 24) [8D3351A6] (AR v2)
Copy OK

Track 10

Filename E:\RRCLtd Rip\10-Victim of Love.wav

Peak level 99.8 %
Extraction speed 4.9 X
Track quality 100.0 %
Test CRC D550E30D
Copy CRC D550E30D
Accurately ripped (confidence 24) [FB10471D] (AR v2)
Copy OK

Track 11

Filename E:\RRCLtd Rip\11-Blue Savannah.wav

Peak level 99.8 %
Extraction speed 5.1 X
Track quality 100.0 %
Test CRC 957B91F5
Copy CRC 957B91F5
Accurately ripped (confidence 24) [DE4F844E] (AR v2)
Copy OK

Track 12

Filename E:\RRCLtd Rip\12-Always.wav

Peak level 87.0 %
Extraction speed 5.5 X
Track quality 100.0 %
Test CRC C913A848
Copy CRC C913A848
Accurately ripped (confidence 24) [08400A65] (AR v2)
Copy OK

Track 13

Filename E:\RRCLtd Rip\13-Freedom.wav

Peak level 96.8 %
Extraction speed 5.5 X
Track quality 100.0 %
Test CRC BD4D5C19
Copy CRC BD4D5C19
Accurately ripped (confidence 24) [65626BD0] (AR v2)
Copy OK

Track 14

Filename E:\RRCLtd Rip\14-Chorus.wav

Peak level 99.8 %
Extraction speed 5.7 X
Track quality 100.0 %
Test CRC DFFB535C
Copy CRC DFFB535C
Accurately ripped (confidence 24) [B6F0CBA9] (AR v2)
Copy OK

Track 15

Filename E:\RRCLtd Rip\15-Oh L'Amour.wav

Peak level 78.2 %
Extraction speed 5.9 X
Track quality 100.0 %
Test CRC 6520EBA2
Copy CRC 6520EBA2
Accurately ripped (confidence 24) [0D79F5F8] (AR v2)
Copy OK

Track 16

Filename E:\RRCLtd Rip\16-Breath of Life.wav

Peak level 99.8 %
Extraction speed 6.0 X
Track quality 100.0 %
Test CRC 7EB3EC84
Copy CRC 7EB3EC84
Accurately ripped (confidence 24) [5B3E85A7] (AR v2)
Copy OK

Track 17

Filename E:\RRCLtd Rip\17-Sometimes.wav

Peak level 74.9 %
Extraction speed 6.2 X
Track quality 100.0 %
Test CRC 1109C11A
Copy CRC 1109C11A
Accurately ripped (confidence 24) [B75514D9] (AR v2)
Copy OK

Track 18

Filename E:\RRCLtd Rip\18-Ship of Fools.wav

Peak level 80.7 %
Extraction speed 6.1 X
Track quality 100.0 %
Test CRC 96FEC2B6
Copy CRC 96FEC2B6
Accurately ripped (confidence 23) [48895D59] (AR v2)
Copy OK


All tracks accurately ripped

No errors occurred

End of status report

–– CUETools DB Plugin V2.1.6

[CTDB TOCID: NUYmyO7um96D.EAv7buEJnywF3U-] found
Submit result: NUYmyO7um96D.EAv7buEJnywF3U- has been confirmed
Track | CTDB Status
1 | (18/19) Accurately ripped
2 | (19/19) Accurately ripped
3 | (19/19) Accurately ripped
4 | (19/19) Accurately ripped
5 | (19/19) Accurately ripped
6 | (19/19) Accurately ripped
7 | (19/19) Accurately ripped
8 | (19/19) Accurately ripped
9 | (19/19) Accurately ripped
10 | (18/19) Accurately ripped
11 | (19/19) Accurately ripped
12 | (19/19) Accurately ripped
13 | (19/19) Accurately ripped
14 | (18/19) Accurately ripped
15 | (18/19) Accurately ripped
16 | (18/19) Accurately ripped
17 | (19/19) Accurately ripped
18 | (19/19) Accurately ripped


==== Log checksum 59D33D631C71F342F1D8051A0E5B92A62F60A2A5E91E9CCE99A36BD9ED3D5214 ====

[CUETools log; Date: 02.05.2020 20:07:33; Version: 2.1.4]
[CTDB TOCID: NUYmyO7um96D.EAv7buEJnywF3U-] found.
Track | CTDB Status
1 | (66/67) Accurately ripped
2 | (67/67) Accurately ripped
3 | (66/67) Accurately ripped
4 | (67/67) Accurately ripped
5 | (67/67) Accurately ripped
6 | (67/67) Accurately ripped
7 | (67/67) Accurately ripped
8 | (67/67) Accurately ripped
9 | (67/67) Accurately ripped
10 | (66/67) Accurately ripped
11 | (67/67) Accurately ripped
12 | (67/67) Accurately ripped
13 | (67/67) Accurately ripped
14 | (66/67) Accurately ripped
15 | (66/67) Accurately ripped
16 | (66/67) Accurately ripped
17 | (67/67) Accurately ripped
18 | (67/67) Accurately ripped
[AccurateRip ID: 0030d8f4-028564ca-13114d12] found.
Track [ CRC | V2 ] Status
01 [54716c5a|285fffdc] (15+44/59) Accurately ripped
02 [92f21e0c|1485ed51] (14+44/58) Accurately ripped
03 [b0ad036b|221242ee] (15+44/59) Accurately ripped
04 [c20a0df0|17a5fdea] (14+44/58) Accurately ripped
05 [b0b64db8|fde3b0fe] (14+44/58) Accurately ripped
06 [025357c5|76215a64] (15+44/59) Accurately ripped
07 [1cc7a2ba|99b7a6f9] (15+44/59) Accurately ripped
08 [94fe2e9c|23598592] (15+44/59) Accurately ripped
09 [3df55ae2|8d3351a6] (15+44/59) Accurately ripped
10 [64f9bf6b|fb10471d] (15+44/59) Accurately ripped
11 [bf3f5f75|de4f844e] (15+44/59) Accurately ripped
12 [7fb2f304|08400a65] (15+44/59) Accurately ripped
13 [bcc4c36f|65626bd0] (15+44/59) Accurately ripped
14 [b39f5d65|b6f0cba9] (15+43/58) Accurately ripped
15 [4d51f1df|0d79f5f8] (15+43/58) Accurately ripped
16 [895cb05d|5b3e85a7] (15+43/58) Accurately ripped
17 [0bb02584|b75514d9] (15+44/59) Accurately ripped
18 [51ff1f42|48895d59] (13+43/56) Accurately ripped

Track Peak [ CRC32 ] [W/O NULL] [ LOG ]
– 99,8 [61A83F23] [246D745E]
01 99,8 [A6A6A879] [0F23CA7F] CRC32
02 99,8 [24BA31EF] [D92AD614] CRC32
03 84,1 [6ED6CAFF] [D6595E15] CRC32
04 87,0 [894A8F17] [40EE1487] CRC32
05 93,2 [42005F3F] [48ABFCA1] CRC32
06 99,8 [AB8829E7] [58ED9E1E] CRC32
07 99,8 [198F6CE2] [8B49A01C] CRC32
08 94,4 [7226FE07] [E79E13EE] CRC32
09 95,3 [0D5239BE] [E9D67679] CRC32
10 99,8 [D550E30D] [87C34434] CRC32
11 99,8 [957B91F5] [49E2BCA1] CRC32
12 87,0 [C913A848] [9BF235D7] CRC32
13 96,8 [BD4D5C19] [E2059F89] CRC32
14 99,8 [DFFB535C] [3036F03A] CRC32
15 78,2 [6520EBA2] [7BB80E47] CRC32
16 99,8 [7EB3EC84] [68C18455] CRC32
17 74,9 [1109C11A] [479FC5F0] CRC32
18 80,7 [96FEC2B6] [89123D7E] CRC32

Thanks to RRC

See also: