Subcategories
Tags
Language
Tags

Erasure - World Be Gone (2017) [2CD Limited Edition]

Posted By: gribovar
Erasure - World Be Gone (2017) [2CD Limited Edition]

Erasure - World Be Gone (2017) [2CD Limited Edition]
EAC Rip | FLAC (tracks+.cue+log) - 578 MB | MP3 CBR 320 kbps (LAME 3.93) - 201 MB | Covers - 78 MB
Genre: Synthpop | RAR 3% Rec. | Label: Mute (GCDSTUMM405)

Erasure's self-produced 17th studio album, World Be Gone finds the duo honing in on a reflective synth pop befitting the wind-down portion of the dance. Affected by the political upheaval of the period leading up to its release in the spring of 2017, it features a few calls to action amid selections that are more generally about the need for love. The rousing opener, "Love You to the Sky," is a straight-up love song (and classic earworm) that begins with Krupa-like drums, establishing a thumping drumbeat that makes it the closest thing to a club track on the record. More sociopolitical in nature are "Lousy Sum of Nothing," a plea for political engagement and caring, and "Oh What a World." The latter is a darker, gothy entry that opens with the lyrics "I want to be in the witness protection program/I don't like what we've become," later adding "A million voices go unheard/What became of wanting to be free?" It builds to a gospel-tinged chorus for singer Andy Bell, who provides his own choral-style harmonies. "Still It's Not Over" is another song that begs for social change, with "a time for quiet contemplation dying on the steps of city hall." A keyboard ballad with minimal drums, it puts all the focus on Bell's words and the melodic payoff of the chorus. Elsewhere, the lyrics "Please talk to me as if I'm equal" carry a double meaning that works in the context of a relationship or greater society. While the album's tone is certainly restrained, it's hopeful, too; "Sweet Summer Loving" exudes gratitude, and the final track, "Just a Little Love," parts on a bright note and four on the floor. While there's no real dance anthem in the bunch, World Be Gone does deliver on vocals and memorable Vince Clarke melodies, as well as on arrangements that add some oomph to slower tempos. At the time of its release, it seems on point.
CD 1 Tracklist (World Be Gone):
01. Love You To The Sky
02. Be Careful What You Wish For!
03. World Be Gone
04. A Bitter Parting
05. Still It's Not Over
06. Take Me Out Of Myself
07. Sweet Summer Loving
08. Oh What A World
09. Lousy Sum Of Nothing
10. Just A Little Love

Total time: 39:18

CD 2 Tracklist (Love You To The Sky):
01. Love You To The Sky (Radio Mix)
02. Nothing I Could Say
03. Love You To The Sky (Sao Paulo Mix By Ladytron)
04. Love You To The Sky (Vince Clarke Remix)
05. Love You To The Sky (Adam Turner Remix)
06. Love You To The Sky (Matt Pop Remix)
07. Love You To The Sky (Loframes Remix)
08. Love You To The Sky (Adam Turner Dub)

Total time: 43:22

Exact Audio Copy V1.3 from 2. September 2016

EAC extraction logfile from 22. July 2019, 19:35

Erasure / World Be Gone

Used drive : PIONEER DVD-RW DVR-221L Adapter: 1 ID: 1

Read mode : Secure
Utilize accurate stream : Yes
Defeat audio cache : Yes
Make use of C2 pointers : No

Read offset correction : 6
Overread into Lead-In and Lead-Out : No
Fill up missing offset samples with silence : Yes
Delete leading and trailing silent blocks : No
Null samples used in CRC calculations : Yes
Used interface : Native Win32 interface for Win NT & 2000
Gap handling : Appended to previous track

Used output format : User Defined Encoder
Selected bitrate : 1024 kBit/s
Quality : High
Add ID3 tag : No
Command line compressor : C:\Program Files (x86)\Exact Audio Copy\FLAC\FLAC.EXE
Additional command line options : -6 -V -T "COMMENT=Ripped by RRC for new-team org" -T "ARTIST=%artist%" -T "TITLE=%title%" -T "ALBUM=%albumtitle%" -T "DATE=%year%" -T "TRACKNUMBER=%tracknr%" -T "GENRE=%genre%" -T "BAND=%albuminterpret%" -T "ALBUMARTIST=%albuminterpret%" -T "COMPOSER=%composer%" %haslyrics%–tag-from-file=LYRICS="%lyricsfile%"%haslyrics% -T "DISCNUMBER=%cdnumber%" -T "TOTALDISCS=%totalcds%" -T "TOTALTRACKS=%numtracks%" %hascover%–picture="%coverfile%"%hascover% %source%


TOC of the extracted CD

Track | Start | Length | Start sector | End sector
––––––––––––––––––––––––––––-
1 | 0:00.00 | 4:26.64 | 0 | 20013
2 | 4:26.64 | 3:21.16 | 20014 | 35104
3 | 7:48.05 | 3:39.64 | 35105 | 51593
4 | 11:27.69 | 3:13.01 | 51594 | 66069
5 | 14:40.70 | 4:03.17 | 66070 | 84311
6 | 18:44.12 | 4:34.27 | 84312 | 104888
7 | 23:18.39 | 3:55.03 | 104889 | 122516
8 | 27:13.42 | 4:15.58 | 122517 | 141699
9 | 31:29.25 | 4:12.54 | 141700 | 160653
10 | 35:42.04 | 3:36.10 | 160654 | 176863


Track 1

Filename E:\RRCLtd Rip\01-Love You To The Sky.wav

Pre-gap length 0:00:02.00

Peak level 99.7 %
Extraction speed 4.3 X
Track quality 100.0 %
Test CRC D79E20BE
Copy CRC D79E20BE
Accurately ripped (confidence 74) [1D869BBD] (AR v2)
Copy OK

Track 2

Filename E:\RRCLtd Rip\02-Be Careful What You Wish For!.wav

Peak level 99.7 %
Extraction speed 4.7 X
Track quality 100.0 %
Test CRC 817E62DF
Copy CRC 817E62DF
Accurately ripped (confidence 74) [BD29031E] (AR v2)
Copy OK

Track 3

Filename E:\RRCLtd Rip\03-World Be Gone.wav

Peak level 99.7 %
Extraction speed 5.1 X
Track quality 100.0 %
Test CRC 9DAE0FF5
Copy CRC 9DAE0FF5
Accurately ripped (confidence 74) [837D768A] (AR v2)
Copy OK

Track 4

Filename E:\RRCLtd Rip\04-A Bitter Parting.wav

Peak level 99.7 %
Extraction speed 5.3 X
Track quality 100.0 %
Test CRC DD6B76C6
Copy CRC DD6B76C6
Accurately ripped (confidence 74) [6BF28FE7] (AR v2)
Copy OK

Track 5

Filename E:\RRCLtd Rip\05-Still It’s Not Over.wav

Peak level 99.7 %
Extraction speed 5.9 X
Track quality 100.0 %
Test CRC 11EEA047
Copy CRC 11EEA047
Accurately ripped (confidence 74) [3FFE07A9] (AR v2)
Copy OK

Track 6

Filename E:\RRCLtd Rip\06-Take Me Out Of Myself.wav

Peak level 99.7 %
Extraction speed 6.0 X
Track quality 100.0 %
Test CRC 82751D38
Copy CRC 82751D38
Accurately ripped (confidence 74) [87E70D7C] (AR v2)
Copy OK

Track 7

Filename E:\RRCLtd Rip\07-Sweet Summer Loving.wav

Peak level 99.7 %
Extraction speed 5.4 X
Track quality 99.9 %
Test CRC CBFCBF29
Copy CRC CBFCBF29
Accurately ripped (confidence 74) [9E69D9C5] (AR v2)
Copy OK

Track 8

Filename E:\RRCLtd Rip\08-Oh What A World.wav

Peak level 99.7 %
Extraction speed 6.9 X
Track quality 100.0 %
Test CRC 602899C8
Copy CRC 602899C8
Accurately ripped (confidence 74) [C8A6309B] (AR v2)
Copy OK

Track 9

Filename E:\RRCLtd Rip\09-Lousy Sum Of Nothing.wav

Peak level 99.7 %
Extraction speed 7.2 X
Track quality 100.0 %
Test CRC 2B4D0CBD
Copy CRC 2B4D0CBD
Accurately ripped (confidence 74) [CF2D9A40] (AR v2)
Copy OK

Track 10

Filename E:\RRCLtd Rip\10-Just A Little Love.wav

Peak level 99.7 %
Extraction speed 6.0 X
Track quality 99.9 %
Test CRC AC05AB85
Copy CRC AC05AB85
Accurately ripped (confidence 73) [1CC01DCB] (AR v2)
Copy OK


All tracks accurately ripped

No errors occurred

End of status report

–– CUETools DB Plugin V2.1.6

[CTDB TOCID: 1NV9lvkPETG3RUuOqdJ8Z0KIJxg-] found
Submit result: 1NV9lvkPETG3RUuOqdJ8Z0KIJxg- has been confirmed
Track | CTDB Status
1 | (189/189) Accurately ripped
2 | (189/189) Accurately ripped
3 | (189/189) Accurately ripped
4 | (189/189) Accurately ripped
5 | (189/189) Accurately ripped
6 | (189/189) Accurately ripped
7 | (189/189) Accurately ripped
8 | (189/189) Accurately ripped
9 | (189/189) Accurately ripped
10 | (189/189) Accurately ripped


==== Log checksum AB5BBBB1AFF822436E7D7182E0254E67082CBF5F2A710F8CBEA311DE94A67523 ====

[CUETools log; Date: 17.03.2020 21:48:00; Version: 2.1.4]
[CTDB TOCID: 1NV9lvkPETG3RUuOqdJ8Z0KIJxg-] found.
Track | CTDB Status
1 | (210/210) Accurately ripped
2 | (210/210) Accurately ripped
3 | (210/210) Accurately ripped
4 | (210/210) Accurately ripped
5 | (210/210) Accurately ripped
6 | (210/210) Accurately ripped
7 | (210/210) Accurately ripped
8 | (210/210) Accurately ripped
9 | (210/210) Accurately ripped
10 | (210/210) Accurately ripped
[AccurateRip ID: 000eb487-0075f1ed-8209360a] found.
Track [ CRC | V2 ] Status
01 [01874ad1|1d869bbd] (02+84/86) Accurately ripped
02 [ae6c0036|bd29031e] (02+84/86) Accurately ripped
03 [cfab2ab0|837d768a] (02+84/86) Accurately ripped
04 [1ab34a76|6bf28fe7] (02+84/86) Accurately ripped
05 [1a7cdbc8|3ffe07a9] (02+84/86) Accurately ripped
06 [240ee605|87e70d7c] (02+84/86) Accurately ripped
07 [aaf90f2d|9e69d9c5] (02+84/86) Accurately ripped
08 [39b0d051|c8a6309b] (02+84/86) Accurately ripped
09 [e7156710|cf2d9a40] (02+84/86) Accurately ripped
10 [0fd4eec8|1cc01dcb] (02+83/85) Accurately ripped

Track Peak [ CRC32 ] [W/O NULL] [ LOG ]
– 99,7 [40DB851F] [401A74DB]
01 99,7 [D79E20BE] [1060ECD4] CRC32
02 99,7 [817E62DF] [CD8F3336] CRC32
03 99,7 [9DAE0FF5] [4235A08B] CRC32
04 99,7 [DD6B76C6] [74D7130A] CRC32
05 99,7 [11EEA047] [B0F0A57A] CRC32
06 99,7 [82751D38] [C67D0F56] CRC32
07 99,7 [CBFCBF29] [A5ACE473] CRC32
08 99,7 [602899C8] [4B5816D0] CRC32
09 99,7 [2B4D0CBD] [3BC747E7] CRC32
10 99,7 [AC05AB85] [866FA11C] CRC32

Exact Audio Copy V1.3 from 2. September 2016

EAC extraction logfile from 22. July 2019, 20:03

Erasure / Love You To The Sky

Used drive : PIONEER DVD-RW DVR-221L Adapter: 1 ID: 1

Read mode : Secure
Utilize accurate stream : Yes
Defeat audio cache : Yes
Make use of C2 pointers : No

Read offset correction : 6
Overread into Lead-In and Lead-Out : No
Fill up missing offset samples with silence : Yes
Delete leading and trailing silent blocks : No
Null samples used in CRC calculations : Yes
Used interface : Native Win32 interface for Win NT & 2000
Gap handling : Appended to previous track

Used output format : User Defined Encoder
Selected bitrate : 1024 kBit/s
Quality : High
Add ID3 tag : No
Command line compressor : C:\Program Files (x86)\Exact Audio Copy\FLAC\FLAC.EXE
Additional command line options : -6 -V -T "COMMENT=Ripped by RRC for new-team org" -T "ARTIST=%artist%" -T "TITLE=%title%" -T "ALBUM=%albumtitle%" -T "DATE=%year%" -T "TRACKNUMBER=%tracknr%" -T "GENRE=%genre%" -T "BAND=%albuminterpret%" -T "ALBUMARTIST=%albuminterpret%" -T "COMPOSER=%composer%" %haslyrics%–tag-from-file=LYRICS="%lyricsfile%"%haslyrics% -T "DISCNUMBER=%cdnumber%" -T "TOTALDISCS=%totalcds%" -T "TOTALTRACKS=%numtracks%" %hascover%–picture="%coverfile%"%hascover% %source%


TOC of the extracted CD

Track | Start | Length | Start sector | End sector
––––––––––––––––––––––––––––-
1 | 0:00.00 | 3:19.53 | 0 | 14977
2 | 3:19.53 | 3:01.27 | 14978 | 28579
3 | 6:21.05 | 4:51.28 | 28580 | 50432
4 | 11:12.33 | 5:14.70 | 50433 | 74052
5 | 16:27.28 | 7:13.35 | 74053 | 106562
6 | 23:40.63 | 7:02.47 | 106563 | 138259
7 | 30:43.35 | 4:55.02 | 138260 | 160386
8 | 35:38.37 | 7:43.58 | 160387 | 195169


Track 1

Filename E:\RRCLtd Rip\01-Love You To The Sky (Radio Mix).wav

Pre-gap length 0:00:02.00

Peak level 100.0 %
Extraction speed 2.6 X
Track quality 100.0 %
Test CRC 52A82A66
Copy CRC 52A82A66
Accurately ripped (confidence 27) [1E68424A] (AR v2)
Copy OK

Track 2

Filename E:\RRCLtd Rip\02-Nothing I Could Say.wav

Peak level 99.7 %
Extraction speed 2.8 X
Track quality 100.0 %
Test CRC 8FC0D7EA
Copy CRC 8FC0D7EA
Accurately ripped (confidence 27) [A59DD3D1] (AR v2)
Copy OK

Track 3

Filename E:\RRCLtd Rip\03-Love You To The Sky (São Paulo Mix by Ladytron).wav

Peak level 99.9 %
Extraction speed 3.2 X
Track quality 100.0 %
Test CRC F606A830
Copy CRC F606A830
Accurately ripped (confidence 27) [11836BB8] (AR v2)
Copy OK

Track 4

Filename E:\RRCLtd Rip\04-Love You To The Sky (Vince Clarke Remix).wav

Peak level 99.9 %
Extraction speed 3.5 X
Track quality 100.0 %
Test CRC E6FE616E
Copy CRC E6FE616E
Accurately ripped (confidence 27) [4108032D] (AR v2)
Copy OK

Track 5

Filename E:\RRCLtd Rip\05-Love You To The Sky (Adam Turner Remix).wav

Peak level 99.9 %
Extraction speed 4.0 X
Track quality 100.0 %
Test CRC 4E512150
Copy CRC 4E512150
Accurately ripped (confidence 27) [87032751] (AR v2)
Copy OK

Track 6

Filename E:\RRCLtd Rip\06-Love You To The Sky (Matt Pop Remix).wav

Peak level 99.9 %
Extraction speed 3.7 X
Track quality 99.9 %
Test CRC 1362E2C5
Copy CRC 1362E2C5
Accurately ripped (confidence 27) [09E7A3CA] (AR v2)
Copy OK

Track 7

Filename E:\RRCLtd Rip\07-Love You To The Sky (Loframes Remix).wav

Peak level 99.9 %
Extraction speed 4.5 X
Track quality 100.0 %
Test CRC 372E1ADD
Copy CRC 372E1ADD
Accurately ripped (confidence 27) [26F9E972] (AR v2)
Copy OK

Track 8

Filename E:\RRCLtd Rip\08-Love You To The Sky (Adam Turner Dub).wav

Peak level 99.9 %
Extraction speed 5.1 X
Track quality 100.0 %
Test CRC 92FE94A7
Copy CRC 92FE94A7
Accurately ripped (confidence 26) [2E1693C1] (AR v2)
Copy OK


All tracks accurately ripped

No errors occurred

End of status report

–– CUETools DB Plugin V2.1.6

[CTDB TOCID: 1WzemTZ3eAfHfDVMlH7sViB.TO4-] found
Submit result: 1WzemTZ3eAfHfDVMlH7sViB.TO4- has been confirmed
Track | CTDB Status
1 | (49/49) Accurately ripped
2 | (49/49) Accurately ripped
3 | (49/49) Accurately ripped
4 | (49/49) Accurately ripped
5 | (49/49) Accurately ripped
6 | (49/49) Accurately ripped
7 | (49/49) Accurately ripped
8 | (48/49) Accurately ripped


==== Log checksum B9E9F47B2C23AF73D5D47D2D67D796BCD388BA6163AA40C5A363D640B37BD590 ====

[CUETools log; Date: 17.03.2020 21:46:54; Version: 2.1.4]
[CTDB TOCID: 1WzemTZ3eAfHfDVMlH7sViB.TO4-] found.
Track | CTDB Status
1 | (53/53) Accurately ripped
2 | (53/53) Accurately ripped
3 | (53/53) Accurately ripped
4 | (53/53) Accurately ripped
5 | (53/53) Accurately ripped
6 | (53/53) Accurately ripped
7 | (53/53) Accurately ripped
8 | (51/53) Accurately ripped
[AccurateRip ID: 000bb9a8-005165f6-600a2a08] found.
Track [ CRC | V2 ] Status
01 [a69fafc9|1e68424a] (00+31/31) Accurately ripped
02 [9fa0927b|a59dd3d1] (00+31/31) Accurately ripped
03 [382c8e81|11836bb8] (00+31/31) Accurately ripped
04 [f111961b|4108032d] (00+31/31) Accurately ripped
05 [4d1e0954|87032751] (00+31/31) Accurately ripped
06 [b4722e23|09e7a3ca] (00+31/31) Accurately ripped
07 [a3e9ba3b|26f9e972] (00+31/31) Accurately ripped
08 [cdd8b091|2e1693c1] (00+30/30) Accurately ripped

Track Peak [ CRC32 ] [W/O NULL] [ LOG ]
– 100,0 [D5D99B3B] [1C1BDC1C]
01 100,0 [52A82A66] [F2DE5C0D] CRC32
02 99,7 [8FC0D7EA] [598182E6] CRC32
03 99,9 [F606A830] [FBE5D4A3] CRC32
04 99,9 [E6FE616E] [E0FB8F1D] CRC32
05 99,9 [4E512150] [E77EC2CA] CRC32
06 99,9 [1362E2C5] [2F117F1C] CRC32
07 99,9 [372E1ADD] [F401407D] CRC32
08 99,9 [92FE94A7] [2A46EF57] CRC32

Thanks to RRC

See also: