Tags
Language
Tags

Eric Alexander Quartet - Blues At Midnight (2013) {2015, Japanese Reissue}

Posted By: popsakov
Eric Alexander Quartet - Blues At Midnight (2013) {2015, Japanese Reissue}

Eric Alexander Quartet - Blues At Midnight (2013) {2015, Japanese Reissue}
EAC Rip | FLAC (Img) + Cue + Log ~ 495 Mb | MP3 CBR320 ~ 177 Mb
Full Scans | 00:56:50 | RAR 5% Recovery
Jazz | Venus Records #VHCD-78282

Known for his warm tone and robust, bop-informed lyricism, saxophonist Eric Alexander has carried the torch for straight-ahead modern jazz into the 21st century. Influenced by artists like Dexter Gordon and George Coleman, Alexander initially garnered attention playing in Chicago in the early '90s before moving to New York. He has received acclaim for his driving hard bop albums like 1999's Man with a Horn, 2006's It's All in the Game, and 2017's Song of No Regrets. He is a founding member of the all-star sextet One for All, and has played with a bevy of luminaries including Charles Earland, Harold Mabern, Cedar Walton, and many more.

***************

Track List:

01. Sayonara Blues [8:18]
02. Hittin' The Jug [7:58]
03. Willow Weep For Me [6:01]
04. Dis Here [6:15]
05. Is It You [5:31]
06. Caribe [4:59]
07. Dance With Me [5:38]
08. St. Louis Blues [5:04]
09. Edward Lee [7:10]

Exact Audio Copy V1.3 from 2. September 2016

Отчёт EAC об извлечении, выполненном 20. ноября 2021, 15:47

Eric Alexander Quartet / Blues at Midnight

Дисковод: PLEXTOR DVDR PX-755A Adapter: 1 ID: 0

Режим чтения : Достоверность
Использование точного потока : Да
Отключение кэша аудио : Да
Использование указателей C2 : Нет

Коррекция смещения при чтении : 30
Способность читать области Lead-in и Lead-out : Нет
Заполнение пропущенных сэмплов тишиной : Да
Удаление блоков с тишиной в начале и конце : Нет
При вычислениях CRC использовались нулевые сэмплы : Да
Интерфейс : Встроенный Win32-интерфейс для Win NT/2000

Выходной формат : Пользовательский кодировщик
Выбранный битрейт : 128 kBit/s
Качество : Высокий
Добавление ID3-тега : Нет
Утилита сжатия : C:\Program Files (x86)\Exact Audio Copy\Flac\flac.exe
Дополнительные параметры : -V -8 -T "Date=%year%" -T "Genre=%genre%" %source%


TOC извлечённого CD

Трек | Старт | Длительность | Начальный сектор | Конечный сектор
––––––––––––––––––––––––––––––––––-
1 | 0:00.00 | 8:17.25 | 0 | 37299
2 | 8:17.25 | 7:57.21 | 37300 | 73095
3 | 16:14.46 | 6:00.35 | 73096 | 100130
4 | 22:15.06 | 6:14.52 | 100131 | 128232
5 | 28:29.58 | 5:30.36 | 128233 | 153018
6 | 34:00.19 | 4:58.73 | 153019 | 175441
7 | 38:59.17 | 5:37.30 | 175442 | 200746
8 | 44:36.47 | 5:03.42 | 200747 | 223513
9 | 49:40.14 | 7:09.20 | 223514 | 255708


Характеристики диапазона извлечения и сообщения об ошибках

Выбранный диапазон

Имя файла D:\РАЗДАЧА\Eric Alexander Quartet - Blues at Midnight - 2013 [Japan]\Eric Alexander Quartet - Blues at Midnight.wav

Пиковый уровень 100.0 %
Скорость извлечения 2.5 X
Качество диапазона 100.0 %
CRC теста 1273868C
CRC копии 1273868C
Копирование… OK

Ошибок не произошло


AccurateRip: сводка

Трек 1 точность не определена (достоверность 7) [6D4F2B7D], AccurateRip вернул [366ABC7B] (AR v2)
Трек 2 точность не определена (достоверность 10) [9DFAE3F7], AccurateRip вернул [9FCC2724] (AR v2)
Трек 3 точность не определена (достоверность 10) [4E37A916], AccurateRip вернул [58EACE9E] (AR v2)
Трек 4 точность не определена (достоверность 9) [448C6221], AccurateRip вернул [40226FA4] (AR v2)
Трек 5 точность не определена (достоверность 8) [BDE66D57], AccurateRip вернул [312B8279] (AR v2)
Трек 6 точность не определена (достоверность 9) [DEFA8B57], AccurateRip вернул [E49386C9] (AR v2)
Трек 7 точность не определена (достоверность 9) [ABB6B03B], AccurateRip вернул [7D4F6BE0] (AR v2)
Трек 8 точность не определена (достоверность 8) [41B58375], AccurateRip вернул [CF03BD84] (AR v2)
Трек 9 точность не определена (достоверность 7) [76F4C137], AccurateRip вернул [C9146B0D] (AR v2)

Ни один трек не прошёл проверки на точность
В вашей базе может быть иной вариант штамповки диска

Конец отчёта

–– CUETools DB Plugin V2.1.6

[CTDB TOCID: yKh_mX8Sx13dwjjanRcyML9zKRA-] found
Submit result: yKh_mX8Sx13dwjjanRcyML9zKRA- has been confirmed
Track | CTDB Status
1 | (27/27) Accurately ripped
2 | (27/27) Accurately ripped
3 | (26/27) Accurately ripped
4 | (25/27) Accurately ripped
5 | (20/27) Accurately ripped, or (1/27) differs in 2050 samples @02:28:68,02:29:08-02:29:09,02:29:23-02:29:24,02:29:38-02:29:39,02:29:53-02:29:54,02:29:68-02:29:69,02:30:08-02:30:09,02:30:38-02:30:39,02:30:53-02:30:54,02:30:69-02:30:70,02:31:09-02:31:10,02:31:24-02:31:25,02:31:39-02:31:40,02:31:54-02:31:55,02:31:69-02:31:70,02:32:09-02:32:10,02:32:24-02:32:25,02:32:39-02:32:40,02:32:55,02:32:70-02:32:71,02:33:10-02:33:11,02:33:25-02:33:26,02:33:55-02:33:56
6 | (25/27) Accurately ripped
7 | (25/27) Accurately ripped
8 | (24/27) Accurately ripped
9 | (20/27) Accurately ripped, or (1/27) differs in 313 samples @01:44:48,01:45:45-01:45:46,01:46:53-01:46:54,01:47:05,01:48:02-01:48:03,01:48:39,01:51:51


==== Контрольная сумма отчёта 3131F3B389171BAA598B44F1EB3F95B57B52F44FC2908272A5B8DF539EFB4834 ====

All thanks go to pishin

>>> My Blog <<<

DOWNLOAD: