Tags
Language
Tags

Etta James - Tell Mama (1968) [The Original Chess Masters, 1987]

Posted By: Designol
Etta James - Tell Mama (1968) [The Original Chess Masters, 1987]

Etta James - Tell Mama (1968) [The Original Chess Masters, 1987]
XLD | FLAC | Tracks (Cue&Log) ~ 138 Mb | Mp3 (CBR320) ~ 71 Mb | Scans included
Soul, Rhythm & Blues, Soul-Blues | Label: Chess | # CHD-9269 | Time: 00:30:10

Leonard Chess dispatched Etta James to Muscle Shoals in 1967, and the move paid off with one of her best and most soul-searing Cadet albums. Produced by Rick Hall, the resultant album boasted a relentlessly driving title cut, the moving soul ballad "I'd Rather Go Blind," and sizzling covers of Otis Redding's "Security" and Jimmy Hughes' "Don't Lose Your Good Thing," and a pair of fine Don Covay copyrights. The skin-tight session aces at Fame Studios really did themselves proud behind Miss Peaches.

Review by Bill Dahl, Allmusic.com

Etta James - Tell Mama (1968) [The Original Chess Masters, 1987]



Tracklist:

01. Tell Mama (2:23)
02. I'd Rather Go Blind (2:38)
03. Watch Dog (2:10)
04. The Love Of My Man (2:43)
05. I'm Gonna Take What He's Got (2:37)
06. The Same Rope (2:42)
07. Security (2:49)
08. Steal Away (2:22)
09. My Mother-In-Law (2:24)
10. Don't Lose Your Good Things (2:30)
11. It Hurts Me So Much (2:38)
12. Just A Little Bit (2:14)


X Lossless Decoder version 20151214 (149.1)

XLD extraction logfile from 2016-04-30 08:32:29 +1000

Etta James / Tell Mama

Used drive : Apple SuperDrive (revision 2.03)
Media type : Pressed CD

Ripper mode : XLD Secure Ripper
Disable audio cache : OK for the drive with a cache less than 1375KiB
Make use of C2 pointers : NO
Read offset correction : 6
Max retry count : 20
Gap status : Analyzed, Appended (except HTOA)

TOC of the extracted CD
Track | Start | Length | Start sector | End sector
––––––––––––––––––––––––––––-
1 | 00:00:00 | 02:23:32 | 0 | 10756
2 | 02:23:32 | 02:38:08 | 10757 | 22614
3 | 05:01:40 | 02:09:45 | 22615 | 32334
4 | 07:11:10 | 02:43:07 | 32335 | 44566
5 | 09:54:17 | 02:36:45 | 44567 | 56311
6 | 12:30:62 | 02:42:08 | 56312 | 68469
7 | 15:12:70 | 02:49:30 | 68470 | 81174
8 | 18:02:25 | 02:22:07 | 81175 | 91831
9 | 20:24:32 | 02:24:13 | 91832 | 102644
10 | 22:48:45 | 02:29:40 | 102645 | 113859
11 | 25:18:10 | 02:38:12 | 113860 | 125721
12 | 27:56:22 | 02:14:00 | 125722 | 135771

AccurateRip Summary (DiscID: 000d852e-007e73db-8d07120c)
Track 01 : NG (total 2 submissions)
Track 02 : NG (total 2 submissions)
Track 03 : NG (total 2 submissions)
Track 04 : NG (total 2 submissions)
Track 05 : NG (total 2 submissions)
Track 06 : NG (total 2 submissions)
Track 07 : NG (total 2 submissions)
Track 08 : NG (total 2 submissions)
Track 09 : NG (total 2 submissions)
Track 10 : NG (total 2 submissions)
Track 11 : NG (total 2 submissions)
Track 12 : NG (total 2 submissions)
->0 track accurately ripped, 12 tracks not

All Tracks
Album gain : -5.45 dB
Peak : 0.999969
Statistics
Read error : 0
Jitter error (maybe fixed) : 0
Retry sector count : 0
Damaged sector count : 0

Track 01
Filename : /Users/colinpernice/Music/New Rips/Etta James - Tell Mama (1968) [FLAC (level 8)]/01 - Etta James - Tell Mama.flac
/Users/colinpernice/Music/New Rips/Etta James - Tell Mama (1968) [MP3 V0]/01 - Etta James - Tell Mama.mp3
/Users/colinpernice/Music/New Rips/Etta James - Tell Mama (1968) [MP3 V2]/01 - Etta James - Tell Mama.mp3
/Users/colinpernice/Music/New Rips/Etta James - Tell Mama (1968) [MP3 320]/01 - Etta James - Tell Mama.mp3
Pre-gap length : 00:02:00

Track gain : -5.53 dB
Peak : 0.840302
CRC32 hash (test run) : DFF3CBDE
CRC32 hash : DFF3CBDE
CRC32 hash (skip zero) : 72662517
AccurateRip v1 signature : 3EED9C36
AccurateRip v2 signature : 29126294
->Rip may not be accurate (total 2 submissions).
Statistics
Read error : 0
Jitter error (maybe fixed) : 0
Retry sector count : 0
Damaged sector count : 0

Track 02
Filename : /Users/colinpernice/Music/New Rips/Etta James - Tell Mama (1968) [FLAC (level 8)]/02 - Etta James - I'd Rather Go Blind.flac
/Users/colinpernice/Music/New Rips/Etta James - Tell Mama (1968) [MP3 V0]/02 - Etta James - I'd Rather Go Blind.mp3
/Users/colinpernice/Music/New Rips/Etta James - Tell Mama (1968) [MP3 V2]/02 - Etta James - I'd Rather Go Blind.mp3
/Users/colinpernice/Music/New Rips/Etta James - Tell Mama (1968) [MP3 320]/02 - Etta James - I'd Rather Go Blind.mp3
Pre-gap length : 00:03:00

Track gain : -4.19 dB
Peak : 0.709930
CRC32 hash (test run) : 507E7A8E
CRC32 hash : 507E7A8E
CRC32 hash (skip zero) : 351812C9
AccurateRip v1 signature : 99EAC8DB
AccurateRip v2 signature : ECE6D475
->Rip may not be accurate (total 2 submissions).
Statistics
Read error : 0
Jitter error (maybe fixed) : 0
Retry sector count : 0
Damaged sector count : 0

Track 03
Filename : /Users/colinpernice/Music/New Rips/Etta James - Tell Mama (1968) [FLAC (level 8)]/03 - Etta James - Watch Dog.flac
/Users/colinpernice/Music/New Rips/Etta James - Tell Mama (1968) [MP3 V0]/03 - Etta James - Watch Dog.mp3
/Users/colinpernice/Music/New Rips/Etta James - Tell Mama (1968) [MP3 V2]/03 - Etta James - Watch Dog.mp3
/Users/colinpernice/Music/New Rips/Etta James - Tell Mama (1968) [MP3 320]/03 - Etta James - Watch Dog.mp3
Pre-gap length : 00:03:38

Track gain : -5.13 dB
Peak : 0.871613
CRC32 hash (test run) : 80F4E701
CRC32 hash : 80F4E701
CRC32 hash (skip zero) : DFFA07C9
AccurateRip v1 signature : 765E9C08
AccurateRip v2 signature : 6CEF28E0
->Rip may not be accurate (total 2 submissions).
Statistics
Read error : 0
Jitter error (maybe fixed) : 0
Retry sector count : 0
Damaged sector count : 0

Track 04
Filename : /Users/colinpernice/Music/New Rips/Etta James - Tell Mama (1968) [FLAC (level 8)]/04 - Etta James - The Love Of My Man.flac
/Users/colinpernice/Music/New Rips/Etta James - Tell Mama (1968) [MP3 V0]/04 - Etta James - The Love Of My Man.mp3
/Users/colinpernice/Music/New Rips/Etta James - Tell Mama (1968) [MP3 V2]/04 - Etta James - The Love Of My Man.mp3
/Users/colinpernice/Music/New Rips/Etta James - Tell Mama (1968) [MP3 320]/04 - Etta James - The Love Of My Man.mp3
Pre-gap length : 00:03:38

Track gain : -5.13 dB
Peak : 0.732269
CRC32 hash (test run) : 2AF96F82
CRC32 hash : 2AF96F82
CRC32 hash (skip zero) : 516586F8
AccurateRip v1 signature : 1A5D1146
AccurateRip v2 signature : A10EE6C6
->Rip may not be accurate (total 2 submissions).
Statistics
Read error : 0
Jitter error (maybe fixed) : 0
Retry sector count : 0
Damaged sector count : 0

Track 05
Filename : /Users/colinpernice/Music/New Rips/Etta James - Tell Mama (1968) [FLAC (level 8)]/05 - Etta James - I'm Gonna Take What He's Got.flac
/Users/colinpernice/Music/New Rips/Etta James - Tell Mama (1968) [MP3 V0]/05 - Etta James - I'm Gonna Take What He's Got.mp3
/Users/colinpernice/Music/New Rips/Etta James - Tell Mama (1968) [MP3 V2]/05 - Etta James - I'm Gonna Take What He's Got.mp3
/Users/colinpernice/Music/New Rips/Etta James - Tell Mama (1968) [MP3 320]/05 - Etta James - I'm Gonna Take What He's Got.mp3
Pre-gap length : 00:03:22

Track gain : -4.10 dB
Peak : 0.739960
CRC32 hash (test run) : 95B8124D
CRC32 hash : 95B8124D
CRC32 hash (skip zero) : A965C570
AccurateRip v1 signature : 1EF4159E
AccurateRip v2 signature : CB67F779
->Rip may not be accurate (total 2 submissions).
Statistics
Read error : 0
Jitter error (maybe fixed) : 0
Retry sector count : 0
Damaged sector count : 0

Track 06
Filename : /Users/colinpernice/Music/New Rips/Etta James - Tell Mama (1968) [FLAC (level 8)]/06 - Etta James - The Same Rope.flac
/Users/colinpernice/Music/New Rips/Etta James - Tell Mama (1968) [MP3 V0]/06 - Etta James - The Same Rope.mp3
/Users/colinpernice/Music/New Rips/Etta James - Tell Mama (1968) [MP3 V2]/06 - Etta James - The Same Rope.mp3
/Users/colinpernice/Music/New Rips/Etta James - Tell Mama (1968) [MP3 320]/06 - Etta James - The Same Rope.mp3
Pre-gap length : 00:03:12

Track gain : -5.91 dB
Peak : 0.820160
CRC32 hash (test run) : 596BF084
CRC32 hash : 596BF084
CRC32 hash (skip zero) : E6E5B3EF
AccurateRip v1 signature : 79E965D4
AccurateRip v2 signature : 43BEB53B
->Rip may not be accurate (total 2 submissions).
Statistics
Read error : 0
Jitter error (maybe fixed) : 0
Retry sector count : 0
Damaged sector count : 0

Track 07
Filename : /Users/colinpernice/Music/New Rips/Etta James - Tell Mama (1968) [FLAC (level 8)]/07 - Etta James - Security.flac
/Users/colinpernice/Music/New Rips/Etta James - Tell Mama (1968) [MP3 V0]/07 - Etta James - Security.mp3
/Users/colinpernice/Music/New Rips/Etta James - Tell Mama (1968) [MP3 V2]/07 - Etta James - Security.mp3
/Users/colinpernice/Music/New Rips/Etta James - Tell Mama (1968) [MP3 320]/07 - Etta James - Security.mp3
Pre-gap length : 00:02:00

Track gain : -5.92 dB
Peak : 0.999969
CRC32 hash (test run) : 86AEA47A
CRC32 hash : 86AEA47A
CRC32 hash (skip zero) : 76FA9624
AccurateRip v1 signature : 903619A0
AccurateRip v2 signature : AA0E2576
->Rip may not be accurate (total 2 submissions).
Statistics
Read error : 0
Jitter error (maybe fixed) : 0
Retry sector count : 0
Damaged sector count : 0

Track 08
Filename : /Users/colinpernice/Music/New Rips/Etta James - Tell Mama (1968) [FLAC (level 8)]/08 - Etta James - Steal Away.flac
/Users/colinpernice/Music/New Rips/Etta James - Tell Mama (1968) [MP3 V0]/08 - Etta James - Steal Away.mp3
/Users/colinpernice/Music/New Rips/Etta James - Tell Mama (1968) [MP3 V2]/08 - Etta James - Steal Away.mp3
/Users/colinpernice/Music/New Rips/Etta James - Tell Mama (1968) [MP3 320]/08 - Etta James - Steal Away.mp3
Pre-gap length : 00:03:63

Track gain : -5.93 dB
Peak : 0.827759
CRC32 hash (test run) : FE91CBF1
CRC32 hash : FE91CBF1
CRC32 hash (skip zero) : 75FAC858
AccurateRip v1 signature : 7B3129B1
AccurateRip v2 signature : 51DBF5E5
->Rip may not be accurate (total 2 submissions).
Statistics
Read error : 0
Jitter error (maybe fixed) : 0
Retry sector count : 0
Damaged sector count : 0

Track 09
Filename : /Users/colinpernice/Music/New Rips/Etta James - Tell Mama (1968) [FLAC (level 8)]/09 - Etta James - My Mother-In-Law.flac
/Users/colinpernice/Music/New Rips/Etta James - Tell Mama (1968) [MP3 V0]/09 - Etta James - My Mother-In-Law.mp3
/Users/colinpernice/Music/New Rips/Etta James - Tell Mama (1968) [MP3 V2]/09 - Etta James - My Mother-In-Law.mp3
/Users/colinpernice/Music/New Rips/Etta James - Tell Mama (1968) [MP3 320]/09 - Etta James - My Mother-In-Law.mp3
Pre-gap length : 00:03:15

Track gain : -5.81 dB
Peak : 0.932068
CRC32 hash (test run) : 34134B14
CRC32 hash : 34134B14
CRC32 hash (skip zero) : D5B1F571
AccurateRip v1 signature : CCA42455
AccurateRip v2 signature : 6C0BBF37
->Rip may not be accurate (total 2 submissions).
Statistics
Read error : 0
Jitter error (maybe fixed) : 0
Retry sector count : 0
Damaged sector count : 0

Track 10
Filename : /Users/colinpernice/Music/New Rips/Etta James - Tell Mama (1968) [FLAC (level 8)]/10 - Etta James - Don't Lose Your Good Things.flac
/Users/colinpernice/Music/New Rips/Etta James - Tell Mama (1968) [MP3 V0]/10 - Etta James - Don't Lose Your Good Things.mp3
/Users/colinpernice/Music/New Rips/Etta James - Tell Mama (1968) [MP3 V2]/10 - Etta James - Don't Lose Your Good Things.mp3
/Users/colinpernice/Music/New Rips/Etta James - Tell Mama (1968) [MP3 320]/10 - Etta James - Don't Lose Your Good Things.mp3
Pre-gap length : 00:03:30

Track gain : -5.64 dB
Peak : 0.779205
CRC32 hash (test run) : E495FC5A
CRC32 hash : E495FC5A
CRC32 hash (skip zero) : 84AD8A59
AccurateRip v1 signature : D4BF58EF
AccurateRip v2 signature : 3DCCF9B6
->Rip may not be accurate (total 2 submissions).
Statistics
Read error : 0
Jitter error (maybe fixed) : 0
Retry sector count : 0
Damaged sector count : 0

Track 11
Filename : /Users/colinpernice/Music/New Rips/Etta James - Tell Mama (1968) [FLAC (level 8)]/11 - Etta James - It Hurts Me So Much.flac
/Users/colinpernice/Music/New Rips/Etta James - Tell Mama (1968) [MP3 V0]/11 - Etta James - It Hurts Me So Much.mp3
/Users/colinpernice/Music/New Rips/Etta James - Tell Mama (1968) [MP3 V2]/11 - Etta James - It Hurts Me So Much.mp3
/Users/colinpernice/Music/New Rips/Etta James - Tell Mama (1968) [MP3 320]/11 - Etta James - It Hurts Me So Much.mp3
Pre-gap length : 00:03:18

Track gain : -5.50 dB
Peak : 0.737274
CRC32 hash (test run) : 04B7C509
CRC32 hash : 04B7C509
CRC32 hash (skip zero) : D569A385
AccurateRip v1 signature : B2ACE100
AccurateRip v2 signature : 053E30B5
->Rip may not be accurate (total 2 submissions).
Statistics
Read error : 0
Jitter error (maybe fixed) : 0
Retry sector count : 0
Damaged sector count : 0

Track 12
Filename : /Users/colinpernice/Music/New Rips/Etta James - Tell Mama (1968) [FLAC (level 8)]/12 - Etta James - Just A Little Bit.flac
/Users/colinpernice/Music/New Rips/Etta James - Tell Mama (1968) [MP3 V0]/12 - Etta James - Just A Little Bit.mp3
/Users/colinpernice/Music/New Rips/Etta James - Tell Mama (1968) [MP3 V2]/12 - Etta James - Just A Little Bit.mp3
/Users/colinpernice/Music/New Rips/Etta James - Tell Mama (1968) [MP3 320]/12 - Etta James - Just A Little Bit.mp3
Pre-gap length : 00:03:32

Track gain : -4.64 dB
Peak : 0.761017
CRC32 hash (test run) : 2CCBB87F
CRC32 hash : 2CCBB87F
CRC32 hash (skip zero) : CE0D1F43
AccurateRip v1 signature : 5511EABC
AccurateRip v2 signature : 1387D98B
->Rip may not be accurate (total 2 submissions).
Statistics
Read error : 0
Jitter error (maybe fixed) : 0
Retry sector count : 0
Damaged sector count : 0

No errors occurred

End of status report

––-BEGIN XLD SIGNATURE––-
e1c2LBsEgJEDFLhf2uiilATqC8gxVT825nVu_4TaMovyiRuMAeUXAC4Iqu_UPnBZuLkXZJbBfamFRsdb7kMmU3kLUsfbsH3qhSnYDn4
––-END XLD SIGNATURE––-

[CUETools log; Date: 11.05.2018 19:42:56; Version: 2.1.4]
[CTDB TOCID: N983ZrCHPBxjm8TIbbAuoXiVLrk-] found.
Track | CTDB Status
1 | (6/6) Accurately ripped
2 | (6/6) Accurately ripped
3 | (6/6) Accurately ripped
4 | (6/6) Accurately ripped
5 | (6/6) Accurately ripped
6 | (6/6) Accurately ripped
7 | (6/6) Accurately ripped
8 | (6/6) Accurately ripped
9 | (6/6) Accurately ripped
10 | (6/6) Accurately ripped
11 | (6/6) Accurately ripped
12 | (6/6) Accurately ripped
[AccurateRip ID: 000d852e-007e73db-8d07120c] found.
Track [ CRC | V2 ] Status
01 [3eed9c36|29126294] (0+0/2) No match
02 [99eac8db|ece6d475] (0+0/2) No match
03 [765e9c08|6cef28e0] (0+0/2) No match
04 [1a5d1146|a10ee6c6] (0+0/2) No match
05 [1ef4159e|cb67f779] (0+0/2) No match
06 [79e965d4|43beb53b] (0+0/2) No match
07 [903619a0|aa0e2576] (0+0/2) No match
08 [7b3129b1|51dbf5e5] (0+0/2) No match
09 [cca42455|6c0bbf37] (0+0/2) No match
10 [d4bf58ef|3dccf9b6] (0+0/2) No match
11 [b2ace100|053e30b5] (0+0/2) No match
12 [5511eabc|1387d98b] (0+0/2) No match
Offsetted by -880:
01 [b6cd3b11] (1/2) Accurately ripped
02 [c61d9ca9] (1/2) Accurately ripped
03 [c5fed449] (1/2) Accurately ripped
04 [fc38d936] (1/2) Accurately ripped
05 [a58d4b9e] (1/2) Accurately ripped
06 [7e72d2c3] (1/2) Accurately ripped
07 [90a99615] (1/2) Accurately ripped
08 [6317b952] (1/2) Accurately ripped
09 [b84b481e] (1/2) Accurately ripped
10 [6474a431] (1/2) Accurately ripped
11 [936762e7] (1/2) Accurately ripped
12 [91cc03cf] (1/2) Accurately ripped

Track Peak [ CRC32 ] [W/O NULL]
– 100,0 [442797A0] [75A1EEA1]
01 84,0 [DFF3CBDE] [72662517]
02 70,9 [507E7A8E] [351812C9]
03 87,1 [80F4E701] [DFFA07C9]
04 73,2 [2AF96F82] [516586F8]
05 73,9 [95B8124D] [A965C570]
06 82,0 [596BF084] [E6E5B3EF]
07 100,0 [86AEA47A] [76FA9624]
08 82,7 [FE91CBF1] [75FAC858]
09 93,2 [34134B14] [D5B1F571]
10 77,9 [E495FC5A] [84AD8A59]
11 73,7 [04B7C509] [D569A385]
12 76,1 [2CCBB87F] [CE0D1F43]

foobar2000 1.2 / Dynamic Range Meter 1.1.1
log date: 2018-05-11 19:43:35

––––––––––––––––––––––––––––––––––––––––
Analyzed: Etta James / Tell Mama
––––––––––––––––––––––––––––––––––––––––

DR Peak RMS Duration Track
––––––––––––––––––––––––––––––––––––––––
DR11 -1.51 dB -14.33 dB 2:23 01-Tell Mama
DR11 -2.98 dB -15.12 dB 2:38 02-I'd Rather Go Blind
DR11 -1.19 dB -13.45 dB 2:10 03-Watch Dog
DR11 -2.71 dB -15.25 dB 2:43 04-The Love Of My Man
DR11 -2.62 dB -15.48 dB 2:37 05-I'm Gonna Take What He's Got
DR11 -1.72 dB -14.01 dB 2:42 06-The Same Rope
DR12 0.00 dB -13.55 dB 2:49 07-Security
DR11 -1.64 dB -13.62 dB 2:22 08-Steal Away
DR12 -0.61 dB -13.07 dB 2:24 09-My Mother-In-Law
DR10 -2.17 dB -14.28 dB 2:30 10-Don't Lose Your Good Things
DR10 -2.65 dB -14.51 dB 2:38 11-It Hurts Me So Much
DR12 -2.37 dB -15.25 dB 2:14 12-Just A Little Bit
––––––––––––––––––––––––––––––––––––––––

Number of tracks: 12
Official DR value: DR11

Samplerate: 44100 Hz
Channels: 2
Bits per sample: 16
Bitrate: 615 kbps
Codec: FLAC
================================================================================

Etta James - Tell Mama (1968) [The Original Chess Masters, 1987]

Etta James - Tell Mama (1968) [The Original Chess Masters, 1987]