Subcategories
Tags
Language
Tags

Extreme - Extreme (1989) [Japan SHM-CD, 2012]

Posted By: Andi_Deris
Extreme - Extreme (1989) [Japan SHM-CD, 2012]

Extreme - Extreme (1989) [Japan SHM-CD, 2012]
EAC Rip | FLAC: Image+Cue+Log | 320 Mb | MP3 CBR 320 kbps | 117 Mb | Scans | 40 Mb | Time: 45:07
A&M Records/Universal Music Japan | UICY-25145
Funk Metal, Hard Rock

Extreme is the first studio album of Boston funk-metal band Extreme, released on March 14, 1989. Being released on a major label, the album sold modestly well at around 300,000 units. It produced four singles: "Little Girls", "Kid Ego", "Mutha (Don't Wanna Go to School Today)" and the radio-only "Play with Me". It was not until their next album, Pornograffitti, that the band become well known.

Extreme - Extreme (1989) [Japan SHM-CD, 2012]




Track Listing

01. Little Girls (03:48)
02. Wind Me Up (03:38)
03. Kid Ego (04:05)
04. Watching, Waiting (04:55)
05. Mutha (Don't Wanna Go To School Today) (04:52)
06. Teacher's Pet (03:02)
07. Big Boys Don't Cry (03:34)
08. Smoke Signals (04:14)
09. Flesh 'n' Blood (03:32)
10. Rock A Bye Bye (05:57)
11. Play With Me (03:30)

Produced by Mack & Extreme

The Band

• Pat Badger - bass guitar, backing vocals
• Nuno Bettencourt - guitar, synthesizer, piano, backing vocals, percussion, orchestration
Gary Cherone - lead & backing vocals
• Paul Geary - drums, percussion, backing vocals

*****
• The Lollipop Kids - background vocals (tracks 5, 11)
• Rapheal May - harmonica

Notes

Reissue from Extreme featuring the high-fidelity SHM-CD format (compatible with standard CD players). Part of a three-album Extreme reissue series featuring albums "Extreme," "Pornograffitti," and "III Sides To Every Story."

Exact Audio Copy V1.1 from 23. June 2015

EAC extraction logfile from 22. May 2017, 17:52

Extreme / Extreme

Used drive : ASUS DRW-24B1ST Adapter: 1 ID: 1

Read mode : Secure
Utilize accurate stream : Yes
Defeat audio cache : Yes
Make use of C2 pointers : No

Read offset correction : 6
Overread into Lead-In and Lead-Out : No
Fill up missing offset samples with silence : Yes
Delete leading and trailing silent blocks : No
Null samples used in CRC calculations : Yes
Used interface : Native Win32 interface for Win NT & 2000

Used output format : User Defined Encoder
Selected bitrate : 1024 kBit/s
Quality : High
Add ID3 tag : No
Command line compressor : C:\Program Files (x86)\Exact Audio Copy\Flac\flac.exe
Additional command line options : -V -8 -T "Genre=%genre%" -T "Artist=%artist%" -T "Title=%title%" -T "Album=%albumtitle%" -T "Date=%year%" -T "Tracknumber=%tracknr%" -T "Comment=%comment%" %source%


TOC of the extracted CD

Track | Start | Length | Start sector | End sector
––––––––––––––––––––––––––––-
1 | 0:00.00 | 3:47.57 | 0 | 17081
2 | 3:47.57 | 3:37.35 | 17082 | 33391
3 | 7:25.17 | 4:04.63 | 33392 | 51754
4 | 11:30.05 | 4:54.67 | 51755 | 73871
5 | 16:24.72 | 4:52.00 | 73872 | 95771
6 | 21:16.72 | 3:02.03 | 95772 | 109424
7 | 24:19.00 | 3:34.00 | 109425 | 125474
8 | 27:53.00 | 4:14.15 | 125475 | 144539
9 | 32:07.15 | 3:32.02 | 144540 | 160441
10 | 35:39.17 | 5:57.10 | 160442 | 187226
11 | 41:36.27 | 3:29.48 | 187227 | 202949


Range status and errors

Selected range

Filename E:\# MY\# Подготовка раздач\Extreme\1989 - Extreme (2012 SHM-CD) (A&M REcords, UICY-25145, Japan)\Extreme - Extreme.wav

Peak level 97.7 %
Extraction speed 5.2 X
Range quality 100.0 %
Test CRC CC59D12F
Copy CRC CC59D12F
Copy OK

No errors occurred


AccurateRip summary

Track 1 cannot be verified as accurate (confidence 2) [E45D8F4C], AccurateRip returned [51054B25] (AR v2)
Track 2 cannot be verified as accurate (confidence 2) [BE218E98], AccurateRip returned [D11B02D2] (AR v2)
Track 3 cannot be verified as accurate (confidence 2) [B4D62CCF], AccurateRip returned [EE5AD9F0] (AR v2)
Track 4 cannot be verified as accurate (confidence 2) [6FC465CD], AccurateRip returned [C1F533F7] (AR v2)
Track 5 cannot be verified as accurate (confidence 2) [28BA946B], AccurateRip returned [E8C0A436] (AR v2)
Track 6 cannot be verified as accurate (confidence 2) [B7F9F166], AccurateRip returned [4ECC4962] (AR v2)
Track 7 cannot be verified as accurate (confidence 2) [038D0224], AccurateRip returned [0AEA2ECA] (AR v2)
Track 8 cannot be verified as accurate (confidence 2) [8DB2759E], AccurateRip returned [4859704B] (AR v2)
Track 9 cannot be verified as accurate (confidence 2) [5C8376DD], AccurateRip returned [5EB4FFE1] (AR v2)
Track 10 cannot be verified as accurate (confidence 2) [7FCA39F8], AccurateRip returned [028FC5FE] (AR v2)
Track 11 cannot be verified as accurate (confidence 2) [D1DF7308], AccurateRip returned [4CF633C5] (AR v2)

No tracks could be verified as accurate
You may have a different pressing from the one(s) in the database

End of status report

–– CUETools DB Plugin V2.1.6

[CTDB TOCID: SR8QX415DnACnfqZ9SV0Wd1uq3U-] found
Submit result: SR8QX415DnACnfqZ9SV0Wd1uq3U- has been confirmed
Track | CTDB Status
1 | (11/11) Accurately ripped
2 | (10/11) Accurately ripped
3 | (11/11) Accurately ripped
4 | (11/11) Accurately ripped
5 | (11/11) Accurately ripped
6 | (11/11) Accurately ripped
7 | (10/11) Accurately ripped
8 | (11/11) Accurately ripped
9 | (11/11) Accurately ripped
10 | (11/11) Accurately ripped
11 | (10/11) Accurately ripped


==== Log checksum E75B934C0FE3B052BE8A192DC0AC5F11895CB3609ECCD70135F462466AEC48E9 ====


Many thanks to the original uploader: Ginger Devil