Tags
Language
Tags

Fleetwood Mac - Blues Jam In Chicago: Volumes 1 & 2 (2004) {Remastered}

Posted By:
Fleetwood Mac - Blues Jam In Chicago: Volumes 1 & 2 (2004) {Remastered}

Fleetwood Mac - Blues Jam In Chicago: Volumes 1 & 2 (2004) {Remastered}
EAC Rip | WavPack (Img) + Cue + Log ~ 966 Mb | MP3 CBR320 ~ 422 Mb
Full Scans | 01:08:23 + 01:15:50 | RAR 5% Recovery
Chicago Blues | Columbia / Blue Horizon #5164462 / 5164472

Blues Jam In Chicago: Volume 1 — 2004 remastered reissue of 1969 album featuring Otis Spann, Shakey Horton, Honeyboy Edwards, J.T. Brown, Guitar Buddy, S.P. Leary, & Willie Dixon, features 15 tracks including 3 bonus tracks, 'Red Hot Jam' (Take 1), 'Bobby's Rock', & 'Horton's Boogie Woogie' (Take 1). Blues Jam In Chicago: Volume 2 — 2004 remastered reissue of 1970 album featuring Otis Spann, J.T. Brown, Honeyboy Edwards, J.P. Leary & Willie Dixon, features 18 tracks including 7 bonus tracks, 'My Baby's Gone', 'Sugar Mama' (Take 1), 'Honey Boy Blues', 'I Need Your Love' (Take 1), 'Horton's Boogie Woogie' (Take 2), 'Have A Good Time', 'That's Wrong', & 'Rock Me Baby'. Both editions includes expanded booklets with detailed notes & photos.
***************

Fleetwood Mac - Blues Jam In Chicago: Volumes 1 & 2 (2004) {Remastered}

Fleetwood Mac - Blues Jam In Chicago: Volume One (2004) {Remastered}

This set, recorded at Chess Record's Ter-Mar complex in Chicago, pairs Peter Green's Fleetwood Mac with some of the Windy City's blues legends including Willie Dixon, Otis Spann, Buddy Guy, and David "Honeyboy" Edwards. Put together on short notice, and recorded in one day, the sessions have something of a ramshackle feel, but the energy of the performances transcends any shortcomings on this date. Dixon oversaw the proceedings, and can be heard during the between-song banter giving directions and chastising Walter "Shakey" Horton for missing his cues.

Since the Peter Green-led Fleetwood Mac was so directly influenced by Chicago blues, the session acts as a kind of stylistic homecoming for the band. Bassist John McVie and drummer Mick Fleetwood contribute driving rhythms while guitarists Danny Kirwan and Jeremy Spencer lend both rhythms and the occasional lead. Green's stunningly fluid guitar work is at the fore, as usual. But the real treat is picking out the Chess players–Otis Spann's piano on "I Got the Blues," J.T. Brown's tenor sax on Elmore James's "I Can't Hold Out," or Guy and Edwards, who go toe-to-toe with Green on "Red Hot Jam," one of the session's indisputable highlights.

~ All Music

Fleetwood Mac - Blues Jam In Chicago: Volumes 1 & 2 (2004) {Remastered}

Track List:

01. Watch Out [4:20]
02. Ooh Baby [4:05]
03. South Indiana - Take 1 [3:21]
04. South Indiana - Take 2 [3:47]
05. Last Night [5:01]
06. Red Hot Jam - Take 1 - Previously Unissued With Studio Talk [5:55]
07. Red Hot Jam [6:02]
08. I'm Worried [3:47]
09. I Held My Baby Last Night [5:16]
10. Madison Blues [4:55]
11. I Can't Hold Out [4:49]
12. Bobby's Rock [4:00]
13. I Need Your Love [4:32]
14. Horton's Boogie Woogie [3:37]
15. I Got The Blues [4:55]

Exact Audio Copy V1.0 beta 3 from 29. August 2011

EAC extraction logfile from 13. July 2012, 7:54

Fleetwood Mac / The Complete Blue Horizon Sessions

Used drive : HL-DT-STBDDVDRW GBC-H20N Adapter: 1 ID: 0

Read mode : Secure
Utilize accurate stream : Yes
Defeat audio cache : Yes
Make use of C2 pointers : No

Read offset correction : 667
Overread into Lead-In and Lead-Out : No
Fill up missing offset samples with silence : Yes
Delete leading and trailing silent blocks : No
Null samples used in CRC calculations : Yes
Used interface : Native Win32 interface for Win NT & 2000

Used output format : User Defined Encoder
Selected bitrate : 1024 kBit/s
Quality : High
Add ID3 tag : No
Command line compressor : C:\Program Files\Exact Audio Copy\wavpack.exe
Additional command line options : -hm %source% %dest%


TOC of the extracted CD

Track | Start | Length | Start sector | End sector
––––––––––––––––––––––––––––-
1 | 0:00.00 | 4:20.00 | 0 | 19499
2 | 4:20.00 | 4:05.35 | 19500 | 37909
3 | 8:25.35 | 3:21.00 | 37910 | 52984
4 | 11:46.35 | 3:46.67 | 52985 | 70001
5 | 15:33.27 | 5:01.18 | 70002 | 92594
6 | 20:34.45 | 5:55.12 | 92595 | 119231
7 | 26:29.57 | 6:02.28 | 119232 | 146409
8 | 32:32.10 | 3:46.55 | 146410 | 163414
9 | 36:18.65 | 5:16.00 | 163415 | 187114
10 | 41:34.65 | 4:55.37 | 187115 | 209276
11 | 46:30.27 | 4:48.68 | 209277 | 230944
12 | 51:19.20 | 3:59.42 | 230945 | 248911
13 | 55:18.62 | 4:31.58 | 248912 | 269294
14 | 59:50.45 | 3:37.22 | 269295 | 285591
15 | 63:27.67 | 4:54.70 | 285592 | 307711


Range status and errors

Selected range

Filename C:\Users\ProgDog\Music\Fleetwood Mac - Blues Jam In Chicago\Fleetwood Mac - The Complete Blue Horizon Sessions.wav

Peak level 96.6 %
Extraction speed 6.2 X
Range quality 100.0 %
Test CRC 57D80386
Copy CRC 57D80386
Copy OK

No errors occurred


AccurateRip summary

Track 1 accurately ripped (confidence 15) [F7EA823C] (AR v1)
Track 2 accurately ripped (confidence 15) [8A673137] (AR v1)
Track 3 accurately ripped (confidence 15) [5D2541EC] (AR v1)
Track 4 accurately ripped (confidence 15) [7B9D5F20] (AR v1)
Track 5 accurately ripped (confidence 15) [C95EEC4A] (AR v1)
Track 6 accurately ripped (confidence 15) [091B9835] (AR v1)
Track 7 accurately ripped (confidence 15) [E9BA77D3] (AR v1)
Track 8 accurately ripped (confidence 15) [FA0E38E5] (AR v1)
Track 9 accurately ripped (confidence 15) [DEE65B93] (AR v1)
Track 10 accurately ripped (confidence 15) [C320D4FF] (AR v1)
Track 11 accurately ripped (confidence 15) [17718C23] (AR v1)
Track 12 accurately ripped (confidence 15) [F5734CE3] (AR v1)
Track 13 accurately ripped (confidence 15) [0DDF054B] (AR v1)
Track 14 accurately ripped (confidence 15) [35781201] (AR v1)
Track 15 accurately ripped (confidence 15) [40B09C02] (AR v1)

All tracks accurately ripped

End of status report

–– CUETools DB Plugin V2.1.3

[CTDB TOCID: FFYLNb.GMFKlFqJzo75TzF4cChY-] found, Submit result: FFYLNb.GMFKlFqJzo75TzF4cChY- has been confirmed
[6d833559] (33/33) Accurately ripped


==== Log checksum 7F157577FA33F33E8C9D8ED52F7BBA31A28BFD0C071E94777337C802263E8E88 ====

foobar2000 1.4 / Dynamic Range Meter 1.1.1
log date: 2019-12-04 15:35:21

––––––––––––––––––––––––––––––––––––––––
Analyzed: Fleetwood Mac / Blues Jam In Chicago Volume One
––––––––––––––––––––––––––––––––––––––––

DR Peak RMS Duration Track
––––––––––––––––––––––––––––––––––––––––
DR10 -0.42 dB -12.32 dB 4:20 01-Watch Out
DR10 -0.35 dB -12.36 dB 4:05 02-Ooh Baby
DR9 -0.65 dB -11.45 dB 3:21 03-South Indiana - Take 1
DR9 -0.95 dB -13.12 dB 3:47 04-South Indiana - Take 2
DR10 -0.43 dB -13.70 dB 5:01 05-Last Night
DR9 -0.56 dB -13.05 dB 5:55 06-Red Hot Jam - Take 1 - Previously Unissued With Studio Talk
DR10 -0.29 dB -12.59 dB 6:02 07-Red Hot Jam
DR10 -0.60 dB -12.16 dB 3:47 08-I'm Worried
DR12 -0.99 dB -15.53 dB 5:16 09-I Held My Baby Last Night
DR10 -0.39 dB -12.26 dB 4:55 10-Madison Blues
DR10 -0.84 dB -13.32 dB 4:49 11-I Can't Hold Out
DR11 -0.84 dB -13.51 dB 4:00 12-Bobby's Rock
DR9 -0.75 dB -12.81 dB 4:32 13-I Need Your Love
DR9 -1.23 dB -13.25 dB 3:37 14-Horton's Boogie Woogie
DR9 -0.79 dB -12.87 dB 4:55 15-I Got The Blues
––––––––––––––––––––––––––––––––––––––––

Number of tracks: 15
Official DR value: DR10

Samplerate: 44100 Hz
Channels: 2
Bits per sample: 16
Bitrate: 838 kbps
Codec: WavPack
================================================================================

[CUETools log; Date: 04.12.2019 15:35:21; Version: 2.1.6]
[CTDB TOCID: FFYLNb.GMFKlFqJzo75TzF4cChY-] found.
Track | CTDB Status
1 | (136/137) Accurately ripped
2 | (136/137) Accurately ripped
3 | (136/137) Accurately ripped
4 | (136/137) Accurately ripped
5 | (136/137) Accurately ripped
6 | (136/137) Accurately ripped
7 | (136/137) Accurately ripped
8 | (136/137) Accurately ripped
9 | (135/137) Accurately ripped
10 | (135/137) Accurately ripped
11 | (135/137) Accurately ripped
12 | (135/137) Accurately ripped
13 | (136/137) Accurately ripped
14 | (135/137) Accurately ripped
15 | (137/137) Accurately ripped
[AccurateRip ID: 00253ec1-01a9caad-d610060f] found.
Track [ CRC | V2 ] Status
01 [f7ea823c|3fa2fa7e] (016+035/109) Accurately ripped
02 [8a673137|5d20746d] (016+035/110) Accurately ripped
03 [5d2541ec|0507ef8b] (016+035/110) Accurately ripped
04 [7b9d5f20|f90e7d11] (016+035/110) Accurately ripped
05 [c95eec4a|6cd89d6a] (016+035/110) Accurately ripped
06 [091b9835|dd244f03] (016+034/109) Accurately ripped
07 [e9ba77d3|aaa79387] (016+035/110) Accurately ripped
08 [fa0e38e5|8a3068d2] (016+035/110) Accurately ripped
09 [dee65b93|179e0e66] (016+035/110) Accurately ripped
10 [c320d4ff|43f74cc8] (016+035/110) Accurately ripped
11 [17718c23|b35d32a6] (016+035/110) Accurately ripped
12 [f5734ce3|fc21ff73] (016+034/109) Accurately ripped
13 [0ddf054b|de401dc4] (016+035/110) Accurately ripped
14 [35781201|8dc826d3] (016+034/109) Accurately ripped
15 [40b09c02|5f4dd9eb] (016+035/110) Accurately ripped
Offsetted by -26:
01 [f51b9881] (017/109) Accurately ripped
02 [26f963ac] (018/110) Accurately ripped
03 [97725218] (018/110) Accurately ripped
04 [b36cf1f3] (018/110) Accurately ripped
05 [a83e8542] (018/110) Accurately ripped
06 [b86c14e1] (018/109) Accurately ripped
07 [53b822e4] (018/110) Accurately ripped
08 [fc3366fc] (018/110) Accurately ripped
09 [9f81b018] (018/110) Accurately ripped
10 [3c11ec9e] (018/110) Accurately ripped
11 [d1ce27fa] (018/110) Accurately ripped
12 [54720567] (018/109) Accurately ripped
13 [bfbb59a3] (018/110) Accurately ripped
14 [9d50cf07] (018/109) Accurately ripped
15 [f59c5e28] (018/110) Accurately ripped
Offsetted by -662:
01 [bbe12bf2] (000/109) No match (V2 was not tested)
02 [f0c71125] (000/110) No match (V2 was not tested)
03 [4e50b285] (000/110) No match (V2 was not tested)
04 [f3d242de] (000/110) No match (V2 was not tested)
05 [d105aed0] (000/110) No match (V2 was not tested)
06 [4dda1198] (000/109) No match (V2 was not tested)
07 [270d6f00] (000/110) No match (V2 was not tested)
08 [979e3d3b] (000/110) No match (V2 was not tested)
09 [c171dffe] (000/110) No match (V2 was not tested)
10 [1721b11f] (000/110) No match (V2 was not tested)
11 [0ab1372e] (000/110) No match (V2 was not tested)
12 [0d995369] (000/109) No match (V2 was not tested)
13 [d5b76b85] (000/110) No match (V2 was not tested)
14 [7704aad4] (000/109) No match (V2 was not tested)
15 [3e050b40] (000/110) No match (V2 was not tested)
Offsetted by -638:
01 [756f3449] (000/109) No match (V2 was not tested)
02 [095d8746] (000/110) No match (V2 was not tested)
03 [8d25677e] (000/110) No match (V2 was not tested)
04 [50407cfc] (000/110) No match (V2 was not tested)
05 [0340eb4c] (000/110) No match (V2 was not tested)
06 [a6b1b399] (000/109) No match (V2 was not tested)
07 [4411fdbd] (000/110) No match (V2 was not tested)
08 [3ea28769] (000/110) No match (V2 was not tested)
09 [a342f7d0] (000/110) No match (V2 was not tested)
10 [25cd3c41] (000/110) No match (V2 was not tested)
11 [9f5c4510] (000/110) No match (V2 was not tested)
12 [d44ef6f6] (000/109) No match (V2 was not tested)
13 [ddcf410a] (000/110) No match (V2 was not tested)
14 [53345a44] (000/109) No match (V2 was not tested)
15 [19cdae16] (000/110) No match (V2 was not tested)

Track Peak [ CRC32 ] [W/O NULL] [ LOG ]
– 96,6 [57D80386] [E02D9206] CRC32
01 95,2 [9F850D0F] [45316777]
02 96,0 [B2B59DF1] [C5EF4B1E]
03 92,7 [98B8BA62] [E97DEC39]
04 89,6 [AE75DDD6] [8AB2D51D]
05 95,2 [3DADEA3F] [B54924C4]
06 93,7 [1249C853] [7929FB21]
07 96,6 [7F06E12F] [966D479B]
08 93,3 [F2C2176D] [BABA749F]
09 89,2 [2CD9D8A0] [22D34FB6]
10 95,6 [B835AD06] [73A54B02]
11 90,7 [BCE48765] [5B231538]
12 90,7 [E8A5ADA0] [05C6C3AA]
13 91,7 [B6FF24E1] [52C617E7]
14 86,8 [8C3865FC] [DE88103C]
15 91,3 [81E1C944] [A65F82A5]

Fleetwood Mac - Blues Jam In Chicago: Volumes 1 & 2 (2004) {Remastered}


***************

Fleetwood Mac - Blues Jam In Chicago: Volumes 1 & 2 (2004) {Remastered}

Fleetwood Mac - Blues Jam In Chicago: Volume Two (2004) {Remastered}

Like VOL. 1, BLUES JAM IN CHICAGO VOL. 2 documents collaborations between some of Chess Records' most prominent bluesmen and the late-1960s version of Fleetwood Mac (the blues-rock power outfit, as opposed to the commercially successful soft-rock incarnation from the '70s). Given that the Peter Green-led Fleetwood Mac was already deeply rooted in Chicago blues, the project proved to be a natural for the group, with Green's blues-drenched leads and the chops of Mick Fleetwood (drums), John McVie (bass), Danny Kirwan and Jeremy Spencer (guitars) providing a perfect framework for contributions by Willie Dixon, Otis Spann, and David "Honeyboy" Edwards, among others.

Green and company bring an edge to the proceedings, playing with the kind of muscle and unbridled energy associated with rock music. Interestingly, VOL. 2 has greater variety in the lineup than VOL. 1, with Dixon substituting on bass for McVie on a number of tracks, along with much swapping of vocal duties. This last fact gives the second installment the edge over the first, with Edwards singing on his own tunes ("Honey Boy Blues" is a highlight), and the inimitable Spann singing "Someday Soon Baby" and "Hungry Country Girl." This is one of the finer snapshots of British blues-rock meeting its source.

~ All Music

Fleetwood Mac - Blues Jam In Chicago: Volumes 1 & 2 (2004) {Remastered}

Track List:

01. World’S In A Tangle [5:26]
02. Talk With You [3:28]
03. Like It This Way [4:25]
04. Someday Soon Baby [7:37]
05. Hungry Country Girl [5:46]
06. Black Jack Blues [5:08]
07. Everyday I Have The Blues [4:55]
08. Rockin’ Boogie [3:58]
09. My Baby’S Gone [4:04]
10. Sugar Mama (Take 1) [0:49]
11. Sugar Mama [6:08]
12. Homework [3:20]
13. Honey Boy Blues [2:20]
14. I Need Your Love (Take 1) [2:15]
15. Horton’S Boogie Woogie (Take 2) [3:40]
16. Have A Good Time [4:55]
17. That’S Wrong [4:13]
18. Rock Me Baby [3:24]

Exact Audio Copy V1.0 beta 3 from 29. August 2011

EAC extraction logfile from 13. July 2012, 10:29

Fleetwood Mac / The Complete Blue Horizon Sessions: 1967-1969

Used drive : HL-DT-STBDDVDRW GBC-H20N Adapter: 1 ID: 0

Read mode : Secure
Utilize accurate stream : Yes
Defeat audio cache : Yes
Make use of C2 pointers : No

Read offset correction : 667
Overread into Lead-In and Lead-Out : No
Fill up missing offset samples with silence : Yes
Delete leading and trailing silent blocks : No
Null samples used in CRC calculations : Yes
Used interface : Native Win32 interface for Win NT & 2000

Used output format : User Defined Encoder
Selected bitrate : 1024 kBit/s
Quality : High
Add ID3 tag : No
Command line compressor : C:\Program Files\Exact Audio Copy\wavpack.exe
Additional command line options : -hm %source% %dest%


TOC of the extracted CD

Track | Start | Length | Start sector | End sector
––––––––––––––––––––––––––––-
1 | 0:00.00 | 5:25.52 | 0 | 24426
2 | 5:25.52 | 3:27.65 | 24427 | 40016
3 | 8:53.42 | 4:24.45 | 40017 | 59861
4 | 13:18.12 | 7:36.40 | 59862 | 94101
5 | 20:54.52 | 5:46.33 | 94102 | 120084
6 | 26:41.10 | 5:08.20 | 120085 | 143204
7 | 31:49.30 | 4:54.50 | 143205 | 165304
8 | 36:44.05 | 3:57.62 | 165305 | 183141
9 | 40:41.67 | 4:04.03 | 183142 | 201444
10 | 44:45.70 | 0:49.17 | 201445 | 205136
11 | 45:35.12 | 6:08.18 | 205137 | 232754
12 | 51:43.30 | 3:20.35 | 232755 | 247789
13 | 55:03.65 | 2:19.57 | 247790 | 258271
14 | 57:23.47 | 2:15.00 | 258272 | 268396
15 | 59:38.47 | 3:39.73 | 268397 | 284894
16 | 63:18.45 | 4:54.42 | 284895 | 306986
17 | 68:13.12 | 4:12.43 | 306987 | 325929
18 | 72:25.55 | 3:24.35 | 325930 | 341264


Range status and errors

Selected range

Filename C:\Users\ProgDog\Music\Fleetwood Mac - Blues Jam In Chicago\Volume Two\Fleetwood Mac - The Complete Blue Horizon Sessions- 1967-1969.wav

Peak level 92.2 %
Extraction speed 6.5 X
Range quality 100.0 %
Test CRC 09276106
Copy CRC 09276106
Copy OK

No errors occurred


AccurateRip summary

Track 1 accurately ripped (confidence 2) [49569CF0] (AR v2)
Track 2 accurately ripped (confidence 2) [A5C77EE5] (AR v2)
Track 3 accurately ripped (confidence 2) [2BC33088] (AR v2)
Track 4 accurately ripped (confidence 2) [8A712949] (AR v2)
Track 5 accurately ripped (confidence 2) [79E6C70B] (AR v2)
Track 6 accurately ripped (confidence 2) [CEB80188] (AR v2)
Track 7 accurately ripped (confidence 2) [BF49CA77] (AR v2)
Track 8 accurately ripped (confidence 2) [148140DA] (AR v2)
Track 9 accurately ripped (confidence 2) [2DC9C969] (AR v2)
Track 10 accurately ripped (confidence 2) [305D8130] (AR v2)
Track 11 accurately ripped (confidence 2) [9CA9CA22] (AR v2)
Track 12 accurately ripped (confidence 2) [BF622ACA] (AR v2)
Track 13 accurately ripped (confidence 2) [2E51BAC6] (AR v2)
Track 14 accurately ripped (confidence 2) [99C2528B] (AR v2)
Track 15 accurately ripped (confidence 2) [44853680] (AR v2)
Track 16 accurately ripped (confidence 2) [AA41B717] (AR v2)
Track 17 accurately ripped (confidence 2) [B3F79493] (AR v2)
Track 18 accurately ripped (confidence 2) [548376EF] (AR v2)

All tracks accurately ripped

End of status report

–– CUETools DB Plugin V2.1.3

[CTDB TOCID: Zi7t_Wd3zV14QZFYq2PwvfdcJUI-] found, Submit result: Zi7t_Wd3zV14QZFYq2PwvfdcJUI- has been confirmed
[298b7d5f] (30/30) Accurately ripped


==== Log checksum CE044D85DE4758C31798C67091117408FF21FD8BFADB6E4394F5C41C6F7C87FA ====

foobar2000 1.4 / Dynamic Range Meter 1.1.1
log date: 2019-12-04 15:40:52

––––––––––––––––––––––––––––––––––––––––
Analyzed: Fleetwood Mac / Blues Jam In Chicago Volume Two
––––––––––––––––––––––––––––––––––––––––

DR Peak RMS Duration Track
––––––––––––––––––––––––––––––––––––––––
DR10 -0.85 dB -13.11 dB 5:26 01-World’S In A Tangle
DR9 -0.92 dB -11.96 dB 3:28 02-Talk With You
DR9 -0.70 dB -11.79 dB 4:25 03-Like It This Way
DR13 -1.11 dB -18.84 dB 7:37 04-Someday Soon Baby
DR12 -0.83 dB -14.89 dB 5:46 05-Hungry Country Girl
DR12 -1.21 dB -15.19 dB 5:08 06-Black Jack Blues
DR10 -0.89 dB -13.02 dB 4:55 07-Everyday I Have The Blues
DR9 -1.01 dB -11.88 dB 3:58 08-Rockin’ Boogie
DR11 -1.20 dB -15.05 dB 4:04 09-My Baby’S Gone
DR10 -1.20 dB -15.76 dB 0:49 10-Sugar Mama (Take 1)
DR11 -1.09 dB -15.39 dB 6:08 11-Sugar Mama
DR10 -1.14 dB -13.74 dB 3:20 12-Homework
DR11 -1.36 dB -15.89 dB 2:20 13-Honey Boy Blues
DR9 -0.96 dB -12.34 dB 2:15 14-I Need Your Love (Take 1)
DR9 -1.28 dB -12.75 dB 3:40 15-Horton’S Boogie Woogie (Take 2)
DR10 -1.15 dB -13.66 dB 4:55 16-Have A Good Time
DR10 -0.91 dB -13.45 dB 4:13 17-That’S Wrong
DR10 -1.00 dB -14.94 dB 3:24 18-Rock Me Baby
––––––––––––––––––––––––––––––––––––––––

Number of tracks: 18
Official DR value: DR10

Samplerate: 44100 Hz
Channels: 2
Bits per sample: 16
Bitrate: 809 kbps
Codec: WavPack
================================================================================

[CUETools log; Date: 04.12.2019 15:40:26; Version: 2.1.6]
[CTDB TOCID: Zi7t_Wd3zV14QZFYq2PwvfdcJUI-] found.
Track | CTDB Status
1 | (119/119) Accurately ripped
2 | (119/119) Accurately ripped
3 | (119/119) Accurately ripped
4 | (119/119) Accurately ripped
5 | (119/119) Accurately ripped
6 | (119/119) Accurately ripped
7 | (119/119) Accurately ripped
8 | (119/119) Accurately ripped
9 | (119/119) Accurately ripped
10 | (119/119) Accurately ripped
11 | (119/119) Accurately ripped
12 | (118/119) Accurately ripped
13 | (119/119) Accurately ripped
14 | (119/119) Accurately ripped
15 | (119/119) Accurately ripped
16 | (118/119) Accurately ripped
17 | (119/119) Accurately ripped
18 | (119/119) Accurately ripped
[AccurateRip ID: 003573aa-02b8383b-eb11c612] found.
Track [ CRC | V2 ] Status
01 [33a4dca9|49569cf0] (009+031/100) Accurately ripped
02 [406dea0d|a5c77ee5] (009+031/100) Accurately ripped
03 [1ccd7209|2bc33088] (009+031/100) Accurately ripped
04 [76ef6bf1|8a712949] (009+031/100) Accurately ripped
05 [18801a8d|79e6c70b] (009+031/100) Accurately ripped
06 [da8964d2|ceb80188] (009+031/100) Accurately ripped
07 [f770acd0|bf49ca77] (009+031/100) Accurately ripped
08 [7d12d376|148140da] (009+031/100) Accurately ripped
09 [69f398d5|2dc9c969] (009+031/100) Accurately ripped
10 [fedb8a89|305d8130] (009+030/099) Accurately ripped
11 [00c8a905|9ca9ca22] (009+031/100) Accurately ripped
12 [474e71e9|bf622aca] (009+031/100) Accurately ripped
13 [b7fc25fc|2e51bac6] (009+030/099) Accurately ripped
14 [6bb26b21|99c2528b] (009+030/099) Accurately ripped
15 [8024835b|44853680] (009+030/099) Accurately ripped
16 [710841ea|aa41b717] (009+030/098) Accurately ripped
17 [cc0f0cbb|b3f79493] (009+030/097) Accurately ripped
18 [e8f9af63|548376ef] (009+029/095) Accurately ripped
Offsetted by -48:
01 [4d738a87] (019/100) Accurately ripped
02 [dbc5f123] (019/100) Accurately ripped
03 [95ac6559] (019/100) Accurately ripped
04 [ada23dfd] (019/100) Accurately ripped
05 [305cd116] (019/100) Accurately ripped
06 [9e6bfad8] (019/100) Accurately ripped
07 [e4b8edc2] (019/100) Accurately ripped
08 [c834982c] (019/100) Accurately ripped
09 [852046f1] (019/100) Accurately ripped
10 [1cc30c40] (019/099) Accurately ripped
11 [cacd4428] (019/100) Accurately ripped
12 [187b0ca9] (019/100) Accurately ripped
13 [26dd5d15] (019/099) Accurately ripped
14 [98610bf3] (019/099) Accurately ripped
15 [dab0d430] (019/099) Accurately ripped
16 [f6a40507] (019/098) Accurately ripped
17 [2e09b6c2] (018/097) Accurately ripped
18 [a3f777b2] (018/095) Accurately ripped
Offsetted by -684:
01 [4dee51f5] (000/100) No match (V2 was not tested)
02 [d96137aa] (000/100) No match (V2 was not tested)
03 [d3f422a3] (000/100) No match (V2 was not tested)
04 [7701d062] (000/100) No match (V2 was not tested)
05 [0552d76f] (000/100) No match (V2 was not tested)
06 [5606c27e] (000/100) No match (V2 was not tested)
07 [94f13d2a] (000/100) No match (V2 was not tested)
08 [6ed635cb] (000/100) No match (V2 was not tested)
09 [c34fc2e3] (000/100) No match (V2 was not tested)
10 [a631cebb] (000/099) No match (V2 was not tested)
11 [bad5f55f] (000/100) No match (V2 was not tested)
12 [19fa475e] (000/100) No match (V2 was not tested)
13 [e06e48d3] (000/099) No match (V2 was not tested)
14 [db785a90] (000/099) No match (V2 was not tested)
15 [406d35d6] (000/099) No match (V2 was not tested)
16 [4927e74b] (000/098) No match (V2 was not tested)
17 [d7f9b140] (000/097) No match (V2 was not tested)
18 [9971c0fe] (000/095) No match (V2 was not tested)
Offsetted by -660:
01 [5bbedf69] (000/100) No match (V2 was not tested)
02 [62e25b71] (000/100) No match (V2 was not tested)
03 [8bc26710] (000/100) No match (V2 was not tested)
04 [e2c8d9d8] (000/100) No match (V2 was not tested)
05 [03eeb26a] (000/100) No match (V2 was not tested)
06 [177bb0b9] (000/100) No match (V2 was not tested)
07 [9bf87f0d] (000/100) No match (V2 was not tested)
08 [25b69710] (000/100) No match (V2 was not tested)
09 [f0189442] (000/100) No match (V2 was not tested)
10 [2059534b] (000/099) No match (V2 was not tested)
11 [b27c2858] (000/100) No match (V2 was not tested)
12 [b9cdebc0] (000/100) No match (V2 was not tested)
13 [3ea73d36] (000/099) No match (V2 was not tested)
14 [27fc9b59] (000/099) No match (V2 was not tested)
15 [4f476f86] (000/099) No match (V2 was not tested)
16 [6cff0492] (000/098) No match (V2 was not tested)
17 [dc2f0f92] (000/097) No match (V2 was not tested)
18 [409f1fb7] (000/095) No match (V2 was not tested)

Track Peak [ CRC32 ] [W/O NULL] [ LOG ]
– 92,2 [09276106] [469DFCFE] CRC32
01 90,6 [24E5052A] [3624DD58]
02 89,9 [1911FC1C] [497DE9B2]
03 92,2 [0BEE5B7E] [0D323C70]
04 88,0 [91B5E984] [98F1FA70]
05 90,8 [31141979] [CFD3B3E6]
06 87,0 [9E82F0B7] [49593382]
07 90,2 [A1F36076] [0166708B]
08 88,9 [02612A26] [DEA4D882]
09 87,0 [C2515B08] [E8E7DB71]
10 87,0 [6C89345F] [4D12004B]
11 88,1 [047953A0] [06EC54C3]
12 87,7 [EABB919B] [0DEC6597]
13 85,5 [BC2113E3] [9083E448]
14 89,4 [EEF986EE] [95DC18C4]
15 86,3 [480D6643] [29946FF3]
16 87,6 [CB88C87F] [6168E0AB]
17 90,0 [559ED303] [F417A87A]
18 89,1 [8B34C3FA] [037435D8]

Fleetwood Mac - Blues Jam In Chicago: Volumes 1 & 2 (2004) {Remastered}


All thanks go to the original ripper(s) …

>>> My Blog <<<

DOWNLOAD: