Subcategories

Flying Lotus - Flamagra (2019)

Posted By: BlondStyle
Flying Lotus - Flamagra (2019)

Flying Lotus - Flamagra (2019)
Jazz-Funk, Electronic, Hip Hop, Abstract | EAC Rip | FLAC, Img+CUE+LOG+Scans (TIF) | 01:07:12 | 449,32 Mb
Label: Warp Records (USA) | Cat.# WARPCD291 | Released: 2019-05-24
Flying Lotus - Flamagra (2019)

"Flamagra" is the 6th studio album by American record producer Flying Lotus. It was released on May 24, 2019, by Warp Records. It is his first album since 2014's You're Dead! The lead single, the spoken-word "Fire Is Coming" featuring David Lynch, was released along with its video on April 17, 2019. The album also features contributions from Anderson Paak, George Clinton, Little Dragon, Tierra Whack, Denzel Curry, Shabazz Palaces, Thundercat, Toro y Moi and Solange. Ellison said that he had gathered different material from the past five years in the process of making the record, and had a "thematic idea" about making an album with a fire concept during that time. He imagined an "eternal flame sitting on a hill", and upon hearing David Lynch talking at a party he was attending, asked him to record the same words for his album, at which point he said the idea for the album became fixed. The track "Post Requisite" was featured on the soundtrack of Ellison's 2017 feature film Kuso and was accompanied by a music video. Prior to the album's release, the tracks "Fire Is Coming", "Spontaneous", "Takashi", "More" and "Black Balloons Reprise" were released as singles. The latter is a reprise of the song of the same name from Denzel Curry's 2018 album Ta13oo.
~Wikipedia

Flying Lotus - Flamagra (2019)

Innumerable artists cite David Lynch as an inspiration, but Steven Ellison is the only one to have had a serendipitous encounter with the filmmaker that affirmed an album's theme and led to a collaboration on its central track. At a party some point after the release of 2014's You're Dead, Ellison, who had been considering the thematic potential of fire, heard Lynch spin a characteristically outré tale about an inferno threatening to engulf a neighborhood. This developed into "Fire Is Coming," a kind of radio drama vignette placed in the middle of Flamagra, the sixth Flying Lotus album. After Lynch delivers the warning, normalcy by Ellison's standard resumes with a jouncing beat, a tangly Thundercat bass line, and a frightful chant about the element's destructive power. Fire's positive and negative associations are referenced by many of Ellison's other collaborators here. For Little Dragon on the dizzied "Spontaneous" Ellison's closest brush with pop yet it represents new love. George Clinton sounds a little devilish on "Burning Down the House" (an original), shuffling funk that puts pyromaniac twists on his "Atomic Dog" and "Aqua Boogie." While the album begins with a crackle and ends with a poetic epilogue about its lasting effects, fire's role in the album elsewhere is either nonexistent or negligible. It's somewhat obscured by a straggling sequence that runs beyond an hour over 20 minutes longer than any previous Flying Lotus LP. The spluttery, helter-skelter thrash-fusion instrumentals are overabundant duly animated and spirited, yet infrequently as riveting as they are on Ellison's preceding sessions with welcomed holdovers such as strings master Miguel Atwood-Ferguson, keyboardist Brandon Coleman, and two thirds of the Bruner brigade, aka Thundercat and drumming sibling Ronald Jr. Most moving are "Thank U Malcolm," a skyward Mac Miller tribute, and "Takashi," a high-velocity belter that sounds like an update of an imagined 1976 collision between Stevie Wonder and Return to Forever. As for the vocal numbers, the highlights the whirling, whomping Anderson .Paak jam "More" and the sublime, Thundercat-fronted "The Climb" spread clear and generous messages about love and resolve. Also involved are Solange, Shabazz Palaces, Denzel Curry, Tierra Whack, and Toro y Moi, whose appearances veer from wraithlike to comically perverse, and vary to muddling effect. Somewhere in here is a 40-minute program with greater impact. Getting to know the whole thing well enough to make a custom-contracted edition is worth the time.
~Review by Andy Kellman




Release of this album/CD: 2019, May, 24 [CD Warp Records (USA), Cat.# WARPCD291, UPC: 801061029128]
©℗ 2019 Warp Records Limited.

Notes: Cardboard box with album sleeve and eight-panel gatefold insert.

Credits:

Art Direction [Artwork] – Winston Hacking
Art Direction [Flamagra Typeface Design] – Guccimaze
Art Direction [Portrait] – Jeong-woo Jo
Art Direction [Retouching] – Echelon Color
Lacquer Cut By [Vinyl Cut By] – Beau Thomas
Layout – Stephen Serrato
Mastered By – Daddy Kev
Mixed By – Daddy Kev, Flying Lotus
Written-By – Anderson .Paak (tracks: 4), Brandon Coleman (tracks: 3, 6 to 8, 15, 17, 21, 26), David Lynch (tracks: 13), Dennis Hamm (tracks: 4, 13, 18), Denzel Curry (tracks: 12), Erik Bodin (tracks: 7), Fredrik Wallin (tracks: 7), George Clinton (tracks: 6), Herbie Hancock (tracks: 9), Håkan Wirenstrand (tracks: 7), Ishmael Butler (tracks: 15), Justin Brown (tracks: 4), Miguel Atwood-Ferguson (tracks: 9, 13, 18, 21, 23 to 25), Robert Glasper (tracks: 25), Solange (tracks: 25), Stephen Bruner (tracks: 1 to 4, 6 to 9, 12 to 16, 18, 19, 21, 22, 25 to 27), Stephen Ellison, Syunsuke Ono (tracks: 8), Taylor Graves (tracks: 20), Tierra Whack (tracks: 11), Toro Y Moi (tracks: 23), Yukimi Nagano (tracks: 7)


Tracklist:

01. Heroes (02:44)
02. Post Requisite (02:08)
03. Heroes in a Half Shell (01:17)
04. More (feat. Anderson .Paak) (04:17)
05. Capillaries (01:54)
06. Burning Down the House (feat. George Clinton) (03:03)
07. Spontaneous (feat. Little Dragon) (02:08)
08. Takashi (05:51)
09. Pilgrim Side Eye (01:30)
10. All Spies (01:45)
11. Yellow Belly (feat. Tierra Whack) (03:11)
12. Black Balloons Reprise (feat. Denzel Curry) (02:41)
13. Fire Is Coming (feat. David Lynch) (03:16)
14. Inside Your Home (01:26)
15. Actually Virtual (feat. Shabazz Palaces) (01:58)
16. Andromeda (01:28)
17. Remind U (02:41)
18. Say Something (01:15)
19. Debbie Is Depressed (02:19)
20. Find Your Own Way Home (01:40)
21. The Climb (feat. Thundercat) (03:15)
22. Pygmy (01:24)
23. 9 Carrots (feat. Toro y Moi) (03:01)
24. Ff4 (01:11)
25. Land of Honey (feat. Solange) (03:27)
26. Thank U Malcolm (01:32)
27. Hot Oct. (04:35)

Exact Audio Copy V1.3 from 2. September 2016

EAC extraction logfile from 15. November 2019, 23:51

Flying Lotus / Flamagra

Used drive : Memorex 52MAXX 3252AJ1 Adapter: 1 ID: 1

Read mode : Secure
Utilize accurate stream : Yes
Defeat audio cache : Yes
Make use of C2 pointers : Yes

Read offset correction : 6
Overread into Lead-In and Lead-Out : No
Fill up missing offset samples with silence : Yes
Delete leading and trailing silent blocks : No
Null samples used in CRC calculations : Yes
Used interface : Native Win32 interface for Win NT & 2000

Used output format : User Defined Encoder
Selected bitrate : 768 kBit/s
Quality : High
Add ID3 tag : Yes
Command line compressor : C:\Program Files (x86)\Exact Audio Copy\FLAC\FLAC.EXE
Additional command line options : %ishigh%-V -p -l 12 -b 4096 -m -e -r 8%ishigh%%islow%-5%islow% –replay-gain -T "ARTIST=%artist%" -T "ALBUM=%albumtitle%" -T "TITLE=%title%" -T "DATE=%year%" -T "TRACKNUMBER=%tracknr%" -T "GENRE=%genre%" -T "ENSEMBLE=%albuminterpret%" -T "ALBUMARTIST=%albumartist%" -T "COMPOSER=%albumcomposer%" -T "DISCNUMBER=%cdnumber%" -T "TOTALDISCS=%totalcds%" -T "TOTALTRACKS=%numtracks%" -T "SOURCEMEDIA=CD" -T "COMMENT=%comment%" %hascover%-T "PICTURE=%coverfile%"%hascover% %source%


TOC of the extracted CD

Track | Start | Length | Start sector | End sector
––––––––––––––––––––––––––––-
1 | 0:00.00 | 2:44.04 | 0 | 12303
2 | 2:44.04 | 2:08.21 | 12304 | 21924
3 | 4:52.25 | 1:17.31 | 21925 | 27730
4 | 6:09.56 | 4:17.44 | 27731 | 47049
5 | 10:27.25 | 1:54.74 | 47050 | 55673
6 | 12:22.24 | 3:03.21 | 55674 | 69419
7 | 15:25.45 | 2:08.48 | 69420 | 79067
8 | 17:34.18 | 5:51.52 | 79068 | 105444
9 | 23:25.70 | 1:30.38 | 105445 | 112232
10 | 24:56.33 | 1:45.45 | 112233 | 120152
11 | 26:42.03 | 3:11.59 | 120153 | 134536
12 | 29:53.62 | 2:41.73 | 134537 | 146684
13 | 32:35.60 | 3:16.16 | 146685 | 161400
14 | 35:52.01 | 1:26.47 | 161401 | 167897
15 | 37:18.48 | 1:58.24 | 167898 | 176771
16 | 39:16.72 | 1:28.22 | 176772 | 183393
17 | 40:45.19 | 2:41.42 | 183394 | 195510
18 | 43:26.61 | 1:15.43 | 195511 | 201178
19 | 44:42.29 | 2:19.53 | 201179 | 211656
20 | 47:02.07 | 1:40.23 | 211657 | 219179
21 | 48:42.30 | 3:15.58 | 219180 | 233862
22 | 51:58.13 | 1:24.68 | 233863 | 240230
23 | 53:23.06 | 3:01.20 | 240231 | 253825
24 | 56:24.26 | 1:11.39 | 253826 | 259189
25 | 57:35.65 | 3:28.00 | 259190 | 274789
26 | 61:03.65 | 1:32.57 | 274790 | 281746
27 | 62:36.47 | 4:35.17 | 281747 | 302388


Range status and errors

Selected range

Filename C:\Users\M@ce\Music\Archives\Rips\Flying Lotus - Flamagra.wav

Peak level 96.6 %
Extraction speed 3.7 X
Range quality 100.0 %
Test CRC 4D6F06AF
Copy CRC 4D6F06AF
Copy OK

No errors occurred


AccurateRip summary

Track 1 accurately ripped (confidence 6) [E369EC83] (AR v2)
Track 2 accurately ripped (confidence 6) [323C46CD] (AR v2)
Track 3 accurately ripped (confidence 6) [0CA3B296] (AR v2)
Track 4 accurately ripped (confidence 6) [7D96409C] (AR v2)
Track 5 accurately ripped (confidence 6) [B3F1909C] (AR v2)
Track 6 accurately ripped (confidence 6) [D5D81B2D] (AR v2)
Track 7 accurately ripped (confidence 6) [F857EF85] (AR v2)
Track 8 accurately ripped (confidence 6) [42846B2A] (AR v2)
Track 9 accurately ripped (confidence 6) [61E07AD9] (AR v2)
Track 10 accurately ripped (confidence 6) [4DCEFE8C] (AR v2)
Track 11 accurately ripped (confidence 6) [559701A6] (AR v2)
Track 12 accurately ripped (confidence 6) [E76F7FF8] (AR v2)
Track 13 accurately ripped (confidence 6) [4DE1590D] (AR v2)
Track 14 accurately ripped (confidence 6) [C188DE59] (AR v2)
Track 15 accurately ripped (confidence 6) [72CBFD0C] (AR v2)
Track 16 accurately ripped (confidence 6) [31ECCC5E] (AR v2)
Track 17 accurately ripped (confidence 6) [D68C17E6] (AR v2)
Track 18 accurately ripped (confidence 6) [1AF2625F] (AR v2)
Track 19 accurately ripped (confidence 6) [C3AF318F] (AR v2)
Track 20 accurately ripped (confidence 6) [EDF70F32] (AR v2)
Track 21 accurately ripped (confidence 6) [A77AF600] (AR v2)
Track 22 accurately ripped (confidence 6) [CCB773AB] (AR v2)
Track 23 accurately ripped (confidence 6) [A9185DEC] (AR v2)
Track 24 accurately ripped (confidence 6) [B7FDD058] (AR v2)
Track 25 accurately ripped (confidence 6) [96548D1D] (AR v2)
Track 26 accurately ripped (confidence 6) [FF9168FA] (AR v2)
Track 27 accurately ripped (confidence 6) [11F36C6A] (AR v2)

All tracks accurately ripped

End of status report

–– CUETools DB Plugin V2.1.6

[CTDB TOCID: xYY1k0otUNzuN72s87lzcsdBaUk-] found
Submit result: xYY1k0otUNzuN72s87lzcsdBaUk- has been confirmed
Track | CTDB Status
1 | (111/111) Accurately ripped
2 | (111/111) Accurately ripped
3 | (111/111) Accurately ripped
4 | (111/111) Accurately ripped
5 | (111/111) Accurately ripped
6 | (111/111) Accurately ripped
7 | (111/111) Accurately ripped
8 | (111/111) Accurately ripped
9 | (111/111) Accurately ripped
10 | (111/111) Accurately ripped
11 | (111/111) Accurately ripped
12 | (111/111) Accurately ripped
13 | (111/111) Accurately ripped
14 | (111/111) Accurately ripped
15 | (110/111) Accurately ripped
16 | (111/111) Accurately ripped
17 | (111/111) Accurately ripped
18 | (111/111) Accurately ripped
19 | (111/111) Accurately ripped
20 | (111/111) Accurately ripped
21 | (111/111) Accurately ripped
22 | (111/111) Accurately ripped
23 | (111/111) Accurately ripped
24 | (111/111) Accurately ripped
25 | (111/111) Accurately ripped
26 | (111/111) Accurately ripped
27 | (111/111) Accurately ripped


==== Log checksum 7C4AB17259952546DAFECF95254C86F4BCB955A3985CDB78C61BC6740DDCF7CD ====

––––––––––––––––––––––––––––––––––––––––
Analyzed: Flying Lotus (feat. Anderson Paak) / Flamagra (1)
Flying Lotus (feat. David Lynch) / Flamagra (2)
––––––––––––––––––––––––––––––––––––––––

DR Peak RMS Duration Track
––––––––––––––––––––––––––––––––––––––––
DR6 -0.30 dB -7.01 dB 4:18 04-More
DR3 -0.30 dB -7.56 dB 3:16 13-Fire Is Coming
––––––––––––––––––––––––––––––––––––––––

Number of tracks: 2
Official DR value: DR4

Samplerate: 44100 Hz
Channels: 2
Bits per sample: 16
Bitrate: 830 kbps
Codec: FLAC
================================================================================

––––––––––––––––––––––––––––––––––––––––
Statistics for: 12-Black Balloons Reprise
Number of samples: 7143024
Duration: 2:42
––––––––––––––––––––––––––––––––––––––––

Left Right

Peak Value: -0.30 dB –- -0.30 dB
Avg RMS: -6.81 dB –- -6.82 dB
DR channel: 5.54 dB –- 5.53 dB
––––––––––––––––––––––––––––––––––––––––

Official DR Value: DR6

Samplerate: 44100 Hz
Channels: 2
Bits per sample: 16
Bitrate: 830 kbps
Codec: FLAC
================================================================================
––––––––––––––––––––––––––––––––––––––––
Analyzed: Flying Lotus (feat. George Clinton) / Flamagra (1)
Flying Lotus (feat. Little Dragon) / Flamagra (2)
Flying Lotus (feat. Shabazz Palaces) / Flamagra (3)
Flying Lotus (feat. Solange) / Flamagra (4)
––––––––––––––––––––––––––––––––––––––––

DR Peak RMS Duration Track
––––––––––––––––––––––––––––––––––––––––
DR5 -0.30 dB -7.99 dB 3:03 06-Burning Down The House
DR5 -0.30 dB -6.60 dB 2:09 07-Spontaneous
DR4 -0.30 dB -5.99 dB 1:58 15-Actually Virtual
DR5 -0.30 dB -7.46 dB 3:28 25-Land Of Honey
––––––––––––––––––––––––––––––––––––––––

Number of tracks: 4
Official DR value: DR5

Samplerate: 44100 Hz
Channels: 2
Bits per sample: 16
Bitrate: 830 kbps
Codec: FLAC
================================================================================

––––––––––––––––––––––––––––––––––––––––
Statistics for: 21-The Climb
Number of samples: 8633604
Duration: 3:16
––––––––––––––––––––––––––––––––––––––––

Left Right

Peak Value: -0.30 dB –- -0.30 dB
Avg RMS: -6.96 dB –- -7.18 dB
DR channel: 5.48 dB –- 5.60 dB
––––––––––––––––––––––––––––––––––––––––

Official DR Value: DR6

Samplerate: 44100 Hz
Channels: 2
Bits per sample: 16
Bitrate: 830 kbps
Codec: FLAC
================================================================================
––––––––––––––––––––––––––––––––––––––––
Analyzed: Flying Lotus (feat. Tierra Whack) / Flamagra (1)
Flying Lotus (feat. Toro y Moi) / Flamagra (2)
––––––––––––––––––––––––––––––––––––––––

DR Peak RMS Duration Track
––––––––––––––––––––––––––––––––––––––––
DR6 -0.30 dB -9.09 dB 3:12 11-Yellow Belly
DR5 -0.30 dB -6.94 dB 3:01 23-9 Carrots
––––––––––––––––––––––––––––––––––––––––

Number of tracks: 2
Official DR value: DR6

Samplerate: 44100 Hz
Channels: 2
Bits per sample: 16
Bitrate: 830 kbps
Codec: FLAC
================================================================================

––––––––––––––––––––––––––––––––––––––––
Analyzed: Flying Lotus / Flamagra
––––––––––––––––––––––––––––––––––––––––

DR Peak RMS Duration Track
––––––––––––––––––––––––––––––––––––––––
DR5 -0.30 dB -8.70 dB 2:44 01-Heroes
DR5 -0.30 dB -7.22 dB 2:08 02-Post Requisite
DR6 -0.30 dB -7.65 dB 1:17 03-Heroes In A Half Shell
DR4 -0.30 dB -5.47 dB 1:55 05-Capillaries
DR5 -0.30 dB -6.51 dB 5:52 08-Takashi
DR6 -0.30 dB -8.38 dB 1:31 09-Pilgrim Side Eye
DR5 -0.30 dB -6.28 dB 1:46 10-All Spies
DR5 -0.30 dB -7.59 dB 1:27 14-Inside Your Home
DR5 -0.30 dB -8.11 dB 1:28 16-Andromeda
DR4 -0.30 dB -6.47 dB 2:42 17-Remind U
DR9 -2.76 dB -13.38 dB 1:16 18-Say Something
DR6 -0.30 dB -8.41 dB 2:20 19-Debbie Is Depressed
DR9 -0.30 dB -12.47 dB 1:40 20-Find Your Own Way Home
DR7 -0.30 dB -8.12 dB 1:25 22-Pygmy
DR5 -0.30 dB -7.33 dB 1:12 24-FF4
DR4 -0.30 dB -6.27 dB 1:33 26-Thank U Malcolm
DR12 -0.30 dB -17.20 dB 4:35 27-Hot Oct.
––––––––––––––––––––––––––––––––––––––––

Number of tracks: 17
Official DR value: DR6

Samplerate: 44100 Hz
Channels: 2
Bits per sample: 16
Bitrate: 830 kbps
Codec: FLAC
================================================================================

Thanks to my friend, M@ce

♫~Welcome To My Blog~♫

password: BlondStyle