Tags
Language
Tags
April 2024
Su Mo Tu We Th Fr Sa
31 1 2 3 4 5 6
7 8 9 10 11 12 13
14 15 16 17 18 19 20
21 22 23 24 25 26 27
28 29 30 1 2 3 4

Sue Foley, Deborah Coleman, Roxanne Potvin - Time Bomb (2007)

Posted By: Designol
Sue Foley, Deborah Coleman, Roxanne Potvin - Time Bomb (2007)

Sue Foley, Deborah Coleman, Roxanne Potvin - Time Bomb (2007)
EAC | FLAC | Image (Cue&Log) ~ 303 Mb | Mp3 (CBR320) ~ 123 Mb | Scans included
Modern Electric Blues | Label: Ruf Records | # RUF 1129 | Time: 00:40:43

The cover's cutout silhouette of these guitar-slinging soul/blues women is a succinct visual overview of the rather ambiguous contents within. Recorded in preparation for 2007's Blues Caravan tour featuring journeywomen singer/songwriters Sue Foley and Deborah Coleman along with the comparatively fresh-faced Roxanne Potvin (whose first widely distributed set was released earlier the same year), the disc seems more like a respectable concert souvenir than an actual collaborative affair. The 11 tracks break down into three solo cuts from each participant, one shared and joyous effort on the closing cover of a Chess oldie, "In the Basement," and a crackling instrumental dominated by Foley's always impressive guitar. There are many fine moments here, especially as Coleman lays into an easy funk groove on James Brown's "Talking Loud" and on Potvin's emotionally charged ballad "Strong Enough to Hold You." But other than an occasional apparently overdubbed backing vocal, each tune besides the closing one is a solo performance played with a solid if inconspicuous backing band spearheaded by producer Kevin Bowe. There's nothing wrong with that, but those looking for a mutual encounter with the three guitarists trading licks and vocal turns, in the process pushing each other to new heights, will be disappointed. Foley radiates confidence especially on the rip-snorting opening title track and "Two Moons Gone." Her trilling voice along with Coleman's huskier approach and Potvin's drawling croon would likely sound great, or at least interesting, harmonizing together. But except for the terrific closing "In the Basement," where it sounds like the threesome are having a blast, listeners don't get to experience that relationship, since the format seemingly does not allow the women to be in the studio concurrently. It's a bit of a missed opportunity and could be considered deceptive marketing, too. That doesn't make this a bad recording; on the contrary, it's filled with solid playing and singing, and excellent songs that display each woman's individual strengths. But it doesn't fulfill the enticing possibilities inferred by the joint partnership and the album's explosive title.

Review by Hal Horowitz, Allmusic.com

Sue Foley, Deborah Coleman, Roxanne Potvin - Time Bomb (2007)


Tracklist:

01. Time Bomb (03:17)
02. Hitting On Nothing (02:56)
03. So Far (04:51)
04. Talking Loud (03:45)
05. Strong Enough To Hold You (04:02)
06. Show Me (03:40)
07. Motor City (03:58)
08. Get Up (03:30)
09. Two Moons Gone (03:36)
10. Don't Start The Car (03:36)
11. In The Basement (03:26)


Exact Audio Copy V1.0 beta 4 from 7. December 2014

Отчёт EAC об извлечении, выполненном 8. февраля 2015, 13:48

Sue Foley, Deborah Coleman, Roxanne Potvin / Time Bomb

Дисковод: SONY CD-RW CRX230ED Adapter: 1 ID: 0

Режим чтения : Достоверность
Использование точного потока : Да
Отключение кэша аудио : Да
Использование указателей C2 : Нет

Коррекция смещения при чтении : 6
Способность читать области Lead-in и Lead-out : Нет
Заполнение пропущенных сэмплов тишиной : Да
Удаление блоков с тишиной в начале и конце : Нет
При вычислениях CRC использовались нулевые сэмплы : Да
Интерфейс : Встроенный Win32-интерфейс для Win NT/2000

Выходной формат : Внутренние WAV-операции
Формат сэмплов : 44.100 Гц; 16 бит; стерео


TOC извлечённого CD

Трек | Старт | Длительность | Начальный сектор | Конечный сектор
––––––––––––––––––––––––––––––––––-
1 | 0:00.00 | 3:17.50 | 0 | 14824
2 | 3:17.50 | 2:56.65 | 14825 | 28089
3 | 6:14.40 | 4:51.50 | 28090 | 49964
4 | 11:06.15 | 3:45.20 | 49965 | 66859
5 | 14:51.35 | 4:02.38 | 66860 | 85047
6 | 18:53.73 | 3:40.12 | 85048 | 101559
7 | 22:34.10 | 3:58.68 | 101560 | 119477
8 | 26:33.03 | 3:30.35 | 119478 | 135262
9 | 30:03.38 | 3:36.17 | 135263 | 151479
10 | 33:39.55 | 3:36.45 | 151480 | 167724
11 | 37:16.25 | 3:26.53 | 167725 | 183227


Характеристики диапазона извлечения и сообщения об ошибках

Выбранный диапазон

Имя файла F:\MusicCD\Torrent\Deborah Coleman - Discography\Sue Foley, Deborah Coleman, Roxanne Potvin - Time Bomb\Sue Foley, Deborah Coleman, Roxanne Potvin - Time Bomb.wav

Пиковый уровень 98.8 %
Скорость извлечения 7.5 X
Качество диапазона 100.0 %
CRC теста 9498AC72
CRC копии 9498AC72
Копирование… OK

Ошибок не произошло


AccurateRip: сводка

Трек 1 : извлечено точно (доверие 4) [C5526092] (AR v2)
Трек 2 : извлечено точно (доверие 4) [79A5467F] (AR v2)
Трек 3 : извлечено точно (доверие 4) [06D4F3E7] (AR v2)
Трек 4 : извлечено точно (доверие 4) [A4273DF7] (AR v2)
Трек 5 : извлечено точно (доверие 4) [41804595] (AR v2)
Трек 6 : извлечено точно (доверие 4) [66675B7F] (AR v2)
Трек 7 : извлечено точно (доверие 4) [EB7F2750] (AR v2)
Трек 8 : извлечено точно (доверие 4) [9F54FB7A] (AR v2)
Трек 9 : извлечено точно (доверие 4) [41458435] (AR v2)
Трек 10 : извлечено точно (доверие 4) [9D0A0FE3] (AR v2)
Трек 11 : извлечено точно (доверие 4) [E6A1BA2B] (AR v2)

Все треки извлечены точно

Конец отчёта

–– CUETools DB Plugin V2.1.4

[CTDB TOCID: LoItMeULzGImKit254dSX.B.nxw-] found
Submit result: LoItMeULzGImKit254dSX.B.nxw- has been confirmed
Track | CTDB Status
1 | (8/8) Accurately ripped
2 | (8/8) Accurately ripped
3 | (8/8) Accurately ripped
4 | (8/8) Accurately ripped
5 | (8/8) Accurately ripped
6 | (8/8) Accurately ripped
7 | (8/8) Accurately ripped
8 | (8/8) Accurately ripped
9 | (8/8) Accurately ripped
10 | (8/8) Accurately ripped
11 | (8/8) Accurately ripped


==== Контрольная сумма отчёта 3055203385079E8C1E2A92F0558BEEB0BA5D2C3FD5833E90E907AEB09290C17A ====

foobar2000 1.2 / Dynamic Range Meter 1.1.1
log date: 2015-02-08 21:00:28

––––––––––––––––––––––––––––––––––––––––
Analyzed: Sue Foley, Deborah Coleman, Roxanne Potvin / Time Bomb
––––––––––––––––––––––––––––––––––––––––

DR Peak RMS Duration Track
––––––––––––––––––––––––––––––––––––––––
DR9 -0.10 dB -10.29 dB 3:18 01-Time Bomb
DR9 -0.10 dB -10.22 dB 2:57 02-Hitting On Nothing
DR8 -0.10 dB -9.51 dB 4:52 03-So Far
DR9 -0.10 dB -10.29 dB 3:45 04-Talking Loud
DR9 -0.10 dB -11.55 dB 4:03 05-Strong Enough To Hold You
DR9 -0.10 dB -9.97 dB 3:40 06-Show Me
DR9 -0.10 dB -10.86 dB 3:59 07-Motor City
DR9 -0.10 dB -10.23 dB 3:30 08-Get Up
DR9 -0.10 dB -9.94 dB 3:36 09-Two Moons Gone
DR8 -0.10 dB -9.12 dB 3:37 10-Don't Start The Car
DR9 -0.10 dB -9.83 dB 3:27 11-In The Basement
––––––––––––––––––––––––––––––––––––––––

Number of tracks: 11
Official DR value: DR9

Samplerate: 44100 Hz
Channels: 2
Bits per sample: 16
Bitrate: 939 kbps
Codec: FLAC
================================================================================

Sue Foley, Deborah Coleman, Roxanne Potvin - Time Bomb (2007)

Sue Foley, Deborah Coleman, Roxanne Potvin - Time Bomb (2007)

All thanks to original releaser

More interesting music in My Blog