Tags
Language
Tags

Ensemble Aurora, Concerto Italiano, Fortuna Ensemble - Alessandro Scarlatti: Cantatas (2007)

Posted By: ArlegZ
Ensemble Aurora, Concerto Italiano, Fortuna Ensemble - Alessandro Scarlatti: Cantatas (2007)

Ensemble Aurora, Concerto Italiano, Fortuna Ensemble - Alessandro Scarlatti: Cantatas (2007)
EAC | FLAC | Image (Cue & Log) ~ 844 Mb | Total time: 68:53+67:07+43:01 | Scans included
Classical | Label: Brilliant Classics | # 93355 | Recorded: 1988, 1990, 2001

This is a selection of rarely-heard intimate compositions by the incredibly prolific composer, Alessandro Scarlatti. He had great affinity with opera and indeed, wrote dozens of them. His dramatic vein shows itself in many of his smaller-scale vocal works too, particularly the secular (chamber) cantatas (of which genre he wrote no less than 820), duets and in the three intermezzos. In each case, the music conveys the precise meaning of the text, which is partly in dialect. Here, the composer achieves a unique level of expressiveness.

Performer:
CD1:
Cristina Miatello, soprano (tracks 1-4)
Guido Morini, harpsichord (tracks 1-4)
Andrea Fossá, violoncello (tracks 1-4)
Gloria Banditelli, contralto (track 5)
Ensemble Aurora (track 5)
CD2:
Cristina Miatello, soprano
Claudio Cavina, alto
Giampaolo Fagotto, tenor
Lodovica Scoppola, recorder
Paolo Pandolfo, viola da gamba
Roberto Sensi, violine
Rinaldo Alessandrini, harpsichord
CD3:
Barbara di Castri, soprano
Gastone Sarti, tenor
Fortuna Ensemble
Roberto Cascio, direction

Track List:
CD1: Cantatas da Camera
01. Andate, o miei sospiri
02. Per un momento solo
03. Lascia, piu di tormentarmi
04. Lontan dalla sua Clori
05. Bella Madre de'Fiori
CD2: Cantatas and Duets
01. Ammore, brutto figlio de pottana
02. Sovente amor mi chiama - Recitativo
03. Aria andante: Folle Amor tu speri invano
04. Recitativo: Tu fai serva quell'alma
05. Aria andante: L'alma e un bel sopra il polo
06. Recitativo: Quindi o tiranno Amore
07. Aria andante: Non da pena a chi l'adora
08. Son pur care le catene - A Due
09. Recitativo alto: Per donna a cui natura
10. Aria alto: Il cor che peno ogn'or
11. Recitativo soprano: Da un labro di corallo
12. Aria soprano: Se crudo mi ferisce il bel cinabro
13. A Due: Pur che venga dal tuo labro
14. Clori mia, Clori bella - Recitativo
15. Aria: Onde chiare che spargete
16. Recitativo: Si, si, narrate pur
17. Aria: Parla il cor tutti loquace
18. Dimmi crudele e quando - A Due
19. Recitativo alto: Fra martiri amorosi
20. Aria alto: Mi consuma a poco a poco
21. Recitativo soprano: Ma che sperar piu lice
22. Aria soprano: Il bello che rimiro
23. A Due: E'Cupido un ben penoso
CD3: Intermezzi from Palandrana and Zamberlucco
01. Intermezzo I. Aria: Chi ha pieta di una vedovella
02. Recitativo: Fortunata colei
03. Aria: Esser vile
04. Recitativo: Son tocca
05. Aria duetto: A me strega
06. Intermezzo II. Recitativo: Son rovinato
07. Aria: Per te son tutto amor
08. Recitativo: Sicche piu di Moschetta
09. Aria: E' pur la dolce cosa
10. Recitativo: Obligato al favour
11. Aria duetto: Zamberlucco, Palandrana
12. Intermezzo III. Aria: Io l'ho fatta
13. Recitativo: Eccola, stem sul serio
14. Aria: Vantati, vantati
15. Aria duetto: Le mie gioie
16. Aria duetto: Col baston


Exact Audio Copy V1.3 from 2. September 2016

EAC extraction logfile from 3. May 2019, 17:47

Cristina Miatello, Gloria Banditelli, Ensemble.Aurora / Scarlatti - Cantatas da Camera

Used drive : PIONEER DVD-RW DVR-218L Adapter: 1 ID: 0

Read mode : Secure
Utilize accurate stream : Yes
Defeat audio cache : Yes
Make use of C2 pointers : No

Read offset correction : 6
Overread into Lead-In and Lead-Out : No
Fill up missing offset samples with silence : Yes
Delete leading and trailing silent blocks : No
Null samples used in CRC calculations : Yes
Used interface : Native Win32 interface for Win NT & 2000

Used output format : User Defined Encoder
Selected bitrate : 128 kBit/s
Quality : High
Add ID3 tag : No
Command line compressor : C:\Program Files\Exact Audio Copy\FLAC\FLAC.EXE
Additional command line options : -V -8 -T "Date=%year%" -T "Genre=%genre%" %source%


TOC of the extracted CD

Track | Start | Length | Start sector | End sector
––––––––––––––––––––––––––––-
1 | 0:00.00 | 12:50.63 | 0 | 57812
2 | 12:50.63 | 10:12.00 | 57813 | 103712
3 | 23:02.63 | 5:51.00 | 103713 | 130037
4 | 28:53.63 | 11:08.00 | 130038 | 180137
5 | 40:01.63 | 28:51.35 | 180138 | 309997


Range status and errors

Selected range

Filename C:\Program Files\Exact Audio Copy\Flac\Scarlatti - Cantatas da Camera.wav

Peak level 100.0 %
Extraction speed 1.9 X
Range quality 100.0 %
Test CRC 9D06BAC5
Copy CRC 9D06BAC5
Copy OK

No errors occurred


AccurateRip summary

Track 1 accurately ripped (confidence 2) [C7EDCDBC] (AR v2)
Track 2 accurately ripped (confidence 2) [BC911F0B] (AR v2)
Track 3 accurately ripped (confidence 2) [97BAEC32] (AR v2)
Track 4 accurately ripped (confidence 2) [0719BA71] (AR v2)
Track 5 accurately ripped (confidence 2) [95D247EA] (AR v2)

All tracks accurately ripped

End of status report

==== Log checksum 11A53B60DFF04F310647B32BF9A0DBF00FCB9A39BB395C899EAC233160CDFB75 ====


Exact Audio Copy V1.3 from 2. September 2016

EAC extraction logfile from 3. May 2019, 19:12

Miatello, Cavina, Fagotto, Alessandrini / Scarlatti - Cantatas and Duets

Used drive : PIONEER DVD-RW DVR-218L Adapter: 1 ID: 0

Read mode : Secure
Utilize accurate stream : Yes
Defeat audio cache : Yes
Make use of C2 pointers : No

Read offset correction : 6
Overread into Lead-In and Lead-Out : No
Fill up missing offset samples with silence : Yes
Delete leading and trailing silent blocks : No
Null samples used in CRC calculations : Yes
Used interface : Native Win32 interface for Win NT & 2000

Used output format : User Defined Encoder
Selected bitrate : 128 kBit/s
Quality : High
Add ID3 tag : No
Command line compressor : C:\Program Files\Exact Audio Copy\FLAC\FLAC.EXE
Additional command line options : -V -8 -T "Date=%year%" -T "Genre=%genre%" %source%


TOC of the extracted CD

Track | Start | Length | Start sector | End sector
––––––––––––––––––––––––––––-
1 | 0:00.32 | 10:36.15 | 32 | 47746
2 | 10:36.47 | 0:57.38 | 47747 | 52059
3 | 11:34.10 | 2:08.52 | 52060 | 61711
4 | 13:42.62 | 0:29.03 | 61712 | 63889
5 | 14:11.65 | 3:10.05 | 63890 | 78144
6 | 17:21.70 | 0:25.62 | 78145 | 80081
7 | 17:47.57 | 2:45.63 | 80082 | 92519
8 | 20:33.45 | 4:38.07 | 92520 | 113376
9 | 25:11.52 | 0:48.13 | 113377 | 116989
10 | 25:59.65 | 3:08.57 | 116990 | 131146
11 | 29:08.47 | 1:01.40 | 131147 | 135761
12 | 30:10.12 | 3:31.35 | 135762 | 151621
13 | 33:41.47 | 3:20.00 | 151622 | 166621
14 | 37:01.47 | 1:14.20 | 166622 | 172191
15 | 38:15.67 | 5:49.18 | 172192 | 198384
16 | 44:05.10 | 0:52.02 | 198385 | 202286
17 | 44:57.12 | 2:51.18 | 202287 | 215129
18 | 47:48.30 | 4:49.25 | 215130 | 236829
19 | 52:37.55 | 0:47.10 | 236830 | 240364
20 | 53:24.65 | 3:47.12 | 240365 | 257401
21 | 57:12.02 | 0:31.33 | 257402 | 259759
22 | 57:43.35 | 2:05.00 | 259760 | 269134
23 | 59:48.35 | 6:08.72 | 269135 | 296806


Range status and errors

Selected range

Filename C:\Program Files\Exact Audio Copy\Flac\Scarlatti - Cantatas and Duets.wav

Peak level 83.6 %
Extraction speed 1.9 X
Range quality 99.9 %
Test CRC EA433C04
Copy CRC EA433C04
Copy OK

No errors occurred


AccurateRip summary

Track 1 accurately ripped (confidence 2) [A06C9679] (AR v2)
Track 2 accurately ripped (confidence 2) [2306015F] (AR v2)
Track 3 accurately ripped (confidence 2) [D6E351DA] (AR v2)
Track 4 accurately ripped (confidence 2) [47015A93] (AR v2)
Track 5 accurately ripped (confidence 2) [2634FE58] (AR v2)
Track 6 accurately ripped (confidence 2) [3416EA45] (AR v2)
Track 7 accurately ripped (confidence 2) [98034F69] (AR v2)
Track 8 accurately ripped (confidence 2) [D74AEA72] (AR v2)
Track 9 accurately ripped (confidence 2) [CBE35D6C] (AR v2)
Track 10 accurately ripped (confidence 2) [48CD2769] (AR v2)
Track 11 accurately ripped (confidence 2) [F5E16AC3] (AR v2)
Track 12 accurately ripped (confidence 2) [CA8BCA04] (AR v2)
Track 13 accurately ripped (confidence 2) [3F05E91B] (AR v2)
Track 14 accurately ripped (confidence 2) [9D0C8739] (AR v2)
Track 15 accurately ripped (confidence 2) [613D5669] (AR v2)
Track 16 accurately ripped (confidence 2) [25EB5616] (AR v2)
Track 17 accurately ripped (confidence 2) [1F765660] (AR v2)
Track 18 accurately ripped (confidence 2) [AD1D40BF] (AR v2)
Track 19 accurately ripped (confidence 2) [DAEF759F] (AR v2)
Track 20 accurately ripped (confidence 2) [A294DF0C] (AR v2)
Track 21 accurately ripped (confidence 2) [CA4FCB12] (AR v2)
Track 22 accurately ripped (confidence 2) [413425A1] (AR v2)
Track 23 accurately ripped (confidence 2) [71A64FEF] (AR v2)

All tracks accurately ripped

End of status report

==== Log checksum C2377D3D16AB5977BA815442AAC3F916A145CD1AF2AF0F2F63F924CD06A774B4 ====


Exact Audio Copy V1.3 from 2. September 2016

EAC extraction logfile from 3. May 2019, 20:08

Barbara di Castri, Gastone Sarti, Fortuna Ensemble / Scarlatti - Intermezzi from Palandrana and Zamberlucco

Used drive : PIONEER DVD-RW DVR-218L Adapter: 1 ID: 0

Read mode : Secure
Utilize accurate stream : Yes
Defeat audio cache : Yes
Make use of C2 pointers : No

Read offset correction : 6
Overread into Lead-In and Lead-Out : No
Fill up missing offset samples with silence : Yes
Delete leading and trailing silent blocks : No
Null samples used in CRC calculations : Yes
Used interface : Native Win32 interface for Win NT & 2000

Used output format : User Defined Encoder
Selected bitrate : 128 kBit/s
Quality : High
Add ID3 tag : No
Command line compressor : C:\Program Files\Exact Audio Copy\FLAC\FLAC.EXE
Additional command line options : -V -8 -T "Date=%year%" -T "Genre=%genre%" %source%


TOC of the extracted CD

Track | Start | Length | Start sector | End sector
––––––––––––––––––––––––––––-
1 | 0:00.00 | 3:32.71 | 0 | 15970
2 | 3:32.71 | 4:16.06 | 15971 | 35176
3 | 7:49.02 | 1:48.36 | 35177 | 43312
4 | 9:37.38 | 2:27.56 | 43313 | 54393
5 | 12:05.19 | 2:32.41 | 54394 | 65834
6 | 14:37.60 | 2:35.64 | 65835 | 77523
7 | 17:13.49 | 2:35.64 | 77524 | 89212
8 | 19:49.38 | 3:22.21 | 89213 | 104383
9 | 23:11.59 | 3:37.39 | 104384 | 120697
10 | 26:49.23 | 1:31.42 | 120698 | 127564
11 | 28:20.65 | 3:43.50 | 127565 | 144339
12 | 32:04.40 | 1:25.59 | 144340 | 150773
13 | 33:30.24 | 4:55.52 | 150774 | 172950
14 | 38:26.01 | 1:31.29 | 172951 | 179804
15 | 39:57.30 | 0:45.07 | 179805 | 183186
16 | 40:42.37 | 2:18.58 | 183187 | 193594


Range status and errors

Selected range

Filename C:\Program Files\Exact Audio Copy\Flac\Scarlatti - Intermezzi from Palandrana and Zamberlucco.wav

Peak level 100.0 %
Extraction speed 1.7 X
Range quality 100.0 %
Test CRC E6716E7B
Copy CRC E6716E7B
Copy OK

No errors occurred


AccurateRip summary

Track 1 accurately ripped (confidence 2) [8AD87D99] (AR v2)
Track 2 accurately ripped (confidence 2) [B77BA709] (AR v2)
Track 3 accurately ripped (confidence 2) [DCF5F6B7] (AR v2)
Track 4 accurately ripped (confidence 2) [418B9F60] (AR v2)
Track 5 accurately ripped (confidence 2) [C8801C35] (AR v2)
Track 6 accurately ripped (confidence 2) [502B2892] (AR v2)
Track 7 accurately ripped (confidence 2) [144017EE] (AR v2)
Track 8 accurately ripped (confidence 2) [37E813BB] (AR v2)
Track 9 accurately ripped (confidence 2) [035773B5] (AR v2)
Track 10 accurately ripped (confidence 2) [EED8D065] (AR v2)
Track 11 accurately ripped (confidence 2) [805E7A75] (AR v2)
Track 12 accurately ripped (confidence 2) [CAFB80BA] (AR v2)
Track 13 accurately ripped (confidence 2) [11706FC1] (AR v2)
Track 14 accurately ripped (confidence 2) [3CBCBAB9] (AR v2)
Track 15 accurately ripped (confidence 2) [32D9651D] (AR v2)
Track 16 accurately ripped (confidence 2) [A0990D17] (AR v2)

All tracks accurately ripped

End of status report

==== Log checksum 94F0228365D3190C66D68091CFD07C26E1CFF87E6B9F834F855C9B2BE3138B53 ====

Ensemble Aurora, Concerto Italiano, Fortuna Ensemble - Alessandro Scarlatti: Cantatas (2007)