Subcategories

Frank Kimbrough - Rumors (2010)

Posted By: Designol
Frank Kimbrough - Rumors (2010)

Frank Kimbrough - Rumors (2010)
EAC | FLAC | Tracks (Cue&Log) ~ 274 Mb | Mp3 (CBR320) ~ 148 Mb | Scans included
Post-Bop, Piano Jazz | Label: Palmetto Jazz | # PM 2141 | Time: 00:53:33

Pianist/composer Frank Kimbrough has been active on the New York jazz scene for more than 25 years. Rumors is his fourth release for Palmetto Records. A constant winner in the Downbeat Critics Poll and a much sought after sideman, Frank is a regular member of the Maria Schneider Orchestra and is featured prominently on her Grammy award winning CD, Concert in the Garden. Rumors was recorded at Avatar studios in NYC in a matter of just a few hours and the result is a sincere, swinging trio session.

Rumors – unlike the Fleetwood Mac rock/pop album with the British variant spelling of the same title – is Frank Kimbrough's ultimate effort to play music in hushed tones, far removed from bop or anything remotely involved in overt actions. With hefty-sounding bassist Masa Kamaguchi and balanced drummer Jeff Hirshfield, Kimbrough's piano musings are rendered to beautifully wispy and subtle phrasings that stretch beyond simple melody lines into Zenlike trains of thought. While not quite approaching spirit songs, the music is closer to European art music, and is far removed from interpretation of standards. Kimbrough does have discernible influences, as heard during "TMI," reflecting Thelonious Monk, Herbie Nichols, or Ornette Coleman, playfully expounding on Coleman's "Law Years," while his tribute to Andrew Hill, "For Andrew," is harmonically rich and introspective as anything on this set. Using a rhythmically elusive stance during "Sure as We're Here" or in an interactive but free style for "Over," the trio continually delivers music that lies under the surface yet resonates on a purely emotional level. Though always seen as a performer with depth and substance, Kimbrough may have outdone himself with this excellent recording that emphasizes internal energy and soul, demanding a similar or repeat performance at some other time.

Review by Michael G. Nastos, Allmusic.com

Timing is everything, whether discussing music, sports or life in general, and this certainly proves to be the case with the recording of Rumors. In September of 2009, jazz photographer and occasional producer Jimmy Katz made a last minute offer to record pianist Frank Kimbrough in a setting of his choice. Kimbrough, having just played with bassist Masa Kamaguchi and drummer Jeff Hirshfield at the Kitano in New York City, yearned to connect with these musicians again before Kamaguchi returned to his home in Barcelona. The timing proved to be perfect and the chemistry between these three musicians is on full display across these eight tracks.

While seven of these pieces come from Kimbrough's pen, the album starts off with "Six," written by Catalan composer Federico Mompou and unfolding with Hirshfield's slow cymbal dance. Kimbrough's delivery shows an uncluttered sense of melodic brilliance, making this an engaging performance. "TMI," no doubt referencing the popular abbreviation for "Too Much Information," betrays Kimbrough's fondness for piano visionaries like Thelonious Monk, Andrew Hill and Herbie Nichols. Quirky, sea-sawing melodic snippets collide as the trio shows off its elastic sense of time. While performing as one interactive entity on this song, "Hope" begins as a showcase for Kimbrough. Kamaguchi and Hirshfield enter this performance with a fragile sense of being, and support Kimbrough during his comforting and consonant travels. Eventually, bass and piano converse and create some touching musical moments.

The title track begins with some slight hints of the Far East. As the music grows, Hirshfield's ride cymbal work becomes more furious and he rains down on the group with a percussive storm. Kamaguchi's pulsing, insistent bass presence helps to provide a sense of consistency in these stormy moments. Kimbrough creates a two-handed dance on "Sure As We're Here," with Hirshfield providing some skittering brushwork. "Forsythia"—a plant that often signals the arrival of spring—shows deep, beautiful, organic musical growth. An expansive and open feeling pervades this piece, with Kamaguchi blending well with Kimbrough, and the clear ring of the bass and piano seeming to linger in the air.

"Over," with its spiky, jagged beginning, starts off like a three-way boxing match. Each man jabs and prods with his instrument, but things change when Hirshfield takes over, owning the music until Kamaguchi gets his turn. A shower of notes seems to descend from all places as the piece tumbles toward its conclusion. "For Andrew" is six minutes of solemn, absorbing sound. Sensitivity and reverence travel through this piece, as each musician adds to the emotional impact and flow. This recording session might have been coordinated at the last minute, but it's hard to imagine finer musical conversations being crafted with all the planning time in the world.

Review by Dan Bilawsky, AllAboutJazz.com


Frank Kimbrough - Rumors (2010)



Personnel:

Frank Kimbrough, piano
Masa Kamaguchi, bass
Jeff Hirshfield, drums

Tracklist:

01. Six (8:22)
02. TMI (5:32)
03. Hope (7:06)
04. Rumors (5:41)
05. Sure As We're Here (7:52)
06. Forsythia (6:35)
07. Over (6:23)
08. For Andrew (6:00)


Exact Audio Copy V0.99 prebeta 5 from 4. May 2009

EAC extraction logfile from 24. August 2010, 13:50

Frank Kimbrough / Rumors

Used drive : PLEXTOR CD-R PREMIUM2 Adapter: 3 ID: 0

Read mode : Secure
Utilize accurate stream : Yes
Defeat audio cache : Yes
Make use of C2 pointers : No

Read offset correction : 30
Overread into Lead-In and Lead-Out : Yes
Fill up missing offset samples with silence : Yes
Delete leading and trailing silent blocks : No
Null samples used in CRC calculations : Yes
Used interface : Native Win32 interface for Win NT & 2000
Gap handling : Appended to previous track

Used output format : User Defined Encoder
Selected bitrate : 128 kBit/s
Quality : High
Add ID3 tag : No
Command line compressor : D:\Programme\EAC099\Flac\flac.exe
Additional command line options : -5 -V -T "ARTIST=%a" -T "TITLE=%t" -T "ALBUM=%g" -T "DATE=%y" -T "TRACKNUMBER=%n" -T "TOTALTRACKS=%x" -T "GENRE=%m" -T "ALBUM ARTIST=%v" -T "ALBUMARTIST=%v" -T "COMMENT=EAC V0.99 prebeta 5, Secure Mode, Test & Copy, Accurat


TOC of the extracted CD

Track | Start | Length | Start sector | End sector
––––––––––––––––––––––––––––-
1 | 0:00.00 | 8:22.31 | 0 | 37680
2 | 8:22.31 | 5:31.44 | 37681 | 62549
3 | 13:54.00 | 7:05.71 | 62550 | 94495
4 | 20:59.71 | 5:41.37 | 94496 | 120107
5 | 26:41.33 | 7:52.30 | 120108 | 155537
6 | 34:33.63 | 6:35.29 | 155538 | 185191
7 | 41:09.17 | 6:23.31 | 185192 | 213947
8 | 47:32.48 | 6:00.36 | 213948 | 240983


Track 1

Filename E:\Share\Jazz\K-O\Frank Kimbrough - Rumors (2010) [FLAC] {Palmetto Jazz PM 2141}\01 - Six.wav

Pre-gap length 0:00:02.00

Peak level 96.5 %
Track quality 99.9 %
Test CRC 06A5E14A
Copy CRC 06A5E14A
Track not present in AccurateRip database
Copy OK

Track 2

Filename E:\Share\Jazz\K-O\Frank Kimbrough - Rumors (2010) [FLAC] {Palmetto Jazz PM 2141}\02 - TMI.wav

Peak level 98.0 %
Track quality 100.0 %
Test CRC F2610A4A
Copy CRC F2610A4A
Track not present in AccurateRip database
Copy OK

Track 3

Filename E:\Share\Jazz\K-O\Frank Kimbrough - Rumors (2010) [FLAC] {Palmetto Jazz PM 2141}\03 - Hope.wav

Peak level 95.5 %
Track quality 100.0 %
Test CRC 4CE7D8F7
Copy CRC 4CE7D8F7
Track not present in AccurateRip database
Copy OK

Track 4

Filename E:\Share\Jazz\K-O\Frank Kimbrough - Rumors (2010) [FLAC] {Palmetto Jazz PM 2141}\04 - Rumors.wav

Peak level 95.4 %
Track quality 100.0 %
Test CRC D446A094
Copy CRC D446A094
Track not present in AccurateRip database
Copy OK

Track 5

Filename E:\Share\Jazz\K-O\Frank Kimbrough - Rumors (2010) [FLAC] {Palmetto Jazz PM 2141}\05 - Sure As We're Here.wav

Peak level 98.2 %
Track quality 100.0 %
Test CRC AE967968
Copy CRC AE967968
Track not present in AccurateRip database
Copy OK

Track 6

Filename E:\Share\Jazz\K-O\Frank Kimbrough - Rumors (2010) [FLAC] {Palmetto Jazz PM 2141}\06 - Forsythia.wav

Peak level 97.7 %
Track quality 100.0 %
Test CRC B358761F
Copy CRC B358761F
Track not present in AccurateRip database
Copy OK

Track 7

Filename E:\Share\Jazz\K-O\Frank Kimbrough - Rumors (2010) [FLAC] {Palmetto Jazz PM 2141}\07 - Over.wav

Peak level 98.6 %
Track quality 100.0 %
Test CRC 71079183
Copy CRC 71079183
Track not present in AccurateRip database
Copy OK

Track 8

Filename E:\Share\Jazz\K-O\Frank Kimbrough - Rumors (2010) [FLAC] {Palmetto Jazz PM 2141}\08 - For Andrew.wav

Peak level 97.7 %
Track quality 100.0 %
Test CRC 30CE3D8F
Copy CRC 30CE3D8F
Track not present in AccurateRip database
Copy OK


None of the tracks are present in the AccurateRip database

No errors occurred

End of status report

[CUETools log; Date: 06.04.2018 1:46:18; Version: 2.1.4]
[CTDB TOCID: OZ9V_ZwgpFPkd9b_YXN_HFom4Uw-] found.
Track | CTDB Status
1 | (3/3) Accurately ripped
2 | (3/3) Accurately ripped
3 | (3/3) Accurately ripped
4 | (3/3) Accurately ripped
5 | (3/3) Accurately ripped
6 | (3/3) Accurately ripped
7 | (3/3) Accurately ripped
8 | (3/3) Accurately ripped
[AccurateRip ID: 0010f1e1-00702cfd-5f0c8d08] found.
Track [ CRC | V2 ] Status
01 [f12a2c3d|a52e5e4f] (3+5/8) Accurately ripped
02 [4b77eb31|767d7e22] (3+5/8) Accurately ripped
03 [f5bcbd96|6fa7c8d0] (3+5/8) Accurately ripped
04 [395a66f5|17cb46ce] (3+5/8) Accurately ripped
05 [c2e86fce|570f67f9] (3+5/8) Accurately ripped
06 [1d03da52|7684a39e] (3+5/8) Accurately ripped
07 [db76c38b|4c1eb755] (3+5/8) Accurately ripped
08 [dcbed6ea|f0cb1216] (3+4/7) Accurately ripped

Track Peak [ CRC32 ] [W/O NULL] [ LOG ]
– 98,6 [23E82031] [304AC045]
01 96,5 [06A5E14A] [DC1539AC] CRC32
02 98,0 [F2610A4A] [EF89B932] CRC32
03 95,5 [4CE7D8F7] [D1BB32FC] CRC32
04 95,4 [D446A094] [DC774F2F] CRC32
05 98,2 [AE967968] [059E491D] CRC32
06 97,7 [B358761F] [2CB951FF] CRC32
07 98,6 [71079183] [5C1880DD] CRC32
08 97,7 [30CE3D8F] [0CF4C1AC] CRC32

foobar2000 1.2 / Dynamic Range Meter 1.1.1
log date: 2018-04-06 03:56:37

––––––––––––––––––––––––––––––––––––––––
Analyzed: Frank Kimbrough / Rumors
––––––––––––––––––––––––––––––––––––––––

DR Peak RMS Duration Track
––––––––––––––––––––––––––––––––––––––––
DR13 -0.30 dB -18.31 dB 8:22 01-Six
DR12 -0.17 dB -16.07 dB 5:32 02-TMI
DR14 -0.40 dB -18.99 dB 7:06 03-Hope
DR12 -0.40 dB -17.59 dB 5:41 04-Rumors
DR11 -0.15 dB -14.90 dB 7:52 05-Sure As We're Here
DR12 -0.20 dB -16.67 dB 6:35 06-Forsythia
DR12 -0.12 dB -13.92 dB 6:23 07-Over
DR13 -0.19 dB -17.99 dB 6:00 08-For Andrew
––––––––––––––––––––––––––––––––––––––––

Number of tracks: 8
Official DR value: DR12

Samplerate: 44100 Hz
Channels: 2
Bits per sample: 16
Bitrate: 541 kbps
Codec: FLAC
================================================================================

Frank Kimbrough - Rumors (2010)

Frank Kimbrough - Rumors (2010)

All thanks to original releaser - hanswurst

More interesting music in My Blog