Tags
Language
Tags
April 2024
Su Mo Tu We Th Fr Sa
31 1 2 3 4 5 6
7 8 9 10 11 12 13
14 15 16 17 18 19 20
21 22 23 24 25 26 27
28 29 30 1 2 3 4

Freddie Hubbard - The Complete Freddie Hubbard Blue Note & Impulse '60s Studio Sessions (2022)

Posted By: Rtax
Freddie Hubbard - The Complete Freddie Hubbard Blue Note & Impulse '60s Studio Sessions (2022)

Freddie Hubbard - The Complete Freddie Hubbard Blue Note & Impulse '60s Studio Sessions (2022)
XLD Rip | FLAC (tracks, cue, log) - 3 GB | MP3 CBR 320 kbps - 1.08 GB
8:02:32 | Jazz, Hard Bop, Post Bop | Label: Mosaic Records

One Of The Most Original Jazz Trumpeters Of The Last 40 Years. Stunning Audio Quality
Mastered from hi-res files of the original analog masters by Malcolm Addey. Thanks to current 24 bit/192 hKz technology and dramatic improvement in analog to digital converters, the sound on this set is far superior to any previous CD issues and is astonishingly close to that of audiophile vinyl.

Ten Classic Studio Albums on Seven CDs
This limited edition collection traces Hubbard’s rise to prominence by collecting the entire ten studio albums recorded during his first six years as a leader. All of the music gives evidence of a brilliant player with an ever-more-personal voice, a budding composer who would go on to pen several jazz classics.

“From the moment he played one note you knew that was Freddie Hubbard. He had a sound that was as distinctive as Miles Davis, as Louis Armstrong, as Clifford Brown. I mean, he’s one of those trumpet players.” – Stanley Crouch

Freddie Hubbard
Rarely Was A Trumpeter As Accomplished
Freddie Hubbard didn’t just play trumpet, he played THE trumpet – he played with commanding strength and a rich, broad tone, he played with warmth and seduction, he played its entire spectrum from low register to high. Knowing it to be an instrument designed to respond well to dexterity, he became a virtuoso capable of dizzying 16th-note runs through surprising chord inversions, each the exact right note in the moment.

He used his embouchure in new ways to bend and caress the sound, something more associated with saxophone players than brass. There wasn’t one aspect of trumpet playing that Freddie Hubbard didn’t master on the road to becoming one of the most consummate jazz soloists in the music’s history.

Even at the start of his career, Hubbard’s command over his tone was exceptional. He could achieve deep and moving warmth, yet also unleash a ringing, brilliant call-to-attention when the composition demanded. As for his soloing, it’s possible that his experience with the Jazz Messengers – which featured an expanded front line leading to shorter solos – taught him the value of what one writer called his “narrative clarity.” Hubbard seemed to say more, and more coherently, without losing the thread in his solo statements.

A broad spectrum of leaders wanted his power, his weight, his taste, and his inventiveness.

No wonder he was busy almost continuously from the moment he hit New York at the age of 20, already a working musician and immediately in demand. He became known mostly for a sound associated with Blue Note Records and hard bop, but quickly he was everywhere doing everything — with Eric Dolphy (his roommate) on “Outward Bound,” Ornette Coleman on “Free Jazz,” Herbie Hancock on “Maiden Voyage,” John Coltrane on “Ascension,” Wayne Shorter on “Speak No Evil,” and Oliver Nelson on “The Blues and the Abstract Truth.”

His work with Art Blakey’s sextet from 1961 to ‘64 catapulted his compositional and improvisational talents to the world stage. That relationship yielded ten albums and introduced such Hubbard classics as “Down Under,” “Crisis,” “Up Jumped Spring” and “Thermo.”

Hubbard’s collaborators on these Blue Note and Impulse! dates run the gamut from newcomers (in 1960) like Clifford Jarvis and McCoy Tyner, with the always-underrated Tina Brooks, to established royalty like Paul Chambers, Philly Jo Jones, and Hank Mobley just a year later. Other groupings through the years include Sam Jones, Cedar Walton, Larry Ridley, Jimmy Heath, Julian Priester, Elvin Jones, Art Davis, Wayne Shorter, Bernard McKinney, John Gilmore, Tommy Flanagan, Louis Hayes, Curtis Fuller, Art Davis, Reggie Workman, James Spaulding, Herbie Hancock, Eric Dolphy, Ronnie Mathews, Eddie Khan, Joe Chambers, Joe Henderson, Harold Mabern, Big Black, and Kiane Zawadi.

Each album has treats for the listener

Now at last Freddie gets his own seven-CD box set, with a special twist. Thanks to a special arrangement with the labels, we were able to package “The Complete Freddie Hubbard Blue Note & Impulse ‘60s Studio Sessions” in one box, representing every studio date he led from 1960 to 1966.

There’s never been a better way to trace his development as an artist or own some of the most significant music of his long career. It was an era when musicians like Hubbard weren’t only making great music. They were making music history.

With exceptional arrangements by Wayne Shorter in three distinctive settings (big band, strings and small group), the album “The Body & The Soul” is a window into the work of a musician in complete control. From the flawless rendition of “Body And Soul” which he embraces, completely subduing the instrument’s brassiness, to the sharper and more piercing approach to Ellington’s “Chocolate Shake” and the experimental vibe of “Clarence’s Place” featuring Eric Dolphy’s jabs and jolts.

His ballad mastery on “But Beautiful,” his sensitivity on “Cry Me Not,” the simmering intensity of “Luana,” and taut blowing on “Earmon Jr.” stand out, as does his cheerful, bright approach to “Happy Times” and his fleet, sure-footed flurry on “Philly Mignon.” It’s hard to imagine one musician leading four dates in the span of 16 months, while simultaneously participating on “Doin’ Alright” with Dexter Gordon, “Africa/Brass” and “Ole Coltrane” with John Coltrane, and holding down the trumpet chair with Art Blakey, but that was Hubbard at his finest.

The Mosaic Treatment

Our box includes our exclusive Mosaic booklet featuring a complete discography and an essay and track-by-track analysis from our Blue Note chronicler Bob Blumenthal.

The 12 x 12 booklet is rich with beautifully reproduced images from master photographer Francis Wolff. With over 30 photographs, many from the actual sessions, Wolff’s images capture great musicians making history.

All sessions are sourced from the original analog masters. Thanks to current 24 bit/192 hKz technology and dramatic improvement in analog to digital converters, the sound on this set is far superior to any previous CD issues and is astonishingly close to that of audiophile vinyl.

“Freddie Hubbard was, I believe, the greatest jazz trumpet stylists of my generation. His influence is still being felt in the sound of many young trumpeters today. His warm tone and formidable technique will be considered marvels well into the future.” – Herbie Hancock

Limited Edition: 5000

Tracklist
Disc 1 (01:11:46)
1. Open Sesame (07:08)
2. But Beautiful (06:24)
3. Gypsy Blue (06:22)
4. All Or Nothing At All (05:33)
5. One Mint Julep (06:00)
6. Hub's Nub (06:52)
7. Open Sesame (Alt Tk) (07:14)
8. Gypsy Blue (Alt Tk) (07:32)
9. Asiatic Raes (06:43)
10. The Changing Scene (05:46)
11. Karioka (06:12)

Disc 2 (01:11:41)
1. A Peck A Sec (05:46)
2. I Wished I Knew (07:44)
3. Blues For Brenda (06:59)
4. Hub Cap (05:14)
5. Cry Me Not (04:46)
6. Luana (10:03)
7. Osie Mae (06:49)
8. Plexus (08:59)
9. Earmon Jr. (06:15)
10. Plexus (Alt Tk) (09:06)

Disc 3 (01:15:40)
1. Arietis (06:39)
2. Weaver Of Dreams (06:34)
3. Marie Antoinette (06:38)
4. Birdlike (10:15)
5. Crisis (11:40)
6. Arietis (Alt Tk) (05:49)
7. Marie Antoinette (Alt Tk) (06:13)
8. Caravan (07:25)
9. Bob's Place (10:01)
10. Happy Times (04:26)

Disc 4 (58:35)
1. Summertime (10:03)
2. The 7th Day (10:29)
3. Philly Mignon (05:27)
4. Father And Son (06:34)
5. Body And Soul (06:26)
6. Nostrand And Fulton (07:07)
7. Full Moon And Empty Arms (05:25)
8. Assunta (07:04)

Disc 5 (01:12:07)
1. You're My Everything (06:33)
2. Prophet Jennings (05:27)
3. Hub-tones (08:20)
4. Lament For Booker (09:38)
5. For Spee's Sake (08:34)
6. You're My Everything (Alt Tk) (06:26)
7. Hub-tones (Alt Tk) (07:57)
8. For Spee's Sake (Alt Tk) (07:49)
9. Body And Soul (04:36)
10. Dedicated To You (03:21)
11. Clarence's Place (03:26)

Disc 6 (01:11:05)
1. Chocolate Shake (03:54)
2. I Got It Bad (And That Ain't Good) (03:38)
3. Skylark (04:29)
4. Aries (03:03)
5. Carnival (Manha De Carnaval) (05:17)
6. Thermo (04:12)
7. Breaking Point (10:15)
8. Far Away (10:54)
9. Blue Frenzy (06:20)
10. D Minor Mint (06:22)
11. Mirrors (06:05)
12. Blue Frenzy (45 Tk) (03:15)
13. Mirrors (45 Tk) (03:21)

Disc 7 (01:01:38)
1. Soul Surge (10:13)
2. Cunga Black (05:12)
3. Blue Spirits (12:11)
4. Outer Forces (09:32)
5. Jodo (07:05)
6. The Melting Pot (07:33)
7. True Colors (09:52)
X Lossless Decoder version 20220917 (155.1)

XLD extraction logfile from 2023-02-03 23:36:39 -0600

Freddie Hubbard / The Complete Freddie Hubbard Blue Note & Impulse '60s Studio Sessions

Used drive : PIONEER BD-RW BDR-XD05 (revision 3.01)
Media type : Pressed CD

Ripper mode : XLD Secure Ripper
Disable audio cache : OK for the drive with a cache less than 1375KiB
Make use of C2 pointers : NO
Read offset correction : 667
Max retry count : 100
Gap status : Analyzed, Appended (except HTOA)

TOC of the extracted CD
Track | Start | Length | Start sector | End sector
––––––––––––––––––––––––––––-
1 | 00:00:00 | 07:10:58 | 0 | 32307
2 | 07:10:58 | 06:27:10 | 32308 | 61342
3 | 13:37:68 | 06:24:37 | 61343 | 90179
4 | 20:02:30 | 05:35:37 | 90180 | 115341
5 | 25:37:67 | 06:02:51 | 115342 | 142542
6 | 31:40:43 | 06:53:69 | 142543 | 173586
7 | 38:34:37 | 07:16:27 | 173587 | 206313
8 | 45:50:64 | 07:33:62 | 206314 | 240350
9 | 53:24:51 | 06:45:68 | 240351 | 270793
10 | 60:10:44 | 05:49:17 | 270794 | 296985
11 | 65:59:61 | 06:15:31 | 296986 | 325141

AccurateRip Summary (DiscID: 001dd44a-010295ac-8810ef0b)
Track 01 : OK (v2, confidence 6/6)
Track 02 : OK (v2, confidence 6/6)
Track 03 : OK (v2, confidence 6/6)
Track 04 : OK (v2, confidence 6/6)
Track 05 : OK (v2, confidence 6/6)
Track 06 : OK (v2, confidence 6/6)
Track 07 : OK (v2, confidence 6/6)
Track 08 : OK (v2, confidence 6/6)
Track 09 : OK (v2, confidence 6/6)
Track 10 : OK (v2, confidence 6/6)
Track 11 : OK (v2, confidence 6/6)
->All tracks accurately ripped.

All Tracks
Album gain : -2.84 dB
Peak : 0.999969
Statistics
Read error : 0
Jitter error (maybe fixed) : 0
Retry sector count : 0
Damaged sector count : 0

Track 01
Filename : /Volumes/Music/01 Freddie Hubbard - Open Sesame.flac
Pre-gap length : 00:02:00

Track gain : -4.21 dB
Peak : 0.974243
CRC32 hash (test run) : E5D3603D
CRC32 hash : E5D3603D
CRC32 hash (skip zero) : 8F3EDFAD
AccurateRip v1 signature : 06C1B4A4
AccurateRip v2 signature : DFF10B9C
->Accurately ripped (v2, confidence 6/6)
Statistics
Read error : 0
Jitter error (maybe fixed) : 0
Retry sector count : 0
Damaged sector count : 0

Track 02
Filename : /Volumes/Music/02 Freddie Hubbard - But Beautiful.flac

Track gain : -0.99 dB
Peak : 0.910858
CRC32 hash (test run) : D5046EB4
CRC32 hash : D5046EB4
CRC32 hash (skip zero) : 86AF57E5
AccurateRip v1 signature : 50578A7F
AccurateRip v2 signature : BCC95390
->Accurately ripped (v2, confidence 6/6)
Statistics
Read error : 0
Jitter error (maybe fixed) : 0
Retry sector count : 0
Damaged sector count : 0

Track 03
Filename : /Volumes/Music/03 Freddie Hubbard - Gypsy Blue.flac

Track gain : -2.40 dB
Peak : 0.892883
CRC32 hash (test run) : B52CF05C
CRC32 hash : B52CF05C
CRC32 hash (skip zero) : A1C57031
AccurateRip v1 signature : C77D0266
AccurateRip v2 signature : 9CAD28F1
->Accurately ripped (v2, confidence 6/6)
Statistics
Read error : 0
Jitter error (maybe fixed) : 0
Retry sector count : 0
Damaged sector count : 0

Track 04
Filename : /Volumes/Music/04 Freddie Hubbard - All or Nothing at All.flac

Track gain : -3.93 dB
Peak : 0.976471
CRC32 hash (test run) : EF7840DF
CRC32 hash : EF7840DF
CRC32 hash (skip zero) : 3155B818
AccurateRip v1 signature : F3A16C35
AccurateRip v2 signature : 3B3DE7F2
->Accurately ripped (v2, confidence 6/6)
Statistics
Read error : 0
Jitter error (maybe fixed) : 0
Retry sector count : 0
Damaged sector count : 0

Track 05
Filename : /Volumes/Music/05 Freddie Hubbard - One Mint Julep.flac

Track gain : -2.91 dB
Peak : 0.944733
CRC32 hash (test run) : FD4BEA6D
CRC32 hash : FD4BEA6D
CRC32 hash (skip zero) : 1E629A1B
AccurateRip v1 signature : 5CC62E49
AccurateRip v2 signature : 02C5E2AA
->Accurately ripped (v2, confidence 6/6)
Statistics
Read error : 0
Jitter error (maybe fixed) : 0
Retry sector count : 0
Damaged sector count : 0

Track 06
Filename : /Volumes/Music/06 Freddie Hubbard - Hub's Nub.flac

Track gain : -2.89 dB
Peak : 0.940430
CRC32 hash (test run) : EE7A819B
CRC32 hash : EE7A819B
CRC32 hash (skip zero) : 68251B3F
AccurateRip v1 signature : 537D9B6F
AccurateRip v2 signature : 58FD4631
->Accurately ripped (v2, confidence 6/6)
Statistics
Read error : 0
Jitter error (maybe fixed) : 0
Retry sector count : 0
Damaged sector count : 0

Track 07
Filename : /Volumes/Music/07 Freddie Hubbard - Open Sesame (Alt Tk).flac

Track gain : -2.09 dB
Peak : 0.999969
CRC32 hash (test run) : BD1F370C
CRC32 hash : BD1F370C
CRC32 hash (skip zero) : 5772E0C3
AccurateRip v1 signature : 4A7892BA
AccurateRip v2 signature : B086E052
->Accurately ripped (v2, confidence 6/6)
Statistics
Read error : 0
Jitter error (maybe fixed) : 0
Retry sector count : 0
Damaged sector count : 0

Track 08
Filename : /Volumes/Music/08 Freddie Hubbard - Gypsy Blue (Alt Tk).flac

Track gain : -1.74 dB
Peak : 0.981567
CRC32 hash (test run) : CD9EA18C
CRC32 hash : CD9EA18C
CRC32 hash (skip zero) : CFAE3C84
AccurateRip v1 signature : 4E93320F
AccurateRip v2 signature : F6C68D73
->Accurately ripped (v2, confidence 6/6)
Statistics
Read error : 0
Jitter error (maybe fixed) : 0
Retry sector count : 0
Damaged sector count : 0

Track 09
Filename : /Volumes/Music/09 Freddie Hubbard - Asiatic Raes.flac

Track gain : -2.64 dB
Peak : 0.994629
CRC32 hash (test run) : 2216CFFB
CRC32 hash : 2216CFFB
CRC32 hash (skip zero) : D8574905
AccurateRip v1 signature : 5B4FA8CC
AccurateRip v2 signature : 70FE8420
->Accurately ripped (v2, confidence 6/6)
Statistics
Read error : 0
Jitter error (maybe fixed) : 0
Retry sector count : 0
Damaged sector count : 0

Track 10
Filename : /Volumes/Music/10 Freddie Hubbard - The Changing Scene.flac

Track gain : -3.61 dB
Peak : 0.977570
CRC32 hash (test run) : 23C27E4D
CRC32 hash : 23C27E4D
CRC32 hash (skip zero) : E925DEE4
AccurateRip v1 signature : D5BF83DF
AccurateRip v2 signature : 0F2FB6B5
->Accurately ripped (v2, confidence 6/6)
Statistics
Read error : 0
Jitter error (maybe fixed) : 0
Retry sector count : 0
Damaged sector count : 0

Track 11
Filename : /Volumes/Music/11 Freddie Hubbard - Karioka.flac

Track gain : -2.94 dB
Peak : 0.944122
CRC32 hash (test run) : EC131E70
CRC32 hash : EC131E70
CRC32 hash (skip zero) : 2F7942A6
AccurateRip v1 signature : 771F41E6
AccurateRip v2 signature : 39410787
->Accurately ripped (v2, confidence 6/6)
Statistics
Read error : 0
Jitter error (maybe fixed) : 0
Retry sector count : 0
Damaged sector count : 0

No errors occurred

End of status report

––-BEGIN XLD SIGNATURE––-
5MzMblhuEUhBsNSD0o0r0d.cQd1b.7so7XGD48sU6FPDdQ6UrcgRaamAEcHaL04dJezj_ed1E.i6uFSo3n3dUkNIkBjnoxh3TD5YVQ8
––-END XLD SIGNATURE––-


X Lossless Decoder version 20220917 (155.1)

XLD extraction logfile from 2023-02-04 19:08:43 -0600

Freddie Hubbard / The Complete Freddie Hubbard Blue Note & Impulse '60s Studio Sessions

Used drive : PIONEER BD-RW BDR-XD05 (revision 3.01)
Media type : Pressed CD

Ripper mode : XLD Secure Ripper
Disable audio cache : OK for the drive with a cache less than 1375KiB
Make use of C2 pointers : NO
Read offset correction : 667
Max retry count : 100
Gap status : Analyzed, Appended (except HTOA)

TOC of the extracted CD
Track | Start | Length | Start sector | End sector
––––––––––––––––––––––––––––-
1 | 00:00:00 | 05:48:29 | 0 | 26128
2 | 05:48:29 | 07:47:41 | 26129 | 61194
3 | 13:35:70 | 07:01:29 | 61195 | 92798
4 | 20:37:24 | 05:17:07 | 92799 | 116580
5 | 25:54:31 | 04:49:36 | 116581 | 138291
6 | 30:43:67 | 10:06:32 | 138292 | 183773
7 | 40:50:24 | 06:53:35 | 183774 | 214783
8 | 47:43:59 | 09:02:50 | 214784 | 255483
9 | 56:46:34 | 06:18:24 | 255484 | 283857
10 | 63:04:58 | 09:09:57 | 283858 | 325089

AccurateRip Summary (DiscID: 0019e8c2-00d1a149-9510ee0a)
Track 01 : OK (v2, confidence 6/6)
Track 02 : OK (v2, confidence 6/6)
Track 03 : OK (v2, confidence 6/6)
Track 04 : OK (v2, confidence 6/6)
Track 05 : OK (v2, confidence 6/6)
Track 06 : OK (v2, confidence 6/6)
Track 07 : OK (v2, confidence 6/6)
Track 08 : OK (v2, confidence 6/6)
Track 09 : OK (v2, confidence 6/6)
Track 10 : OK (v2, confidence 6/6)
->All tracks accurately ripped.

All Tracks
Album gain : -3.17 dB
Peak : 0.999969
Statistics
Read error : 0
Jitter error (maybe fixed) : 0
Retry sector count : 0
Damaged sector count : 0

Track 01
Filename : /Volumes/Music/01 Freddie Hubbard - A Peck a Sec.flac
Pre-gap length : 00:02:00

Track gain : -2.64 dB
Peak : 0.993011
CRC32 hash (test run) : DC1F8E1F
CRC32 hash : DC1F8E1F
CRC32 hash (skip zero) : 3B9E4D64
AccurateRip v1 signature : 8165BC0E
AccurateRip v2 signature : 28910C12
->Accurately ripped (v2, confidence 6/6)
Statistics
Read error : 0
Jitter error (maybe fixed) : 0
Retry sector count : 0
Damaged sector count : 0

Track 02
Filename : /Volumes/Music/02 Freddie Hubbard - I Wished I Knew.flac

Track gain : -0.64 dB
Peak : 0.952423
CRC32 hash (test run) : 332B83D4
CRC32 hash : 332B83D4
CRC32 hash (skip zero) : 77D1D356
AccurateRip v1 signature : 74996AA5
AccurateRip v2 signature : 5BECE2D6
->Accurately ripped (v2, confidence 6/6)
Statistics
Read error : 0
Jitter error (maybe fixed) : 0
Retry sector count : 0
Damaged sector count : 0

Track 03
Filename : /Volumes/Music/03 Freddie Hubbard - Blues for Brenda.flac

Track gain : -2.36 dB
Peak : 0.957458
CRC32 hash (test run) : EBB7C141
CRC32 hash : EBB7C141
CRC32 hash (skip zero) : 80CC623D
AccurateRip v1 signature : A6651955
AccurateRip v2 signature : 3E79411E
->Accurately ripped (v2, confidence 6/6)
Statistics
Read error : 0
Jitter error (maybe fixed) : 0
Retry sector count : 0
Damaged sector count : 0

Track 04
Filename : /Volumes/Music/04 Freddie Hubbard - Hub Cap.flac

Track gain : -3.23 dB
Peak : 0.982758
CRC32 hash (test run) : 4A1EE29A
CRC32 hash : 4A1EE29A
CRC32 hash (skip zero) : 1E7C0845
AccurateRip v1 signature : 9973E4F6
AccurateRip v2 signature : 360396B2
->Accurately ripped (v2, confidence 6/6)
Statistics
Read error : 0
Jitter error (maybe fixed) : 0
Retry sector count : 0
Damaged sector count : 0

Track 05
Filename : /Volumes/Music/05 Freddie Hubbard - Cry Me Not.flac

Track gain : -2.26 dB
Peak : 0.932068
CRC32 hash (test run) : 45A872DC
CRC32 hash : 45A872DC
CRC32 hash (skip zero) : 0B94637A
AccurateRip v1 signature : 5B1079BA
AccurateRip v2 signature : 3DCEC839
->Accurately ripped (v2, confidence 6/6)
Statistics
Read error : 0
Jitter error (maybe fixed) : 0
Retry sector count : 0
Damaged sector count : 0

Track 06
Filename : /Volumes/Music/06 Freddie Hubbard - Luana.flac

Track gain : -3.17 dB
Peak : 0.993774
CRC32 hash (test run) : E2C3CC4E
CRC32 hash : E2C3CC4E
CRC32 hash (skip zero) : 3820CC78
AccurateRip v1 signature : 43B75970
AccurateRip v2 signature : 46FAEE29
->Accurately ripped (v2, confidence 6/6)
Statistics
Read error : 0
Jitter error (maybe fixed) : 0
Retry sector count : 0
Damaged sector count : 0

Track 07
Filename : /Volumes/Music/07 Freddie Hubbard - Osie Mae.flac

Track gain : -2.74 dB
Peak : 0.943573
CRC32 hash (test run) : 44FC8C0C
CRC32 hash : 44FC8C0C
CRC32 hash (skip zero) : 5BFC81CC
AccurateRip v1 signature : 8CDD094E
AccurateRip v2 signature : 04A3D6A8
->Accurately ripped (v2, confidence 6/6)
Statistics
Read error : 0
Jitter error (maybe fixed) : 0
Retry sector count : 0
Damaged sector count : 0

Track 08
Filename : /Volumes/Music/08 Freddie Hubbard - Plexus.flac

Track gain : -3.93 dB
Peak : 0.982208
CRC32 hash (test run) : 68B5F98C
CRC32 hash : 68B5F98C
CRC32 hash (skip zero) : 2AEAE58F
AccurateRip v1 signature : 8580C26E
AccurateRip v2 signature : BC589A11
->Accurately ripped (v2, confidence 6/6)
Statistics
Read error : 0
Jitter error (maybe fixed) : 0
Retry sector count : 0
Damaged sector count : 0

Track 09
Filename : /Volumes/Music/09 Freddie Hubbard - Earmon Jr..flac

Track gain : -3.43 dB
Peak : 0.957031
CRC32 hash (test run) : 2E18686D
CRC32 hash : 2E18686D
CRC32 hash (skip zero) : E1A42C6D
AccurateRip v1 signature : E6703084
AccurateRip v2 signature : 77C3F9BE
->Accurately ripped (v2, confidence 6/6)
Statistics
Read error : 0
Jitter error (maybe fixed) : 0
Retry sector count : 0
Damaged sector count : 0

Track 10
Filename : /Volumes/Music/10 Freddie Hubbard - Plexus (Alt Tk).flac

Track gain : -4.57 dB
Peak : 0.999969
CRC32 hash (test run) : F474F6E3
CRC32 hash : F474F6E3
CRC32 hash (skip zero) : 63665029
AccurateRip v1 signature : 9B0EE0C0
AccurateRip v2 signature : C3E20CFD
->Accurately ripped (v2, confidence 6/6)
Statistics
Read error : 0
Jitter error (maybe fixed) : 0
Retry sector count : 0
Damaged sector count : 0

No errors occurred

End of status report

––-BEGIN XLD SIGNATURE––-
eCMpYN6dJXd7O6rlAoygeRvfs9AR4J4tLIGVVuLK0jDzYa4XN5Px4myreRkutnLl9dt9Dln2dRrAWBtKL9mQBI08DODd1dWIub209Q4
––-END XLD SIGNATURE––-


X Lossless Decoder version 20220917 (155.1)

XLD extraction logfile from 2023-02-04 20:57:08 -0600

Freddie Hubbard / The Complete Freddie Hubbard Blue Note & Impulse '60s Studio Sessions

Used drive : PIONEER BD-RW BDR-XD05 (revision 3.01)
Media type : Pressed CD

Ripper mode : XLD Secure Ripper
Disable audio cache : OK for the drive with a cache less than 1375KiB
Make use of C2 pointers : NO
Read offset correction : 667
Max retry count : 100
Gap status : Analyzed, Appended (except HTOA)

TOC of the extracted CD
Track | Start | Length | Start sector | End sector
––––––––––––––––––––––––––––-
1 | 00:00:00 | 06:42:14 | 0 | 30163
2 | 06:42:14 | 06:37:33 | 30164 | 59971
3 | 13:19:47 | 06:41:15 | 59972 | 90061
4 | 20:00:62 | 10:18:72 | 90062 | 136483
5 | 30:19:59 | 11:43:24 | 136484 | 189232
6 | 42:03:08 | 05:52:18 | 189233 | 215650
7 | 47:55:26 | 06:16:27 | 215651 | 243877
8 | 54:11:53 | 07:28:19 | 243878 | 277496
9 | 61:39:72 | 10:04:23 | 277497 | 322819
10 | 71:44:20 | 04:29:27 | 322820 | 343021

AccurateRip Summary (DiscID: 001d202f-00eaa58f-6f11dd0a)
Track 01 : OK (v2, confidence 6/6)
Track 02 : OK (v2, confidence 6/6)
Track 03 : OK (v2, confidence 6/6)
Track 04 : OK (v2, confidence 6/6)
Track 05 : OK (v2, confidence 6/6)
Track 06 : OK (v2, confidence 6/6)
Track 07 : OK (v2, confidence 6/6)
Track 08 : OK (v2, confidence 6/6)
Track 09 : OK (v2, confidence 6/6)
Track 10 : OK (v2, confidence 6/6)
->All tracks accurately ripped.

All Tracks
Album gain : -1.90 dB
Peak : 0.998535
Statistics
Read error : 0
Jitter error (maybe fixed) : 0
Retry sector count : 0
Damaged sector count : 0

Track 01
Filename : /Volumes/Music/01 Freddie Hubbard - Arietis.flac
Pre-gap length : 00:02:00

Track gain : -1.88 dB
Peak : 0.998291
CRC32 hash (test run) : 877114A3
CRC32 hash : 877114A3
CRC32 hash (skip zero) : 8B7C4732
AccurateRip v1 signature : 0E833AFA
AccurateRip v2 signature : A505F39A
->Accurately ripped (v2, confidence 6/6)
Statistics
Read error : 0
Jitter error (maybe fixed) : 0
Retry sector count : 0
Damaged sector count : 0

Track 02
Filename : /Volumes/Music/02 Freddie Hubbard - Weaver of Dreams.flac

Track gain : 0.82 dB
Peak : 0.939941
CRC32 hash (test run) : DD929C92
CRC32 hash : DD929C92
CRC32 hash (skip zero) : 790F3451
AccurateRip v1 signature : 25D95E24
AccurateRip v2 signature : 3F949857
->Accurately ripped (v2, confidence 6/6)
Statistics
Read error : 0
Jitter error (maybe fixed) : 0
Retry sector count : 0
Damaged sector count : 0

Track 03
Filename : /Volumes/Music/03 Freddie Hubbard - Marie Antoinette.flac

Track gain : -2.16 dB
Peak : 0.998535
CRC32 hash (test run) : 6454DB9D
CRC32 hash : 6454DB9D
CRC32 hash (skip zero) : 2FD506CF
AccurateRip v1 signature : 3FB72947
AccurateRip v2 signature : 62831538
->Accurately ripped (v2, confidence 6/6)
Statistics
Read error : 0
Jitter error (maybe fixed) : 0
Retry sector count : 0
Damaged sector count : 0

Track 04
Filename : /Volumes/Music/04 Freddie Hubbard - Birdlike.flac

Track gain : -1.20 dB
Peak : 0.988434
CRC32 hash (test run) : 19BC251C
CRC32 hash : 19BC251C
CRC32 hash (skip zero) : 3082B6D0
AccurateRip v1 signature : 16374173
AccurateRip v2 signature : FA267BC2
->Accurately ripped (v2, confidence 6/6)
Statistics
Read error : 0
Jitter error (maybe fixed) : 0
Retry sector count : 0
Damaged sector count : 0

Track 05
Filename : /Volumes/Music/05 Freddie Hubbard - Crisis.flac

Track gain : 0.37 dB
Peak : 0.991241
CRC32 hash (test run) : D4E08196
CRC32 hash : D4E08196
CRC32 hash (skip zero) : 05AF861E
AccurateRip v1 signature : 0E2135E4
AccurateRip v2 signature : A77F0AEB
->Accurately ripped (v2, confidence 6/6)
Statistics
Read error : 0
Jitter error (maybe fixed) : 0
Retry sector count : 0
Damaged sector count : 0

Track 06
Filename : /Volumes/Music/06 Freddie Hubbard - Arietis (Alt Tk).flac

Track gain : -3.46 dB
Peak : 0.944977
CRC32 hash (test run) : B0CEA8C3
CRC32 hash : B0CEA8C3
CRC32 hash (skip zero) : BBC4D76B
AccurateRip v1 signature : F57FCFD8
AccurateRip v2 signature : 2E017376
->Accurately ripped (v2, confidence 6/6)
Statistics
Read error : 0
Jitter error (maybe fixed) : 0
Retry sector count : 0
Damaged sector count : 0

Track 07
Filename : /Volumes/Music/07 Freddie Hubbard - Marie Antoinette (Alt Tk).flac

Track gain : -2.82 dB
Peak : 0.954498
CRC32 hash (test run) : 5C63CF0A
CRC32 hash : 5C63CF0A
CRC32 hash (skip zero) : 374BB2C8
AccurateRip v1 signature : 4F50C421
AccurateRip v2 signature : FD255242
->Accurately ripped (v2, confidence 6/6)
Statistics
Read error : 0
Jitter error (maybe fixed) : 0
Retry sector count : 0
Damaged sector count : 0

Track 08
Filename : /Volumes/Music/08 Freddie Hubbard - Caravan.flac

Track gain : -3.35 dB
Peak : 0.984070
CRC32 hash (test run) : 74C5F55E
CRC32 hash : 74C5F55E
CRC32 hash (skip zero) : C0832416
AccurateRip v1 signature : 91A7A474
AccurateRip v2 signature : 3936BD59
->Accurately ripped (v2, confidence 6/6)
Statistics
Read error : 0
Jitter error (maybe fixed) : 0
Retry sector count : 0
Damaged sector count : 0

Track 09
Filename : /Volumes/Music/09 Freddie Hubbard - Bob's Place.flac

Track gain : -2.06 dB
Peak : 0.958740
CRC32 hash (test run) : 60296A40
CRC32 hash : 60296A40
CRC32 hash (skip zero) : 28C32785
AccurateRip v1 signature : 4770C9F6
AccurateRip v2 signature : 6DE99123
->Accurately ripped (v2, confidence 6/6)
Statistics
Read error : 0
Jitter error (maybe fixed) : 0
Retry sector count : 0
Damaged sector count : 0

Track 10
Filename : /Volumes/Music/10 Freddie Hubbard - Happy Times.flac

Track gain : -2.35 dB
Peak : 0.949127
CRC32 hash (test run) : 1EA5CD6E
CRC32 hash : 1EA5CD6E
CRC32 hash (skip zero) : A8F63713
AccurateRip v1 signature : 9E79D467
AccurateRip v2 signature : 31DD8F06
->Accurately ripped (v2, confidence 6/6)
Statistics
Read error : 0
Jitter error (maybe fixed) : 0
Retry sector count : 0
Damaged sector count : 0

No errors occurred

End of status report

––-BEGIN XLD SIGNATURE––-
stPrY72peqc99bHpQ6CAE7N7M_emS3nvyV21n3K9cCxgMJCecJhNuJVB5bUlxS8F19e4tufglQps2uS8DQxqrr106yML95FGbk_SAOm
––-END XLD SIGNATURE––-

Louis Armstrong - The Complete...ctor Studio Sessions 1946-1966