Subcategories

Freddie King - The Texas Cannonball (1972) [DCC Expanded Remastered 1991]

Posted By: Designol
Freddie King - The Texas Cannonball (1972) [DCC Expanded Remastered 1991]

Freddie King - The Texas Cannonball (1972)
Compiled & Remastered By Steve Hoffman, 1991
EAC | FLAC | Tracks (Cue&Log) ~ 462 Mb | Mp3 (CBR320) ~ 184 Mb | Scans included | 01:16:43
Modern Electric Blues, Texas Blues | Label: DCC Compact Classics, Shelter | # SRZ-8018

Similar to his first Shelter outing (Getting Ready), but with more of a rock feel. That's due as much to the material as the production. Besides covering tunes by Jimmy Rogers, Howlin' Wolf, and Elmore James, King tackles compositions by Leon Russell and, more unexpectedly, Bill Withers, Isaac Hayes-David Porter, and John Fogerty (whose "Lodi" is reworked into "Lowdown in Lodi"). King's own pen remained virtually in retirement, as he wrote only one of the album's tracks.

Review by Richie Unterberger, Allmusic.com

Freddie King - The Texas Cannonball (1972) [DCC Expanded Remastered 1991]



Tracklist:

The 1972 Album "Texas Cannonball":

01. Lowdown In Lodi (3:09)
02. Reconsider Baby (3:59)
03. Big Legged Woman (4:01)
04. Me And My Guitar (4:06)
05. I'd Rather Be Blind (3:46)
06. Can't Trust Your Neighbor (3:58)
07. You Was Wrong (3:49)
08. How Many More Years (3:27)
09. Ain't No Sunshine (3:20)
10. The Sky Is Crying (3:25)

Never Before Released Bonus Tracks:

From The "Texas Cannonball" Sessions:
11. Love Her With A Feeling (5:05)
12. Somebody's Got To Go (5:58)
13. Pulpwood (7:12)
From Sessions Held At Chess Studios, 1970:
14. That's All Right (4:43)
15. The Same Thing (5:58)
Live At Capitol Records, November 1971:
16. Tore Down (6:39)
17. Dust My Broom (4:09)


Exact Audio Copy V1.0 beta 1 from 15. November 2010

EAC extraction logfile from 7. June 2011, 21:35

Freddie King / The Texas Cannonball

Used drive : TSSTcorpCD/DVDW SH-S182D Adapter: 1 ID: 0

Read mode : Secure
Utilize accurate stream : Yes
Defeat audio cache : Yes
Make use of C2 pointers : No

Read offset correction : 6
Overread into Lead-In and Lead-Out : No
Fill up missing offset samples with silence : Yes
Delete leading and trailing silent blocks : No
Null samples used in CRC calculations : Yes
Used interface : Native Win32 interface for Win NT & 2000
Gap handling : Appended to previous track

Used output format : User Defined Encoder
Selected bitrate : 128 kBit/s
Quality : High
Add ID3 tag : No
Command line compressor : C:\Program Files\Exact Audio Copy\Flac\flac.exe
Additional command line options : -V -8 -T "artist=%a" -T "title=%t" -T "album=%g" -T "date=%y" -T "tracknumber=%n" -T "genre=%m" %s


TOC of the extracted CD

Track | Start | Length | Start sector | End sector
––––––––––––––––––––––––––––-
1 | 0:00.00 | 3:08.67 | 0 | 14166
2 | 3:08.67 | 3:59.10 | 14167 | 32101
3 | 7:08.02 | 4:00.40 | 32102 | 50141
4 | 11:08.42 | 4:05.63 | 50142 | 68579
5 | 15:14.30 | 3:45.57 | 68580 | 85511
6 | 19:00.12 | 3:57.45 | 85512 | 103331
7 | 22:57.57 | 3:48.68 | 103332 | 120499
8 | 26:46.50 | 3:27.07 | 120500 | 136031
9 | 30:13.57 | 3:20.15 | 136032 | 151046
10 | 33:33.72 | 3:25.25 | 151047 | 166446
11 | 36:59.22 | 5:04.68 | 166447 | 189314
12 | 42:04.15 | 5:57.67 | 189315 | 216156
13 | 48:02.07 | 7:12.15 | 216157 | 248571
14 | 55:14.22 | 4:43.15 | 248572 | 269811
15 | 59:57.37 | 5:57.43 | 269812 | 296629
16 | 65:55.05 | 6:39.07 | 296630 | 326561
17 | 72:34.12 | 4:09.20 | 326562 | 345256


Track 1

Filename D:\EAC Rips\Freddie King - 1972 - The Texas Cannonball\01 - Lowdown In Lodi.wav

Pre-gap length 0:00:02.00

Peak level 99.1 %
Extraction speed 4.5 X
Track quality 100.0 %
Test CRC 714BE070
Copy CRC 714BE070
Accurately ripped (confidence 3) [813F049A]
Copy OK

Track 2

Filename D:\EAC Rips\Freddie King - 1972 - The Texas Cannonball\02 - Reconsider Baby.wav

Pre-gap length 0:00:03.40

Peak level 99.6 %
Extraction speed 5.2 X
Track quality 100.0 %
Test CRC D351467C
Copy CRC D351467C
Accurately ripped (confidence 3) [DCC94659]
Copy OK

Track 3

Filename D:\EAC Rips\Freddie King - 1972 - The Texas Cannonball\03 - Big Legged Woman.wav

Pre-gap length 0:00:01.16

Peak level 94.0 %
Extraction speed 5.6 X
Track quality 100.0 %
Test CRC 66CA98AD
Copy CRC 66CA98AD
Accurately ripped (confidence 3) [66C3F7EA]
Copy OK

Track 4

Filename D:\EAC Rips\Freddie King - 1972 - The Texas Cannonball\04 - Me And My Guitar.wav

Pre-gap length 0:00:02.86

Peak level 99.9 %
Extraction speed 6.0 X
Track quality 100.0 %
Test CRC 48A6E250
Copy CRC 48A6E250
Accurately ripped (confidence 3) [5EFB7508]
Copy OK

Track 5

Filename D:\EAC Rips\Freddie King - 1972 - The Texas Cannonball\05 - I'd Rather Be Blind.wav

Pre-gap length 0:00:02.77

Peak level 100.0 %
Extraction speed 6.2 X
Track quality 100.0 %
Test CRC 5779EDAF
Copy CRC 5779EDAF
Accurately ripped (confidence 3) [B51D78CF]
Copy OK

Track 6

Filename D:\EAC Rips\Freddie King - 1972 - The Texas Cannonball\06 - Can't Trust Your Neighbor.wav

Pre-gap length 0:00:01.40

Peak level 96.5 %
Extraction speed 6.6 X
Track quality 100.0 %
Test CRC 7DD2EFEA
Copy CRC 7DD2EFEA
Accurately ripped (confidence 3) [7A981F18]
Copy OK

Track 7

Filename D:\EAC Rips\Freddie King - 1972 - The Texas Cannonball\07 - You Was Wrong.wav

Pre-gap length 0:00:02.76

Peak level 99.9 %
Extraction speed 6.9 X
Track quality 100.0 %
Test CRC A032BCB2
Copy CRC A032BCB2
Accurately ripped (confidence 3) [D02C7577]
Copy OK

Track 8

Filename D:\EAC Rips\Freddie King - 1972 - The Texas Cannonball\08 - How Many More Years.wav

Pre-gap length 0:00:02.44

Peak level 99.8 %
Extraction speed 7.1 X
Track quality 100.0 %
Test CRC 505B2084
Copy CRC 505B2084
Accurately ripped (confidence 3) [5B73D17A]
Copy OK

Track 9

Filename D:\EAC Rips\Freddie King - 1972 - The Texas Cannonball\09 - Ain't No Sunshine.wav

Pre-gap length 0:00:02.89

Peak level 96.7 %
Extraction speed 7.2 X
Track quality 100.0 %
Test CRC 7D56609B
Copy CRC 7D56609B
Accurately ripped (confidence 3) [4B4FB579]
Copy OK

Track 10

Filename D:\EAC Rips\Freddie King - 1972 - The Texas Cannonball\10 - The Sky Is Crying.wav

Pre-gap length 0:00:04.29

Peak level 100.0 %
Extraction speed 7.4 X
Track quality 100.0 %
Test CRC D561DB2A
Copy CRC D561DB2A
Accurately ripped (confidence 3) [4F915882]
Copy OK

Track 11

Filename D:\EAC Rips\Freddie King - 1972 - The Texas Cannonball\11 - Love Her With A Feeling.wav

Pre-gap length 0:00:01.69

Peak level 100.0 %
Extraction speed 8.2 X
Track quality 100.0 %
Test CRC 48A853E1
Copy CRC 48A853E1
Accurately ripped (confidence 3) [83B97061]
Copy OK

Track 12

Filename D:\EAC Rips\Freddie King - 1972 - The Texas Cannonball\12 - Somebody's Got To Go.wav

Pre-gap length 0:00:02.04

Peak level 100.0 %
Extraction speed 8.6 X
Track quality 100.0 %
Test CRC 740D8C01
Copy CRC 740D8C01
Accurately ripped (confidence 3) [B728B666]
Copy OK

Track 13

Filename D:\EAC Rips\Freddie King - 1972 - The Texas Cannonball\13 - Pulpwood.wav

Pre-gap length 0:00:01.62

Peak level 100.0 %
Extraction speed 9.2 X
Track quality 100.0 %
Test CRC A562C7BC
Copy CRC A562C7BC
Accurately ripped (confidence 3) [500E2F8A]
Copy OK

Track 14

Filename D:\EAC Rips\Freddie King - 1972 - The Texas Cannonball\14 - That's All Right.wav

Pre-gap length 0:00:00.93

Peak level 100.0 %
Extraction speed 9.1 X
Track quality 100.0 %
Test CRC F0CC088F
Copy CRC F0CC088F
Accurately ripped (confidence 3) [3CFA7B2E]
Copy OK

Track 15

Filename D:\EAC Rips\Freddie King - 1972 - The Texas Cannonball\15 - The Same Thing.wav

Pre-gap length 0:00:02.49

Peak level 99.2 %
Extraction speed 9.7 X
Track quality 100.0 %
Test CRC 90384EF4
Copy CRC 90384EF4
Accurately ripped (confidence 3) [51E18AE9]
Copy OK

Track 16

Filename D:\EAC Rips\Freddie King - 1972 - The Texas Cannonball\16 - Tore Down.wav

Pre-gap length 0:00:02.57

Peak level 100.0 %
Extraction speed 10.0 X
Track quality 100.0 %
Test CRC BC17EA42
Copy CRC BC17EA42
Accurately ripped (confidence 3) [464BA5F8]
Copy OK

Track 17

Filename D:\EAC Rips\Freddie King - 1972 - The Texas Cannonball\17 - Dust My Broom.wav

Pre-gap length 0:00:00.93

Peak level 99.9 %
Extraction speed 9.8 X
Track quality 100.0 %
Test CRC 520FDE8A
Copy CRC 520FDE8A
Accurately ripped (confidence 3) [F43C28CB]
Copy OK


All tracks accurately ripped

No errors occurred

End of status report

==== Log checksum 93A034E4DE0551F7C2EFBAA61B06A5FC086691A47220A872C7A6BBBF4917D264 ====

[CUETools log; Date: 13.11.2017 18:36:46; Version: 2.1.4]
[CTDB TOCID: I9OuX0JHbTbqQFh00yfnGlL6U5A-] found.
Track | CTDB Status
1 | (15/15) Accurately ripped
2 | (15/15) Accurately ripped
3 | (15/15) Accurately ripped
4 | (15/15) Accurately ripped
5 | (15/15) Accurately ripped
6 | (15/15) Accurately ripped
7 | (15/15) Accurately ripped
8 | (15/15) Accurately ripped
9 | (15/15) Accurately ripped
10 | (15/15) Accurately ripped
11 | (15/15) Accurately ripped
12 | (15/15) Accurately ripped
13 | (15/15) Accurately ripped
14 | (15/15) Accurately ripped
15 | (14/15) Accurately ripped
16 | (15/15) Accurately ripped
17 | (15/15) Accurately ripped
[AccurateRip ID: 002b0846-022dcab9-ef11fb11] found.
Track [ CRC | V2 ] Status
01 [813f049a|75121301] (4+5/9) Accurately ripped
02 [dcc94659|2d878499] (4+5/9) Accurately ripped
03 [66c3f7ea|fa337ad5] (4+5/9) Accurately ripped
04 [5efb7508|4317c68e] (4+5/9) Accurately ripped
05 [b51d78cf|de554f50] (4+5/9) Accurately ripped
06 [7a981f18|d9931871] (4+5/9) Accurately ripped
07 [d02c7577|3a7b9817] (4+5/9) Accurately ripped
08 [5b73d17a|61e8228d] (4+5/9) Accurately ripped
09 [4b4fb579|32a010e6] (4+5/9) Accurately ripped
10 [4f915882|d70eea19] (4+5/9) Accurately ripped
11 [83b97061|78ffa5ee] (4+5/9) Accurately ripped
12 [b728b666|8e13cd36] (4+5/9) Accurately ripped
13 [500e2f8a|97ce205e] (4+5/9) Accurately ripped
14 [3cfa7b2e|799db257] (4+5/9) Accurately ripped
15 [51e18ae9|be3a18d2] (4+5/9) Accurately ripped
16 [464ba5f8|7a1b2f36] (4+5/9) Accurately ripped
17 [f43c28cb|9a306d64] (4+5/9) Accurately ripped
Offsetted by -1279:
01 [b6a43f1f] (0/9) No match (V2 was not tested)
02 [23aeeb4a] (0/9) No match (V2 was not tested)
03 [76510f47] (0/9) No match (V2 was not tested)
04 [cb63b3ca] (0/9) No match (V2 was not tested)
05 [04cb95d7] (0/9) No match (V2 was not tested)
06 [07c80e71] (0/9) No match (V2 was not tested)
07 [d53b2b6c] (0/9) No match (V2 was not tested)
08 [4bb67158] (0/9) No match (V2 was not tested)
09 [2352ef37] (0/9) No match (V2 was not tested)
10 [909e1500] (0/9) No match (V2 was not tested)
11 [662c291a] (0/9) No match (V2 was not tested)
12 [949da6f3] (0/9) No match (V2 was not tested)
13 [b12bdbf2] (0/9) No match (V2 was not tested)
14 [23bea3be] (0/9) No match (V2 was not tested)
15 [8b275897] (0/9) No match (V2 was not tested)
16 [e59ba614] (0/9) No match (V2 was not tested)
17 [9662fce9] (0/9) No match (V2 was not tested)

Track Peak [ CRC32 ] [W/O NULL] [ LOG ]
– 100,0 [DE7F8DCE] [E5B96E61]
01 99,1 [714BE070] [FC5D2CD1] CRC32
02 99,6 [D351467C] [1098EF2E] CRC32
03 94,0 [66CA98AD] [8B2C2B8D] CRC32
04 99,9 [48A6E250] [570DAB8F] CRC32
05 100,0 [5779EDAF] [1D2233E1] CRC32
06 96,5 [7DD2EFEA] [5471E230] CRC32
07 99,9 [A032BCB2] [0D7E8CAD] CRC32
08 99,8 [505B2084] [A11803A5] CRC32
09 96,7 [7D56609B] [4AC9D649] CRC32
10 100,0 [D561DB2A] [2FB48678] CRC32
11 100,0 [48A853E1] [E1AD71EE] CRC32
12 100,0 [740D8C01] [916FA3FE] CRC32
13 100,0 [A562C7BC] [72E8B3D8] CRC32
14 100,0 [F0CC088F] [FFBD5273] CRC32
15 99,2 [90384EF4] [F86DFA59] CRC32
16 100,0 [BC17EA42] [719226B4] CRC32
17 99,9 [520FDE8A] [A8594517] CRC32

foobar2000 1.2 / Dynamic Range Meter 1.1.1
log date: 2017-11-13 17:47:00

––––––––––––––––––––––––––––––––––––––––
Analyzed: Freddie King / The Texas Cannonball
––––––––––––––––––––––––––––––––––––––––

DR Peak RMS Duration Track
––––––––––––––––––––––––––––––––––––––––
DR13 -0.07 dB -14.87 dB 3:09 01-Lowdown In Lodi
DR14 -0.03 dB -17.81 dB 3:59 02-Reconsider Baby
DR13 -0.53 dB -14.96 dB 4:01 03-Big Legged Woman
DR13 0.00 dB -15.24 dB 4:06 04-Me And My Guitar
DR12 0.00 dB -14.65 dB 3:46 05-I'd Rather Be Blind
DR14 -0.30 dB -18.33 dB 3:58 06-Can't Trust Your Neighbor
DR14 0.00 dB -16.59 dB 3:49 07-You Was Wrong
DR13 -0.01 dB -16.17 dB 3:27 08-How Many More Years
DR14 -0.29 dB -18.00 dB 3:20 09-Ain't No Sunshine
DR14 0.00 dB -16.83 dB 3:25 10-The Sky Is Crying
DR14 0.00 dB -17.31 dB 5:05 11-Love Her With A Feeling
DR12 0.00 dB -16.00 dB 5:58 12-Somebody's Got To Go
DR13 0.00 dB -16.62 dB 7:12 13-Pulpwood
DR13 0.00 dB -14.72 dB 4:43 14-That's All Right
DR13 -0.07 dB -15.96 dB 5:58 15-The Same Thing
DR14 0.00 dB -16.08 dB 6:39 16-Tore Down
DR16 -0.01 dB -18.54 dB 4:09 17-Dust My Broom
––––––––––––––––––––––––––––––––––––––––

Number of tracks: 17
Official DR value: DR13

Samplerate: 44100 Hz
Channels: 2
Bits per sample: 16
Bitrate: 766 kbps
Codec: FLAC
================================================================================

Freddie King - The Texas Cannonball (1972) [DCC Expanded Remastered 1991]

Freddie King - The Texas Cannonball (1972) [DCC Expanded Remastered 1991]