Tags
Language
Tags

Freddie Roulette - Jammin' With Friends (2012)

Posted By: popsakov
Freddie Roulette - Jammin' With Friends (2012)

Freddie Roulette - Jammin' With Friends (2012)
EAC Rip | FLAC (Img) + Cue + Log ~ 239 Mb | MP3 CBR320 ~ 109 Mb
Full Scans | 00:39:06 | RAR 5% Recovery
Modern Electric Blues, Chicago Blues | Electric Snake #884501803946

Freddie Roulette is a Chicago Bluesman who started playing lap-steel guitar back in the 1940's. He's played with some of the greats including Earl Hooker, Charlie Musselwhite, and Harvey Mandel. His music is known worldwide and he has played throughout Europe, Canada and Japan. He has also been playing with bands in the San Francisco Bay Area including Nightfire featuring Harvey Mandel, Michael Warren, Michael Borbridge, and Eugene Huggins; Harvey Mandel & The Snake Crew featuring Elvin Bishop, Norton Buffalo, Pete Sears, Barry Goldberg, Mic Gillette, and album drummer and producer Michael Borbridge. This CD "Jammin' With Friends" has a fabulous lineup of guest musicians including Rich Kirch (of John Lee Hooker), Barry Melton (of Country Joe and The Fish), David LaFlamme (of It's A Beautiful Day), Kathi McDonald (of Joe Cocker / Mad Dogs and Englishmen), drummer and producer of this album Michael Borbridge (of Harvey Mandel & The Snake Crew), and Pete Sears (of Jefferson Starship, Rod Stewart). Freddie was recently on the KPFA Blues By The Bay show with Tom Mazzolini, who called this an outstanding album.

***************

Freddie Roulette - Jammin' With Friends (2012)

Track List:

01. Directly From My Heart To You [0:06:01.07]
02. Key To The Highway [0:04:25.21]
03. Mojo [0:02:30.01]
04. Reconsider Baby [0:03:49.43]
05. It Hurts Me So [0:04:14.44]
06. Wrapped Up In Love [0:04:12.09]
07. Killing Floor [0:04:14.50]
08. Funky Chicken [0:03:02.52]
09. Need Your Loving [0:03:26.12]
10. Flip Flop And Fly [0:03:09.58]

Exact Audio Copy V0.99 prebeta 4 from 23. January 2008

Отчёт EAC об извлечении, выполненном 20. апреля 2013, 12:46

Freddie Roulette / Jammin' with Friends

Дисковод: PIONEER DVD-RW DVR-118L Adapter: 0 ID: 0

Режим чтения : Достоверность
Использование точного потока : Да
Отключение кэша аудио : Да
Использование указателей C2 : Нет

Коррекция смещения при чтении : 6
Способность читать области Lead-in и Lead-out : Нет
Заполнение пропущенных сэмплов тишиной : Да
Удаление блоков с тишиной в начале и конце : Нет
При вычислениях CRC использовались нулевые сэмплы : Да
Интерфейс : Встроенный Win32-интерфейс для Win NT/2000

Выходной формат : Пользовательский кодировщик
Выбранный битрейт : 128 kBit/s
Качество : Высокий
Добавление ID3-тэга : Нет
Утилита сжатия : C:\Program Files\Exact Audio Copy\FLAC\FLAC.EXE
Дополнительные параметры : -8 -V -T "ARTIST=%a" -T "TITLE=%t" -T "ALBUM=%g" -T "DATE=%y" -T "TRACKNUMBER=%n" -T "GENRE=%m" -T "COMMENT=%e" %s -o %d


TOC извлечённого CD

Трек | Старт | Длительность | Начальный сектор | Конечный сектор
––––––––––––––––––––––––––––––––––-
1 | 0:00.00 | 6:01.07 | 0 | 27081
2 | 6:01.07 | 4:25.21 | 27082 | 46977
3 | 10:26.28 | 2:30.01 | 46978 | 58228
4 | 12:56.29 | 3:49.43 | 58229 | 75446
5 | 16:45.72 | 4:14.44 | 75447 | 94540
6 | 21:00.41 | 4:12.09 | 94541 | 113449
7 | 25:12.50 | 4:14.50 | 113450 | 132549
8 | 29:27.25 | 3:02.52 | 132550 | 146251
9 | 32:30.02 | 3:26.12 | 146252 | 161713
10 | 35:56.14 | 3:09.58 | 161714 | 175946


Характеристики диапазона извлечения и сообщения об ошибках

Выбранный диапазон

Имя файла F:\МУЗЫКА\Новая папка (3)\Freddie Roulette - Jammin' with Friends.wav

Пиковый уровень 100.0 %
Качество диапазона 100.0 %
CRC теста 5F57849C
CRC копии 5F57849C
Копирование… OK

Ошибок не произошло

Конец отчёта

Freddie Roulette - Jammin' With Friends (2012)


All thanks go to ЗУБ2007

>>> My Blog <<<

DOWNLOAD: