Tags
Language
Tags

Freddie James - Sweetness (1981) {Unidisc}

Posted By:
Freddie James - Sweetness (1981) {Unidisc}

Freddie James - Sweetness (1981) {Unidisc}
EAC 0.99pb5 | FLAC tracks level 8 | Cue+Log+M3u | Full Scans 600dpi | 416MB + 5% Recovery
MP3 CBR 320 Kbps | 155MB + 5% Recovery
Genre: Funk, Soul

Sweetness" was not a replica of his first album. Of the 13 tracks not all were disco or dance oriented. Wishing to broaden his appeal Green and James included the ballads "I'm Just A Fool For Your Love," "Too Young To Fall In Love" and "In Love For The First Time." The dance cuts were as high energy as his previous releases. The standouts were; "Get Up Get Down," "Boogietime," "Dance To The Beat" and "Music Takes Me Higher." A 12" single of "Music Takes Me Higher" on Unidisc made it's way down here from Canada.
Track List
1. She's a lady 5:42
2. Music takes me higher 6:15
3. Dance to the beat 6:44
4. It's over 4:44
5. Everybody here do your thing 5:37
6. Let me be your energy 5:52
7. I'm just your fool 3:24
8. Sweetness 5:17
9. In love for the first time 3:32
10. Boogietime 6:56
11. Outtasight 5:52
12. Get up get down 6:27
13. Too young to fall in love 3:56

Produced by Tony Green


Exact Audio Copy V0.99 prebeta 5 from 4. May 2009

EAC extraction logfile from 23. February 2011, 20:39

Freddie James / Sweetness

Used drive : TSSTcorpCDDVDW SH-S223F Adapter: 3 ID: 0

Read mode : Secure
Utilize accurate stream : Yes
Defeat audio cache : Yes
Make use of C2 pointers : No

Read offset correction : 6
Overread into Lead-In and Lead-Out : No
Fill up missing offset samples with silence : Yes
Delete leading and trailing silent blocks : No
Null samples used in CRC calculations : Yes
Used interface : Installed external ASPI interface
Gap handling : Appended to previous track

Used output format : User Defined Encoder
Selected bitrate : 192 kBit/s
Quality : High
Add ID3 tag : No
Command line compressor : D:\Program Files\Exact Audio Copy\flac-1.1.4-win\bin\flac.exe
Additional command line options : -8 -V -T "ARTIST=%a" -T "TITLE=%t" -T "ALBUM=%g" -T "DATE=%y" -T "TRACKNUMBER=%n" -T "TOTALTRACKS=%x" -T "GENRE=%m" -T "ALBUMARTIST=%v" -T "ALBUM ARTIST=%v" -T "COMMENT=EAC Secure Mode, Test & Copy, AccurateRip, FLAC -8" %s


TOC of the extracted CD

Track | Start | Length | Start sector | End sector
––––––––––––––––––––––––––––-
1 | 0:00.00 | 5:42.30 | 0 | 25679
2 | 5:42.30 | 6:15.35 | 25680 | 53839
3 | 11:57.65 | 6:44.35 | 53840 | 84174
4 | 18:42.25 | 4:44.07 | 84175 | 105481
5 | 23:26.32 | 5:36.73 | 105482 | 130754
6 | 29:03.30 | 5:51.62 | 130755 | 157141
7 | 34:55.17 | 3:23.53 | 157142 | 172419
8 | 38:18.70 | 5:17.30 | 172420 | 196224
9 | 43:36.25 | 3:32.12 | 196225 | 212136
10 | 47:08.37 | 6:55.43 | 212137 | 243304
11 | 54:04.05 | 5:51.55 | 243305 | 269684
12 | 59:55.60 | 6:27.25 | 269685 | 298734
13 | 66:23.10 | 3:55.70 | 298735 | 316429


Track 1

Filename E:\EAC\Freddie James - Sweetness - CD - 2003 - FLAC\01 - She's a lady.wav

Pre-gap length 0:00:02.00

Peak level 99.4 %
Track quality 100.0 %
Test CRC FFFB416B
Copy CRC FFFB416B
Track not present in AccurateRip database
Copy OK

Track 2

Filename E:\EAC\Freddie James - Sweetness - CD - 2003 - FLAC\02 - Music takes me higher.wav

Pre-gap length 0:00:00.73

Peak level 94.4 %
Track quality 100.0 %
Test CRC A3B4C8E6
Copy CRC A3B4C8E6
Track not present in AccurateRip database
Copy OK

Track 3

Filename E:\EAC\Freddie James - Sweetness - CD - 2003 - FLAC\03 - Dance to the eat.wav

Pre-gap length 0:00:01.70

Peak level 94.3 %
Track quality 99.9 %
Test CRC 3E596545
Copy CRC 3E596545
Track not present in AccurateRip database
Copy OK

Track 4

Filename E:\EAC\Freddie James - Sweetness - CD - 2003 - FLAC\04 - It's over.wav

Pre-gap length 0:00:01.73

Peak level 100.0 %
Track quality 100.0 %
Test CRC BFEC6972
Copy CRC BFEC6972
Track not present in AccurateRip database
Copy OK

Track 5

Filename E:\EAC\Freddie James - Sweetness - CD - 2003 - FLAC\05 - Everybody here do your thing.wav

Pre-gap length 0:00:01.76

Peak level 100.0 %
Track quality 100.0 %
Test CRC 97A6A50E
Copy CRC 97A6A50E
Track not present in AccurateRip database
Copy OK

Track 6

Filename E:\EAC\Freddie James - Sweetness - CD - 2003 - FLAC\06 - Let me be your energy.wav

Pre-gap length 0:00:01.77

Peak level 100.0 %
Track quality 100.0 %
Test CRC 7B155FC6
Copy CRC 7B155FC6
Track not present in AccurateRip database
Copy OK

Track 7

Filename E:\EAC\Freddie James - Sweetness - CD - 2003 - FLAC\07 - I'm just your fool.wav

Pre-gap length 0:00:01.73

Peak level 98.6 %
Track quality 100.0 %
Test CRC 027081FA
Copy CRC 027081FA
Track not present in AccurateRip database
Copy OK

Track 8

Filename E:\EAC\Freddie James - Sweetness - CD - 2003 - FLAC\08 - Sweetness.wav

Pre-gap length 0:00:01.77

Peak level 97.6 %
Track quality 100.0 %
Test CRC AE2B9A12
Copy CRC AE2B9A12
Track not present in AccurateRip database
Copy OK

Track 9

Filename E:\EAC\Freddie James - Sweetness - CD - 2003 - FLAC\09 - In love for the first time.wav

Pre-gap length 0:00:01.77

Peak level 100.0 %
Track quality 99.9 %
Test CRC AC3D2799
Copy CRC AC3D2799
Track not present in AccurateRip database
Copy OK

Track 10

Filename E:\EAC\Freddie James - Sweetness - CD - 2003 - FLAC\10 - Boogietime.wav

Pre-gap length 0:00:01.80

Peak level 100.0 %
Track quality 100.0 %
Test CRC 9C137F00
Copy CRC 9C137F00
Track not present in AccurateRip database
Copy OK

Track 11

Filename E:\EAC\Freddie James - Sweetness - CD - 2003 - FLAC\11 - Outtasight.wav

Pre-gap length 0:00:01.80

Peak level 98.5 %
Track quality 100.0 %
Test CRC 89ED5991
Copy CRC 89ED5991
Track not present in AccurateRip database
Copy OK

Track 12

Filename E:\EAC\Freddie James - Sweetness - CD - 2003 - FLAC\12 - Get up get down.wav

Pre-gap length 0:00:01.80

Peak level 99.3 %
Track quality 100.0 %
Test CRC D68898B8
Copy CRC D68898B8
Track not present in AccurateRip database
Copy OK

Track 13

Filename E:\EAC\Freddie James - Sweetness - CD - 2003 - FLAC\13 - Too young to fall in love.wav

Pre-gap length 0:00:01.77

Peak level 100.0 %
Track quality 100.0 %
Test CRC 40F4F028
Copy CRC 40F4F028
Track not present in AccurateRip database
Copy OK


None of the tracks are present in the AccurateRip database

No errors occurred

End of status report


––––––––––––––––––––––––––––––––––––––––
Analyzed: Freddie James / Sweetness
––––––––––––––––––––––––––––––––––––––––

DR Peak RMS Duration Track
––––––––––––––––––––––––––––––––––––––––
DR17 -0.04 dB -17.87 dB 5:42 01-She's a lady
DR15 -0.50 dB -16.24 dB 6:15 02-Music takes me higher
DR16 0.00 dB -20.40 dB 4:44 04-It's over
DR17 0.00 dB -18.30 dB 5:37 05-Everybody here do your thing
DR16 0.00 dB -16.43 dB 5:52 06-Let me be your energy
DR16 -0.12 dB -18.30 dB 3:24 07-I'm just your fool
DR18 -0.20 dB -19.64 dB 5:17 08-Sweetness
DR18 0.00 dB -18.98 dB 3:32 09-In love for the first time
DR17 0.00 dB -18.08 dB 6:56 10-Boogietime
DR17 -0.13 dB -18.29 dB 5:52 11-Outtasight
DR17 -0.05 dB -18.37 dB 6:27 12-Get up get down
DR17 0.00 dB -20.47 dB 3:56 13-Too young to fall in love
––––––––––––––––––––––––––––––––––––––––

Number of tracks: 12
Official DR value: DR17

Samplerate: 44100 Hz
Channels: 2
Bits per sample: 16
Bitrate: 745 kbps
Codec: FLAC
================================================================================

Freddie James - Sweetness (1981) {Unidisc}
Freddie James - Sweetness (1981) {Unidisc}
Freddie James - Sweetness (1981) {Unidisc}


Thanks to the original ripper