Tags
Language
Tags

Free - Songs Of Yesterday (2000)

Posted By: v3122
Free - Songs Of Yesterday (2000)

Free - Songs Of Yesterday (2000)
EAC | Flac(Image) + Cue + Log & MP3 CBR 320Kbps
5CD | Island IBXCD3/542499-2 | ~ 2135 or 847 Mb | Scans(600dpi, jpg) -> 565 Mb
Blues Rock / Classic Rock

Back in the late 1960s, Free was just one of hundreds of blues-based bands that grew up under the shadow of the Rolling Stones and, later, Cream. Like Fleetwood Mac, Free came together with a little help from those twin founders of the British blues boom–John Mayall and Alexis Korner–and like Led Zeppelin, they hit lucky–and big–early on.

A chance meeting between singer Paul Rodgers and guitarist Paul Kossoff prompted the formation of Free; and early in 1970, barely a year after the release of their debut album, Free went straight to No.2 with the unforgettable "All Right Now". It may have been derivative (listen to the Stones' "Honky Tonk Women"), but the song has remained a rock & roll staple ever since–it is estimated that, even now, "All Right Now" is played somewhere in the world every 45 seconds.

Over the years, while Led Zeppelin attained mythic stature, Free have continued to be regarded as a second division blues band. But the history of Free was more troubled–starting in 1976 with Kossoff's premature death, from a heart attack, following his split from the band. And, of course, everything Free did subsequently was overshadowed by "All Right Now".

Songs Of Yesterday proves the point that there was always much more to Free than just one freak hit. Crammed full of previously unreleased studio tracks, mouth-watering demos, out-takes and other rarities, Songs Of Yesterday does the business and does it thoroughly. Among the gems are the first attempt at "All Right Now"; a loose-limbed alternate take of "Makin' Love"; and previously unavailable versions of familiar titles like "My Brother Jake", "Little Bit Of Love" and "Wishing Well". There is also an entire disc of hitherto unavailable live material from 1970, full of concert atmosphere. And, don't forget, Free also had a softer side, as "Love You So" and "Soon I Will Be Gone" demonstrate.

It is a triumphant achievement: a box set that actually makes you appreciate a band afresh. Free may never have attained the greatness of either the Stones or Led Zeppelin, but they had great potential, and Songs Of Yesterday displays it to the full

by Patrick Humphries

It's strange that a band with a song as immediate as "All Right Now" is a bit of an acquired taste, but it's the truth. Free was a powerful, majestic hard rock band at their peak, but they were also a little obtuse; a lot of their power came from their playing, and their songwriting was epic, but often elliptical. As such, they're for hard rock connoisseurs – a band who gained a spirited, dedicated following largely because they took devotion to unlock their treasures, especially in the years following their breakup. For those fans, the five-disc Songs of Yesterday is a godsend. This is not a box for listeners with less than a consuming interest in the band (even if you think you want total immersion in Free, this will not be as effective as purchasing each of their albums) since this contains a wealth of unreleased material. Very few of the tracks are actual album tracks, most are alternate mixes or alternate versions, plus there are a lot of live tracks in the mix, as well. As long as you know what you're getting into, this isn't bad, especially since it refurbishes the band's canon for the dedicated, giving them fresh insights to familiar songs (even if the new mixes aren't necessarily better than the originals – they just sound a bit brighter and more modern). For anyone else, it's a bit much, and it doesn't quite tell the story in the right fashion, since it really offers a mirror image, alternate version rather than the real thing.

by Stephen Thomas Erlewine, AMG
Free - Songs Of Yesterday (2000):

Free - Songs Of Yesterday (2000)

Tracklist CD1:

01. Over The Green Hills (A New Stereo Mix) 3:30
02. Walk In My Shadow (Alternative Stereo Mix) 3:37
03. Wild Indian Woman (A New Stereo Mix) 3:45
04. Guy Stevens Blues (Previously Unreleased) 4:42
05. Visions Of Hell (Previously Unreleased) 3:55
06. I'm A Mover (Unused Mono 7' Mix) 2:59
07. Moonshine (Alternative Stereo Mix) 5:11
08. Woman By The Sea (Previously Unreleased) 3:23
09. Free Me (Previously Unreleased) 4:39
10. Long Tall Sally (Previously Unreleased) (Johnson, Penniman, Blackwell) 1:18
11. Broad Daylight (Original 7' Mono Mix) 3:12
12. The Worm (Original 7' B-Side) 3:07
13. Trouble On Double Time (Previously Unreleased) 2:40
14. Spring Dawn (Previously Unreleased) 4:10
15. I'll Be Creepin' (Previously Unreleased) 3:40
16. Sugar For Mr. Morrison (A New Stereo Mix) 3:22
17. Songs Of Yesterday (A New Stereo Mix) 3:39
18. Woman (Previously Unreleased) 3:43
19. Mourning Sad Morning (Alternative Stereo Mix) 5:04
20. Fire And Water (Alternative Stereo Mix) 4:10

Exact Audio Copy V1.0 beta 3 from 29. August 2011

EAC extraction logfile from 26. December 2014, 12:51

Free / Songs Of Yesterday (Disc 1) (542499-2)

Used drive : PLEXTOR DVDR PX-891SA Adapter: 3 ID: 0

Read mode : Secure
Utilize accurate stream : Yes
Defeat audio cache : Yes
Make use of C2 pointers : No

Read offset correction : 6
Overread into Lead-In and Lead-Out : No
Fill up missing offset samples with silence : Yes
Delete leading and trailing silent blocks : No
Null samples used in CRC calculations : Yes
Used interface : Native Win32 interface for Win NT & 2000

Used output format : User Defined Encoder
Selected bitrate : 1024 kBit/s
Quality : High
Add ID3 tag : No
Command line compressor : C:\Program Files\Exact Audio Copy\Flac\flac.exe
Additional command line options : -V -8 -T "Genre=%genre%" -T "Artist=%artist%" -T "Title=%title%" -T "Album=%albumtitle%" -T "Date=%year%" -T "Tracknumber=%tracknr%" -T "Comment=%comment%" %source%


TOC of the extracted CD

Track | Start | Length | Start sector | End sector
––––––––––––––––––––––––––––-
1 | 0:00.00 | 3:29.52 | 0 | 15726
2 | 3:29.52 | 3:36.50 | 15727 | 31976
3 | 7:06.27 | 3:44.38 | 31977 | 48814
4 | 10:50.65 | 4:42.37 | 48815 | 70001
5 | 15:33.27 | 3:55.15 | 70002 | 87641
6 | 19:28.42 | 2:58.38 | 87642 | 101029
7 | 22:27.05 | 5:11.25 | 101030 | 124379
8 | 27:38.30 | 3:22.47 | 124380 | 139576
9 | 31:01.02 | 4:39.15 | 139577 | 160516
10 | 35:40.17 | 1:18.00 | 160517 | 166366
11 | 36:58.17 | 3:12.13 | 166367 | 180779
12 | 40:10.30 | 3:06.52 | 180780 | 194781
13 | 43:17.07 | 2:39.48 | 194782 | 206754
14 | 45:56.55 | 4:10.17 | 206755 | 225521
15 | 50:06.72 | 3:39.48 | 225522 | 241994
16 | 53:46.45 | 3:21.52 | 241995 | 257121
17 | 57:08.22 | 3:38.73 | 257122 | 273544
18 | 60:47.20 | 3:43.12 | 273545 | 290281
19 | 64:30.32 | 5:04.13 | 290282 | 313094
20 | 69:34.45 | 4:09.70 | 313095 | 331839


Range status and errors

Selected range

Filename H:\dafnaplus\Songs Of Yesterday\Disc 1\Free - Songs Of Yesterday (Disc 1) (542499-2).wav

Peak level 96.5 %
Extraction speed 10.1 X
Range quality 99.9 %
Test CRC 07B2904D
Copy CRC 07B2904D
Copy OK

No errors occurred


AccurateRip summary

Track 1 accurately ripped (confidence 5) [FFF0D4F3] (AR v2)
Track 2 accurately ripped (confidence 5) [14CD7AC2] (AR v2)
Track 3 accurately ripped (confidence 5) [74A1D646] (AR v2)
Track 4 accurately ripped (confidence 5) [CFBEF4D0] (AR v2)
Track 5 accurately ripped (confidence 5) [6AB2026C] (AR v2)
Track 6 accurately ripped (confidence 5) [2B3D0B13] (AR v2)
Track 7 accurately ripped (confidence 5) [81BFE9F6] (AR v2)
Track 8 accurately ripped (confidence 5) [543C05BA] (AR v2)
Track 9 accurately ripped (confidence 5) [4B34FA77] (AR v2)
Track 10 accurately ripped (confidence 5) [EA5C9AF3] (AR v2)
Track 11 accurately ripped (confidence 5) [E69492D9] (AR v2)
Track 12 accurately ripped (confidence 5) [40ED8260] (AR v2)
Track 13 accurately ripped (confidence 5) [6CAA2D9A] (AR v2)
Track 14 accurately ripped (confidence 5) [873C870E] (AR v2)
Track 15 accurately ripped (confidence 5) [8D9266BD] (AR v2)
Track 16 accurately ripped (confidence 5) [191C97CF] (AR v2)
Track 17 accurately ripped (confidence 5) [A262CB89] (AR v2)
Track 18 accurately ripped (confidence 5) [3C4FC0A8] (AR v2)
Track 19 accurately ripped (confidence 5) [3EC16E8C] (AR v2)
Track 20 accurately ripped (confidence 5) [4CA85884] (AR v2)

All tracks accurately ripped

End of status report

foobar2000 1.2.9 / Dynamic Range Meter 1.1.1
log date: 2014-12-29 11:21:12

––––––––––––––––––––––––––––––––––––––––
Analyzed: Free / Songs Of Yesterday (Disc 1) (542499-2)
––––––––––––––––––––––––––––––––––––––––

DR Peak RMS Duration Track
––––––––––––––––––––––––––––––––––––––––
DR11 -2.99 dB -17.65 dB 3:30 01-Over The Green Hills (A New Stereo Mix)
DR10 -1.15 dB -12.44 dB 3:37 02-Walk In My Shadow (Alternative Stereo Mix)
DR11 -0.74 dB -12.66 dB 3:45 03-Wild Indian Woman (A New Stereo Mix)
DR13 -0.31 dB -15.07 dB 4:42 04-Guy Stevens Blues (Previously Unreleased)
DR9 -0.89 dB -13.29 dB 3:55 05-Visions Of Hell (Previously Unreleased)
DR11 -0.76 dB -13.59 dB 2:59 06-I'm A Mover (Unused Mono 7' Mix)
DR10 -1.01 dB -13.39 dB 5:11 07-Moonshine (Alternative Stereo Mix)
DR11 -1.16 dB -14.55 dB 3:23 08-Woman By The Sea (Previously Unreleased)
DR11 -0.82 dB -14.14 dB 4:39 09-Free Me (Previously Unreleased)
DR10 -1.15 dB -13.19 dB 1:18 10-Long Tall Sally (Previously Unreleased) (Johnson, Penniman, Blackwell)
DR10 -0.75 dB -13.13 dB 3:12 11-Broad Daylight (Original 7' Mono Mix)
DR9 -1.15 dB -11.95 dB 3:07 12-The Worm (Original 7' B-Side)
DR10 -0.71 dB -11.98 dB 2:40 13-Trouble On Double Time (Previously Unreleased)
DR11 -2.16 dB -17.17 dB 4:10 14-Spring Dawn (Previously Unreleased)
DR11 -0.66 dB -13.25 dB 3:40 15-I'll Be Creepin' (Previously Unreleased)
DR10 -0.76 dB -12.52 dB 3:22 16-Sugar For Mr. Morrison (A New Stereo Mix)
DR10 -0.89 dB -12.88 dB 3:39 17-Songs Of Yesterday (A New Stereo Mix)
DR11 -1.12 dB -13.47 dB 3:43 18-Woman (Previously Unreleased)
DR11 -1.94 dB -16.51 dB 5:04 19-Mourning Sad Morning (Alternative Stereo Mix)
DR10 -0.74 dB -13.05 dB 4:10 20-Fire And Water (Alternative Stereo Mix)
––––––––––––––––––––––––––––––––––––––––

Number of tracks: 20
Official DR value: DR10

Samplerate: 44100 Hz
Channels: 2
Bits per sample: 16
Bitrate: 778 kbps
Codec: FLAC

[CUETools log; Date: 26.12.2014 20:09:08; Version: 2.1.5]
[CTDB TOCID: MaFjxtmNDW5Bw06_tSlEH.afuW0-] found.
Track | CTDB Status
1 | (16/18) Accurately ripped
2 | (18/18) Accurately ripped
3 | (18/18) Accurately ripped
4 | (18/18) Accurately ripped
5 | (18/18) Accurately ripped
6 | (18/18) Accurately ripped
7 | (18/18) Accurately ripped
8 | (18/18) Accurately ripped
9 | (18/18) Accurately ripped
10 | (18/18) Accurately ripped
11 | (17/18) Accurately ripped
12 | (18/18) Accurately ripped
13 | (18/18) Accurately ripped
14 | (18/18) Accurately ripped
15 | (18/18) Accurately ripped
16 | (18/18) Accurately ripped
17 | (18/18) Accurately ripped
18 | (18/18) Accurately ripped
19 | (18/18) Accurately ripped
20 | (16/18) Accurately ripped, or (1/18) differs in 4112 samples @03:24:41,03:28:19-03:28:20,03:29:09,03:29:51,03:31:09,04:03:62,04:04:30,04:04:52-04:04:53,04:04:73-04:04:74,04:05:20-04:05:21,04:05:41-04:05:42,04:06:10,04:06:31,04:06:53-04:06:54,04:06:74-04:07:00,04:07:21-04:07:22,04:07:42,04:07:64-04:07:65,04:08:10-04:08:11,04:08:32-04:08:33,04:08:54,04:09:00-04:09:01,04:09:22-04:09:23,04:09:43-04:09:44
[AccurateRip ID: 0034d278-0302524a-13114814] found.
Track [ CRC | V2 ] Status
01 [e0b3d4ce|fff0d4f3] (00+05/54) Accurately ripped
02 [26806875|14cd7ac2] (00+05/55) Accurately ripped
03 [115f4269|74a1d646] (00+05/55) Accurately ripped
04 [4cb62284|cfbef4d0] (00+05/54) Accurately ripped
05 [ed9c5fd6|6ab2026c] (00+05/54) Accurately ripped
06 [52c187d9|2b3d0b13] (00+05/55) Accurately ripped
07 [9fbddf9f|81bfe9f6] (00+05/54) Accurately ripped
08 [d5a6f9f6|543c05ba] (00+05/54) Accurately ripped
09 [cd776eb1|4b34fa77] (00+05/54) Accurately ripped
10 [4385d5f0|ea5c9af3] (00+05/54) Accurately ripped
11 [20c8aea3|e69492d9] (00+05/55) Accurately ripped
12 [bd78b371|40ed8260] (00+05/55) Accurately ripped
13 [28e762af|6caa2d9a] (00+05/54) Accurately ripped
14 [f698732c|873c870e] (00+05/54) Accurately ripped
15 [ec59d48c|8d9266bd] (00+05/54) Accurately ripped
16 [febc4d48|191c97cf] (00+05/53) Accurately ripped
17 [cf81e671|a262cb89] (00+05/54) Accurately ripped
18 [20522131|3c4fc0a8] (00+05/53) Accurately ripped
19 [8ebbe950|3ec16e8c] (00+05/53) Accurately ripped
20 [d67eed37|4ca85884] (00+05/50) Accurately ripped
Offsetted by 664:
01 [3994a728] (02/54) Accurately ripped
02 [938ab08d] (02/55) Accurately ripped
03 [a7f05b03] (02/55) Accurately ripped
04 [2875ef8a] (02/54) Accurately ripped
05 [7cde05a4] (02/54) Accurately ripped
06 [b24d12d9] (02/55) Accurately ripped
07 [dcab0307] (02/54) Accurately ripped
08 [1c2d28c7] (02/54) Accurately ripped
09 [6a1a7000] (02/54) Accurately ripped
10 [6f901bfb] (02/54) Accurately ripped
11 [52ea3bbc] (02/55) Accurately ripped
12 [9fb2089f] (02/55) Accurately ripped
13 [5e3e7567] (02/54) Accurately ripped
14 [87c235f5] (02/54) Accurately ripped
15 [43157c19] (02/54) Accurately ripped
16 [23b656d0] (02/53) Accurately ripped
17 [b426ef09] (02/54) Accurately ripped
18 [f31bb0dd] (02/53) Accurately ripped
19 [2001b923] (02/53) Accurately ripped
20 [b6b240cc] (02/50) Accurately ripped
Offsetted by 674:
01 [e155704a] (25/54) Accurately ripped
02 [08fb3065] (26/55) Accurately ripped
03 [0a6b5e4f] (26/55) Accurately ripped
04 [cc00cca4] (25/54) Accurately ripped
05 [54519d78] (25/54) Accurately ripped
06 [fcfe3619] (26/55) Accurately ripped
07 [1a473060] (25/54) Accurately ripped
08 [84300bdd] (25/54) Accurately ripped
09 [f2d4274e] (25/54) Accurately ripped
10 [5b8933cc] (25/54) Accurately ripped
11 [18ce19a5] (26/55) Accurately ripped
12 [f2931cf8] (26/55) Accurately ripped
13 [ce0a9c67] (25/54) Accurately ripped
14 [690a0b65] (25/54) Accurately ripped
15 [e4340343] (25/54) Accurately ripped
16 [6cc045fe] (24/53) Accurately ripped
17 [d860f047] (25/54) Accurately ripped
18 [218511b5] (24/53) Accurately ripped
19 [0f86647e] (24/53) Accurately ripped
20 [72e9e225] (23/50) Accurately ripped
Offsetted by 7:
01 [38ef94d1] (00/54) No match (V2 was not tested)
02 [fa8f606a] (00/55) No match (V2 was not tested)
03 [1ac85e60] (00/55) No match (V2 was not tested)
04 [953581b5] (00/54) No match (V2 was not tested)
05 [95d0e3e6] (00/54) No match (V2 was not tested)
06 [870a53b9] (00/55) No match (V2 was not tested)
07 [613d3285] (00/54) No match (V2 was not tested)
08 [4148248e] (00/54) No match (V2 was not tested)
09 [860467a7] (00/54) No match (V2 was not tested)
10 [df8febe3] (00/54) No match (V2 was not tested)
11 [568d0b06] (00/55) No match (V2 was not tested)
12 [9399e365] (00/55) No match (V2 was not tested)
13 [a74d0d3c] (00/54) No match (V2 was not tested)
14 [8a9b879d] (00/54) No match (V2 was not tested)
15 [ee2d7ff9] (00/54) No match (V2 was not tested)
16 [4b7674b5] (00/53) No match (V2 was not tested)
17 [8f4c9648] (00/54) No match (V2 was not tested)
18 [6b769881] (00/53) No match (V2 was not tested)
19 [79bec791] (00/53) No match (V2 was not tested)
20 [1eb69198] (00/50) No match (V2 was not tested)

Track Peak [ CRC32 ] [W/O NULL] [ LOG ]
– 96,5 [07B2904D] [B8BF78F6] CRC32
01 70,9 [ECFB8363] [7F015817]
02 87,6 [67F4BBD8] [F3F48CC7]
03 91,8 [2F896566] [A53F40DB]
04 96,5 [4FA6C9C2] [BB21AEBA]
05 90,2 [C12F56F7] [4EFF4C88]
06 91,6 [ED04AB32] [18DB87B1]
07 88,9 [B66CB361] [7F898129]
08 87,4 [DCB85F17] [4BCEA449]
09 91,0 [0E889319] [6A14B36D]
10 87,6 [BCEAE870] [702CF0CE]
11 91,7 [4F8A1359] [CC7A0473]
12 87,6 [1E191A86] [552105A3]
13 92,1 [2F0AC84C] [77825001]
14 77,9 [4B79EB07] [01A554BF]
15 92,7 [CFB4F8A6] [39947843]
16 91,6 [E75F1C5A] [04154CDE]
17 90,2 [6C4EAC07] [045066E5]
18 87,9 [E2F58D31] [B39912B1]
19 79,9 [377F9143] [3EE047B4]
20 91,8 [998C4D1F] [D70F244C]

Free - Songs Of Yesterday (2000)

Tracklist CD2:

01. All Right Now (Previously unreleased) 3:31
02. Oh I Wept (New stereo mix) 4:32
03. Remember (New stereo mix) 4:30
04. Don't Say You Love Me (New stereo mix) 6:27
05. The Stealer (Full version) 4:33
06. The Highway Song (Alternative stereo mix) 4:18
07. On My Way (Alternative stereo mix) 4:08
08. Sunny Day (New stereo mix with different vocals) 3:15
09. Ride On A Pony (Alternative stereo mix) 4:21
10. Love You So (New stereo mix with alternative vocals) 4:57
11. Soon I Will Be Gone (Previously unreleased) 3:19
12. My Brother Jake (New stereo mix) 3:01
13. Makin' Love (Only My Soul) (Previously unreleased) 4:00
14. Rain (Previously unreleased) 3:54
15. Get Where I Belong (Previously unreleased) 4:23
16. Only My Soul (Original 7' B-side) 2:30
17. Travellin' Man (Alternative stereo mix) 3:41
18. Molten Gold (Previously unreleased) 6:09

Exact Audio Copy V1.0 beta 3 from 29. August 2011

EAC extraction logfile from 26. December 2014, 13:18

Free / Songs Of Yesterday (Disc 2) (542499-2)

Used drive : PLEXTOR DVDR PX-891SA Adapter: 3 ID: 0

Read mode : Secure
Utilize accurate stream : Yes
Defeat audio cache : Yes
Make use of C2 pointers : No

Read offset correction : 6
Overread into Lead-In and Lead-Out : No
Fill up missing offset samples with silence : Yes
Delete leading and trailing silent blocks : No
Null samples used in CRC calculations : Yes
Used interface : Native Win32 interface for Win NT & 2000

Used output format : User Defined Encoder
Selected bitrate : 1024 kBit/s
Quality : High
Add ID3 tag : No
Command line compressor : C:\Program Files\Exact Audio Copy\Flac\flac.exe
Additional command line options : -V -8 -T "Genre=%genre%" -T "Artist=%artist%" -T "Title=%title%" -T "Album=%albumtitle%" -T "Date=%year%" -T "Tracknumber=%tracknr%" -T "Comment=%comment%" %source%


TOC of the extracted CD

Track | Start | Length | Start sector | End sector
––––––––––––––––––––––––––––-
1 | 0:00.00 | 3:30.50 | 0 | 15799
2 | 3:30.50 | 4:32.12 | 15800 | 36211
3 | 8:02.62 | 4:30.30 | 36212 | 56491
4 | 12:33.17 | 6:27.13 | 56492 | 85529
5 | 19:00.30 | 4:32.47 | 85530 | 105976
6 | 23:33.02 | 4:18.33 | 105977 | 125359
7 | 27:51.35 | 4:08.12 | 125360 | 143971
8 | 31:59.47 | 3:15.00 | 143972 | 158596
9 | 35:14.47 | 4:20.55 | 158597 | 178151
10 | 39:35.27 | 4:56.55 | 178152 | 200406
11 | 44:32.07 | 3:18.53 | 200407 | 215309
12 | 47:50.60 | 3:01.12 | 215310 | 228896
13 | 50:51.72 | 4:00.18 | 228897 | 246914
14 | 54:52.15 | 3:53.67 | 246915 | 264456
15 | 58:46.07 | 4:22.73 | 264457 | 284179
16 | 63:09.05 | 2:29.72 | 284180 | 295426
17 | 65:39.02 | 3:41.15 | 295427 | 312016
18 | 69:20.17 | 6:08.68 | 312017 | 339684


Range status and errors

Selected range

Filename H:\dafnaplus\Songs Of Yesterday\Disc 2\Free - Songs Of Yesterday (Disc 2) (542499-2).wav

Peak level 92.1 %
Extraction speed 10.1 X
Range quality 99.9 %
Test CRC C1C47916
Copy CRC C1C47916
Copy OK

No errors occurred


AccurateRip summary

Track 1 accurately ripped (confidence 5) [07059619] (AR v2)
Track 2 accurately ripped (confidence 5) [B4C9716A] (AR v2)
Track 3 accurately ripped (confidence 5) [54702632] (AR v2)
Track 4 accurately ripped (confidence 5) [9F220D90] (AR v2)
Track 5 accurately ripped (confidence 5) [9A600EB0] (AR v2)
Track 6 accurately ripped (confidence 5) [6FF05E63] (AR v2)
Track 7 accurately ripped (confidence 5) [BC7EA43B] (AR v2)
Track 8 accurately ripped (confidence 5) [45BD4FEB] (AR v2)
Track 9 accurately ripped (confidence 5) [04CBD184] (AR v2)
Track 10 accurately ripped (confidence 5) [623C3832] (AR v2)
Track 11 accurately ripped (confidence 5) [EC7D468F] (AR v2)
Track 12 accurately ripped (confidence 5) [70190820] (AR v2)
Track 13 accurately ripped (confidence 5) [4C27C369] (AR v2)
Track 14 accurately ripped (confidence 5) [A0C26948] (AR v2)
Track 15 accurately ripped (confidence 5) [19D85454] (AR v2)
Track 16 accurately ripped (confidence 5) [B7FB7AE0] (AR v2)
Track 17 accurately ripped (confidence 5) [36831E8E] (AR v2)
Track 18 accurately ripped (confidence 5) [7DEC6D57] (AR v2)

All tracks accurately ripped

End of status report

foobar2000 1.2.9 / Dynamic Range Meter 1.1.1
log date: 2014-12-29 11:21:36

––––––––––––––––––––––––––––––––––––––––
Analyzed: Free / Songs Of Yesterday (Disc 2) (542499-2)
––––––––––––––––––––––––––––––––––––––––

DR Peak RMS Duration Track
––––––––––––––––––––––––––––––––––––––––
DR12 -1.15 dB -15.13 dB 3:31 01-All Right Now (Previously unreleased)
DR14 -1.16 dB -18.50 dB 4:32 02-Oh I Wept (New stereo mix)
DR13 -0.71 dB -14.65 dB 4:30 03-Remember (New stereo mix)
DR11 -0.88 dB -16.11 dB 6:27 04-Don't Say You Love Me (New stereo mix)
DR8 -0.84 dB -11.29 dB 4:33 05-The Stealer (Full version)
DR12 -1.16 dB -15.10 dB 4:18 06-The Highway Song (Alternative stereo mix)
DR12 -1.02 dB -14.97 dB 4:08 07-On My Way (Alternative stereo mix)
DR15 -1.24 dB -18.94 dB 3:15 08-Sunny Day (New stereo mix with different vocals)
DR13 -0.92 dB -15.99 dB 4:21 09-Ride On A Pony (Alternative stereo mix)
DR12 -1.15 dB -15.50 dB 4:57 10-Love You So (New stereo mix with alternative vocals)
DR13 -1.15 dB -17.57 dB 3:19 11-Soon I Will Be Gone (Previously unreleased)
DR11 -0.85 dB -15.04 dB 3:01 12-My Brother Jake (New stereo mix)
DR14 -0.76 dB -17.88 dB 4:00 13-Makin' Love (Only My Soul) (Previously unreleased)
DR15 -1.12 dB -18.62 dB 3:54 14-Rain (Previously unreleased)
DR14 -1.08 dB -17.01 dB 4:23 15-Get Where I Belong (Previously unreleased)
DR12 -1.15 dB -15.37 dB 2:30 16-Only My Soul (Original 7' B-side)
DR9 -0.91 dB -11.37 dB 3:41 17-Travellin' Man (Alternative stereo mix)
DR11 -1.15 dB -15.34 dB 6:09 18-Molten Gold (Previously unreleased)
––––––––––––––––––––––––––––––––––––––––

Number of tracks: 18
Official DR value: DR12

Samplerate: 44100 Hz
Channels: 2
Bits per sample: 16
Bitrate: 815 kbps
Codec: FLAC

[CUETools log; Date: 26.12.2014 20:10:24; Version: 2.1.5]
[CTDB TOCID: CffrDHt0_9IutTVrA4_ltJS0vr8-] found.
Track | CTDB Status
1 | (16/16) Accurately ripped
2 | (16/16) Accurately ripped
3 | (16/16) Accurately ripped
4 | (16/16) Accurately ripped
5 | (16/16) Accurately ripped
6 | (16/16) Accurately ripped
7 | (16/16) Accurately ripped
8 | (16/16) Accurately ripped
9 | (16/16) Accurately ripped
10 | (16/16) Accurately ripped
11 | (16/16) Accurately ripped
12 | (16/16) Accurately ripped
13 | (16/16) Accurately ripped
14 | (16/16) Accurately ripped
15 | (16/16) Accurately ripped
16 | (16/16) Accurately ripped
17 | (16/16) Accurately ripped
18 | (16/16) Accurately ripped
[AccurateRip ID: 003240cb-0297ade9-fd11b112] found.
Track [ CRC | V2 ] Status
01 [f827f009|07059619] (00+05/56) Accurately ripped
02 [6bedacfd|b4c9716a] (00+05/56) Accurately ripped
03 [16ffaf9d|54702632] (00+05/56) Accurately ripped
04 [dcb5d347|9f220d90] (00+05/56) Accurately ripped
05 [0a9b55da|9a600eb0] (00+05/55) Accurately ripped
06 [b698a8c2|6ff05e63] (00+05/55) Accurately ripped
07 [5c1b0950|bc7ea43b] (00+05/56) Accurately ripped
08 [504d68df|45bd4feb] (00+05/55) Accurately ripped
09 [cd35d4a3|04cbd184] (00+05/55) Accurately ripped
10 [93f89e6a|623c3832] (00+05/54) Accurately ripped
11 [c86b509b|ec7d468f] (00+05/54) Accurately ripped
12 [c97d11c9|70190820] (00+05/55) Accurately ripped
13 [7171d045|4c27c369] (00+05/54) Accurately ripped
14 [090aacb4|a0c26948] (00+05/55) Accurately ripped
15 [e2ef1bee|19d85454] (00+05/55) Accurately ripped
16 [986e4192|b7fb7ae0] (00+05/56) Accurately ripped
17 [8112445d|36831e8e] (00+05/54) Accurately ripped
18 [dee5295b|7dec6d57] (00+05/52) Accurately ripped
Offsetted by 682:
01 [41b32b77] (28/56) Accurately ripped
02 [7c19b899] (28/56) Accurately ripped
03 [77f3b6db] (28/56) Accurately ripped
04 [c493ee04] (28/56) Accurately ripped
05 [00445a2a] (28/55) Accurately ripped
06 [be7a24cd] (28/55) Accurately ripped
07 [f63f2530] (28/56) Accurately ripped
08 [d8b4e128] (27/55) Accurately ripped
09 [6b5dfc98] (27/55) Accurately ripped
10 [e7a5c01e] (27/54) Accurately ripped
11 [ce0bbe9f] (27/54) Accurately ripped
12 [3dfcc3a5] (27/55) Accurately ripped
13 [e1ef6d44] (27/54) Accurately ripped
14 [e7657abb] (27/55) Accurately ripped
15 [eb4d3004] (27/55) Accurately ripped
16 [e023eaa9] (28/56) Accurately ripped
17 [9757c958] (26/54) Accurately ripped
18 [fc165ae6] (26/52) Accurately ripped
Offsetted by 18:
01 [3e13d350] (00/56) No match (V2 was not tested)
02 [87d31090] (00/56) No match (V2 was not tested)
03 [f8a62850] (00/56) No match (V2 was not tested)
04 [31c28e2b] (00/56) No match (V2 was not tested)
05 [af75ba08] (00/55) No match (V2 was not tested)
06 [1b71921b] (00/55) No match (V2 was not tested)
07 [d1fcedeb] (00/56) No match (V2 was not tested)
08 [70855cc0] (00/55) No match (V2 was not tested)
09 [728ac156] (00/55) No match (V2 was not tested)
10 [8d685f38] (00/54) No match (V2 was not tested)
11 [81a49fc6] (00/54) No match (V2 was not tested)
12 [34c539fb] (00/55) No match (V2 was not tested)
13 [4f191b93] (00/54) No match (V2 was not tested)
14 [4bb4de74] (00/55) No match (V2 was not tested)
15 [6970479c] (00/55) No match (V2 was not tested)
16 [ab2610d5] (00/56) No match (V2 was not tested)
17 [e439aa4e] (00/54) No match (V2 was not tested)
18 [b5289f3b] (00/52) No match (V2 was not tested)

Track Peak [ CRC32 ] [W/O NULL] [ LOG ]
– 92,1 [C1C47916] [DD33EF50] CRC32
01 87,6 [653FC52F] [17DC64F5]
02 87,5 [32C78316] [9FD4E4DF]
03 92,1 [EF0D0BDD] [20B6C682]
04 90,3 [59158573] [03EB6447]
05 90,8 [E6053FD4] [49897E20]
06 87,5 [52B0D9A2] [4AAF5B4C]
07 88,9 [4839AD33] [F0EBCA11]
08 86,7 [66B14380] [F617077E]
09 89,9 [5B4EBB3C] [044EB7C4]
10 87,5 [DE24C3F0] [A71AC5F8]
11 87,5 [912E8A5C] [DEF2DFFE]
12 90,7 [DF3B41C6] [3B0A98E2]
13 91,6 [968587C5] [38C6A427]
14 87,8 [E7E7AADC] [B70FF762]
15 88,3 [BA720BFE] [BAF2149A]
16 87,6 [BF0959E8] [61836DBB]
17 90,1 [6E7D53EA] [2719D4E9]
18 87,6 [EE80DC08] [31620101]

Free - Songs Of Yesterday (2000)

Tracklist CD3:

01. Little Bit Of Love (Alternative Mix) 2:37
02. Soldier Boy (Alternative Mix) 2:55
03. Sail On (Previously unreleased) 3:23
04. Guardian Of The Universe (Previously unreleased) 7:06
05. Child (Alternative Mix) 5:19
06. Honky Tonk Women (Previously unreleased) 3:14
07. Lady (Previously unreleased) 4:40
08. Muddy Water (Previously unreleased) 3:50
09. Heartbreaker (Live Version) 5:44
10. Wishing Well (Previously unreleased) 3:41
11. Let Me Show You (Previously unreleased) 6:06
12. Let Me Show You {Original 7inch B-Side} 3:04
13. Muddy Water (Alternative Mix) 4:17
14. Common Mortal Man (Alternative Mix) 4:29
15. Heartbreaker (Alternative Mix) 6:28
16. Seven Angels (Alternative Mix) 4:59

Exact Audio Copy V1.0 beta 3 from 29. August 2011

EAC extraction logfile from 26. December 2014, 13:42

Free / Songs Of Yesterday (Disc 3) (542499-2)

Used drive : PLEXTOR DVDR PX-891SA Adapter: 3 ID: 0

Read mode : Secure
Utilize accurate stream : Yes
Defeat audio cache : Yes
Make use of C2 pointers : No

Read offset correction : 6
Overread into Lead-In and Lead-Out : No
Fill up missing offset samples with silence : Yes
Delete leading and trailing silent blocks : No
Null samples used in CRC calculations : Yes
Used interface : Native Win32 interface for Win NT & 2000

Used output format : User Defined Encoder
Selected bitrate : 1024 kBit/s
Quality : High
Add ID3 tag : No
Command line compressor : C:\Program Files\Exact Audio Copy\Flac\flac.exe
Additional command line options : -V -8 -T "Genre=%genre%" -T "Artist=%artist%" -T "Title=%title%" -T "Album=%albumtitle%" -T "Date=%year%" -T "Tracknumber=%tracknr%" -T "Comment=%comment%" %source%


TOC of the extracted CD

Track | Start | Length | Start sector | End sector
––––––––––––––––––––––––––––-
1 | 0:00.00 | 2:37.10 | 0 | 11784
2 | 2:37.10 | 2:54.60 | 11785 | 24894
3 | 5:31.70 | 3:23.17 | 24895 | 40136
4 | 8:55.12 | 7:05.43 | 40137 | 72054
5 | 16:00.55 | 5:18.70 | 72055 | 95974
6 | 21:19.50 | 3:14.12 | 95975 | 110536
7 | 24:33.62 | 4:40.33 | 110537 | 131569
8 | 29:14.20 | 3:49.50 | 131570 | 148794
9 | 33:03.70 | 5:44.07 | 148795 | 174601
10 | 38:48.02 | 3:40.45 | 174602 | 191146
11 | 42:28.47 | 6:06.33 | 191147 | 218629
12 | 48:35.05 | 3:04.37 | 218630 | 232466
13 | 51:39.42 | 4:16.43 | 232467 | 251709
14 | 55:56.10 | 4:29.35 | 251710 | 271919
15 | 60:25.45 | 6:27.62 | 271920 | 301006
16 | 66:53.32 | 4:59.00 | 301007 | 323431


Range status and errors

Selected range

Filename H:\dafnaplus\Songs Of Yesterday\Disc 3\Free - Songs Of Yesterday (Disc 3) (542499-2).wav

Peak level 87.6 %
Extraction speed 10.1 X
Range quality 100.0 %
Test CRC 4A46374A
Copy CRC 4A46374A
Copy OK

No errors occurred


AccurateRip summary

Track 1 accurately ripped (confidence 5) [67040146] (AR v2)
Track 2 accurately ripped (confidence 5) [7B4D0D6C] (AR v2)
Track 3 accurately ripped (confidence 5) [AC8CFD59] (AR v2)
Track 4 accurately ripped (confidence 5) [FE699F76] (AR v2)
Track 5 accurately ripped (confidence 5) [6BAEA3FC] (AR v2)
Track 6 accurately ripped (confidence 5) [1F5B25E4] (AR v2)
Track 7 accurately ripped (confidence 5) [6C7F11B1] (AR v2)
Track 8 accurately ripped (confidence 5) [DE399ED1] (AR v2)
Track 9 accurately ripped (confidence 5) [64C840EB] (AR v2)
Track 10 accurately ripped (confidence 5) [4390BFC4] (AR v2)
Track 11 accurately ripped (confidence 5) [1EBD919D] (AR v2)
Track 12 accurately ripped (confidence 5) [F2DCFA7C] (AR v2)
Track 13 accurately ripped (confidence 5) [54693196] (AR v2)
Track 14 accurately ripped (confidence 5) [C0C37920] (AR v2)
Track 15 accurately ripped (confidence 5) [D0D4DD5F] (AR v2)
Track 16 accurately ripped (confidence 5) [627D16B0] (AR v2)

All tracks accurately ripped

End of status report

foobar2000 1.2.9 / Dynamic Range Meter 1.1.1
log date: 2014-12-29 11:21:56

––––––––––––––––––––––––––––––––––––––––
Analyzed: Free / Songs Of Yesterday (Disc 3) (542499-2)
––––––––––––––––––––––––––––––––––––––––

DR Peak RMS Duration Track
––––––––––––––––––––––––––––––––––––––––
DR11 -1.71 dB -14.68 dB 2:37 01-Little Bit Of Love (Alternative Mix)
DR13 -1.20 dB -17.15 dB 2:55 02-Soldier Boy (Alternative Mix)
DR11 -1.15 dB -16.37 dB 3:23 03-Sail On (Previously unreleased)
DR10 -3.85 dB -16.65 dB 7:06 04-Guardian Of The Universe (Previously unreleased)
DR13 -2.56 dB -19.19 dB 5:19 05-Child (Alternative Mix)
DR12 -1.95 dB -17.28 dB 3:14 06-Honky Tonk Women (Previously unreleased)
DR11 -2.65 dB -15.79 dB 4:40 07-Lady (Previously unreleased)
DR13 -1.15 dB -18.51 dB 3:50 08-Muddy Water (Previously unreleased)
DR12 -1.16 dB -15.37 dB 5:44 09-Heartbreaker (Live Version)
DR10 -2.20 dB -14.46 dB 3:41 10-Wishing Well (Previously unreleased)
DR14 -1.23 dB -18.02 dB 6:06 11-Let Me Show You (Previously unreleased)
DR11 -1.74 dB -16.04 dB 3:04 12-Let Me Show You {Original 7inch B-Side}
DR12 -2.45 dB -18.04 dB 4:17 13-Muddy Water (Alternative Mix)
DR12 -1.56 dB -18.27 dB 4:29 14-Common Mortal Man (Alternative Mix)
DR10 -1.15 dB -12.54 dB 6:28 15-Heartbreaker (Alternative Mix)
DR10 -1.34 dB -15.91 dB 4:59 16-Seven Angels (Alternative Mix)
––––––––––––––––––––––––––––––––––––––––

Number of tracks: 16
Official DR value: DR12

Samplerate: 44100 Hz
Channels: 2
Bits per sample: 16
Bitrate: 775 kbps
Codec: FLAC

[CUETools log; Date: 26.12.2014 20:11:27; Version: 2.1.5]
[CTDB TOCID: Y2XqDdNv_2nVvd7n9Rv1BvCqmq0-] found.
Track | CTDB Status
1 | (15/15) Accurately ripped
2 | (15/15) Accurately ripped
3 | (15/15) Accurately ripped
4 | (15/15) Accurately ripped
5 | (15/15) Accurately ripped
6 | (15/15) Accurately ripped
7 | (15/15) Accurately ripped
8 | (15/15) Accurately ripped
9 | (15/15) Accurately ripped
10 | (15/15) Accurately ripped
11 | (15/15) Accurately ripped
12 | (15/15) Accurately ripped
13 | (15/15) Accurately ripped
14 | (14/15) Accurately ripped
15 | (15/15) Accurately ripped
16 | (14/15) Accurately ripped
[AccurateRip ID: 0027aed8-01e4ccdb-dc10d810] found.
Track [ CRC | V2 ] Status
01 [992ce2ff|67040146] (00+05/58) Accurately ripped
02 [2e3be4bb|7b4d0d6c] (00+05/58) Accurately ripped
03 [b220c521|ac8cfd59] (00+05/58) Accurately ripped
04 [0bc9f62d|fe699f76] (00+05/58) Accurately ripped
05 [7acf56b4|6baea3fc] (00+05/58) Accurately ripped
06 [e8053aa0|1f5b25e4] (00+05/58) Accurately ripped
07 [6e784d83|6c7f11b1] (00+05/58) Accurately ripped
08 [a0f44ce5|de399ed1] (00+05/58) Accurately ripped
09 [5ef03814|64c840eb] (00+05/58) Accurately ripped
10 [91b865d9|4390bfc4] (00+05/58) Accurately ripped
11 [c04f3df5|1ebd919d] (00+05/58) Accurately ripped
12 [8dc96f15|f2dcfa7c] (00+05/58) Accurately ripped
13 [20b6a176|54693196] (00+05/58) Accurately ripped
14 [29c73d69|c0c37920] (00+05/57) Accurately ripped
15 [57e3ece6|d0d4dd5f] (00+05/57) Accurately ripped
16 [612001e1|627d16b0] (00+05/56) Accurately ripped
Offsetted by 664:
01 [8e589880] (02/58) Accurately ripped
02 [4f009885] (02/58) Accurately ripped
03 [7ede9b89] (02/58) Accurately ripped
04 [632e7095] (02/58) Accurately ripped
05 [f4e44e42] (02/58) Accurately ripped
06 [55f59115] (02/58) Accurately ripped
07 [5cf1ba9d] (02/58) Accurately ripped
08 [6d220898] (02/58) Accurately ripped
09 [85a8cd92] (02/58) Accurately ripped
10 [a3a87490] (02/58) Accurately ripped
11 [3c205375] (02/58) Accurately ripped
12 [28f08039] (02/58) Accurately ripped
13 [c49444e2] (02/58) Accurately ripped
14 [85070759] (02/57) Accurately ripped
15 [b9de7586] (02/57) Accurately ripped
16 [50761329] (02/56) Accurately ripped
Offsetted by 1328:
01 [4f5f9078] (28/58) Accurately ripped
02 [f9fe32ea] (28/58) Accurately ripped
03 [00cbb0f7] (28/58) Accurately ripped
04 [d4dad9ea] (28/58) Accurately ripped
05 [47dd8947] (28/58) Accurately ripped
06 [d98a377f] (28/58) Accurately ripped
07 [8e61066b] (28/58) Accurately ripped
08 [55e00510] (28/58) Accurately ripped
09 [f12394b8] (28/58) Accurately ripped
10 [45a0fa12] (28/58) Accurately ripped
11 [ba4cae6b] (28/58) Accurately ripped
12 [0a2ea37b] (28/58) Accurately ripped
13 [f1a21bf6] (28/58) Accurately ripped
14 [e760bed8] (27/57) Accurately ripped
15 [1bd8fe26] (28/57) Accurately ripped
16 [3fcc2471] (27/56) Accurately ripped
Offsetted by 661:
01 [29aa0d2d] (00/58) No match (V2 was not tested)
02 [1cde71af] (00/58) No match (V2 was not tested)
03 [2b359568] (00/58) No match (V2 was not tested)
04 [7951cb51] (00/58) No match (V2 was not tested)
05 [75b3dabb] (00/58) No match (V2 was not tested)
06 [6b3971ba] (00/58) No match (V2 was not tested)
07 [3fd82ffe] (00/58) No match (V2 was not tested)
08 [2906232b] (00/58) No match (V2 was not tested)
09 [f554caf1] (00/58) No match (V2 was not tested)
10 [c0b401c3] (00/58) No match (V2 was not tested)
11 [dbe66494] (00/58) No match (V2 was not tested)
12 [088ac644] (00/58) No match (V2 was not tested)
13 [956bc542] (00/58) No match (V2 was not tested)
14 [ec78baf3] (00/57) No match (V2 was not tested)
15 [4beead32] (00/57) No match (V2 was not tested)
16 [836d96f0] (00/56) No match (V2 was not tested)

Track Peak [ CRC32 ] [W/O NULL] [ LOG ]
– 87,6 [4A46374A] [D1381F4C] CRC32
01 82,0 [29E4204C] [1151DDF7]
02 87,1 [3AEE00D8] [FBB74E03]
03 87,6 [92DE1F28] [222BAB16]
04 64,1 [4A8296AB] [5B4EDAC5]
05 74,5 [A1BCD0E4] [4D28D051]
06 79,9 [EA176A74] [39C516CC]
07 73,7 [278AC007] [01E1F14B]
08 87,5 [F1F6A32D] [0240EB1E]
09 87,5 [735432F8] [3497F737]
10 77,6 [D0D2FD59] [DD7C6800]
11 86,8 [DB4B8D3C] [32E5CC99]
12 81,8 [ABA3280D] [32BAA644]
13 75,4 [903F5795] [6943B5FA]
14 83,5 [1A478479] [0628B28B]
15 87,6 [2029877B] [A4F3C87D]
16 85,7 [71247AF8] [17204DC7]

Free - Songs Of Yesterday (2000)

Tracklist CD4:

01. Ride On A Pony (Live) (Previously Unreleased) 5:34
02. Be My Friend (Live) (Previously Unreleased) 6:17
03. Fire And Water (Live) (Previously Unreleased) 4:02
04. The Stealer (Live) (Previously Unreleased) 3:53
05. Don't Say You Love Me (Live) (Previously Unreleased) 5:56
06. Mr. Big (Live) (Previously Unreleased) 6:27
07. I'll Be Creepin' (Live) 4:33
08. Free Me (Live) (Previously Unreleased) 6:39
09. Woman (Live) (Previously Unreleased) 4:19
10. I'm A Mover (Live) (Previously Unreleased) 3:44
11. Walk Iin My Shadow (Live) (Previously Unreleased) 4:18
12. Songs Of Yesterday (Live) (Previously Unreleased) 5:09
13. All Right Now (Live) (Previously Unreleased) 7:30
14. Crossroads (Live) 6:37

Exact Audio Copy V1.0 beta 3 from 29. August 2011

EAC extraction logfile from 26. December 2014, 14:13

Free / Songs Of Yesterday (Disc 4) (542499-2)

Used drive : PLEXTOR DVDR PX-891SA Adapter: 3 ID: 0

Read mode : Secure
Utilize accurate stream : Yes
Defeat audio cache : Yes
Make use of C2 pointers : No

Read offset correction : 6
Overread into Lead-In and Lead-Out : No
Fill up missing offset samples with silence : Yes
Delete leading and trailing silent blocks : No
Null samples used in CRC calculations : Yes
Used interface : Native Win32 interface for Win NT & 2000

Used output format : User Defined Encoder
Selected bitrate : 1024 kBit/s
Quality : High
Add ID3 tag : No
Command line compressor : C:\Program Files\Exact Audio Copy\Flac\flac.exe
Additional command line options : -V -8 -T "Genre=%genre%" -T "Artist=%artist%" -T "Title=%title%" -T "Album=%albumtitle%" -T "Date=%year%" -T "Tracknumber=%tracknr%" -T "Comment=%comment%" %source%


TOC of the extracted CD

Track | Start | Length | Start sector | End sector
––––––––––––––––––––––––––––-
1 | 0:00.00 | 5:34.20 | 0 | 25069
2 | 5:34.20 | 6:16.65 | 25070 | 53334
3 | 11:51.10 | 4:01.72 | 53335 | 71481
4 | 15:53.07 | 3:52.55 | 71482 | 88936
5 | 19:45.62 | 5:56.33 | 88937 | 115669
6 | 25:42.20 | 6:27.20 | 115670 | 144714
7 | 32:09.40 | 4:32.52 | 144715 | 165166
8 | 36:42.17 | 6:38.53 | 165167 | 195069
9 | 43:20.70 | 4:18.40 | 195070 | 214459
10 | 47:39.35 | 3:43.47 | 214460 | 231231
11 | 51:23.07 | 4:18.23 | 231232 | 250604
12 | 55:41.30 | 5:08.42 | 250605 | 273746
13 | 60:49.72 | 7:29.43 | 273747 | 307464
14 | 68:19.40 | 6:36.70 | 307465 | 337234


Range status and errors

Selected range

Filename H:\dafnaplus\Songs Of Yesterday\Disc 4\Free - Songs Of Yesterday (Disc 4) (542499-2).wav

Peak level 87.6 %
Extraction speed 10.2 X
Range quality 100.0 %
Test CRC CD6664B5
Copy CRC CD6664B5
Copy OK

No errors occurred


AccurateRip summary

Track 1 accurately ripped (confidence 5) [37F87081] (AR v2)
Track 2 accurately ripped (confidence 5) [B8C2EF13] (AR v2)
Track 3 accurately ripped (confidence 5) [FE9FA689] (AR v2)
Track 4 accurately ripped (confidence 5) [6FBFEC01] (AR v2)
Track 5 accurately ripped (confidence 5) [473F8B3F] (AR v2)
Track 6 accurately ripped (confidence 5) [60FF8F50] (AR v2)
Track 7 accurately ripped (confidence 5) [69225946] (AR v2)
Track 8 accurately ripped (confidence 5) [F07E57CC] (AR v2)
Track 9 accurately ripped (confidence 5) [1BD4C893] (AR v2)
Track 10 accurately ripped (confidence 5) [57641A60] (AR v2)
Track 11 accurately ripped (confidence 5) [DED754E8] (AR v2)
Track 12 accurately ripped (confidence 5) [FF26AE69] (AR v2)
Track 13 accurately ripped (confidence 5) [7E677090] (AR v2)
Track 14 accurately ripped (confidence 5) [30F70BBC] (AR v2)

All tracks accurately ripped

End of status report

foobar2000 1.2.9 / Dynamic Range Meter 1.1.1
log date: 2014-12-29 11:22:18

––––––––––––––––––––––––––––––––––––––––
Analyzed: Free / Songs Of Yesterday (Disc 4) (542499-2)
––––––––––––––––––––––––––––––––––––––––

DR Peak RMS Duration Track
––––––––––––––––––––––––––––––––––––––––
DR11 -1.15 dB -14.36 dB 5:34 01-Ride On A Pony (Live) (Previously Unreleased)
DR11 -1.15 dB -14.64 dB 6:17 02-Be My Friend (Live) (Previously Unreleased)
DR10 -1.15 dB -12.24 dB 4:02 03-Fire And Water (Live) (Previously Unreleased)
DR10 -1.16 dB -12.41 dB 3:53 04-The Stealer (Live) (Previously Unreleased)
DR10 -1.15 dB -14.05 dB 5:56 05-Don't Say You Love Me (Live) (Previously Unreleased)
DR9 -1.15 dB -12.56 dB 6:27 06-Mr. Big (Live) (Previously Unreleased)
DR9 -1.17 dB -11.91 dB 4:33 07-I'll Be Creepin' (Live)
DR14 -1.43 dB -18.52 dB 6:39 08-Free Me (Live) (Previously Unreleased)
DR10 -1.28 dB -12.76 dB 4:19 09-Woman (Live) (Previously Unreleased)
DR9 -1.28 dB -11.33 dB 3:44 10-I'm A Mover (Live) (Previously Unreleased)
DR9 -1.15 dB -11.51 dB 4:18 11-Walk Iin My Shadow (Live) (Previously Unreleased)
DR9 -1.15 dB -11.32 dB 5:09 12-Songs Of Yesterday (Live) (Previously Unreleased)
DR9 -1.16 dB -11.39 dB 7:30 13-All Right Now (Live) (Previously Unreleased)
DR8 -1.15 dB -10.79 dB 6:37 14-Crossroads (Live)
––––––––––––––––––––––––––––––––––––––––

Number of tracks: 14
Official DR value: DR10

Samplerate: 44100 Hz
Channels: 2
Bits per sample: 16
Bitrate: 852 kbps
Codec: FLAC

[CUETools log; Date: 26.12.2014 20:14:22; Version: 2.1.5]
[CTDB TOCID: 2KQ5RgXJuTrjmDyfJ6T.xntYE.I-] found.
Track | CTDB Status
1 | (15/15) Accurately ripped
2 | (15/15) Accurately ripped
3 | (15/15) Accurately ripped
4 | (15/15) Accurately ripped
5 | (15/15) Accurately ripped
6 | (15/15) Accurately ripped
7 | (15/15) Accurately ripped
8 | (14/15) Accurately ripped
9 | (14/15) Accurately ripped
10 | (15/15) Accurately ripped
11 | (15/15) Accurately ripped
12 | (15/15) Accurately ripped
13 | (15/15) Accurately ripped
14 | (14/15) Accurately ripped
[AccurateRip ID: 0025c0ce-0191f214-ae11900e] found.
Track [ CRC | V2 ] Status
01 [7a46f1cb|37f87081] (00+05/59) Accurately ripped
02 [a271d964|b8c2ef13] (00+05/60) Accurately ripped
03 [c90970b2|fe9fa689] (00+05/60) Accurately ripped
04 [20c46399|6fbfec01] (00+05/60) Accurately ripped
05 [af50bcbd|473f8b3f] (00+05/60) Accurately ripped
06 [2fc6f76c|60ff8f50] (00+05/60) Accurately ripped
07 [16b80f45|69225946] (00+05/59) Accurately ripped
08 [b548f0a9|f07e57cc] (00+05/58) Accurately ripped
09 [fb5e77cf|1bd4c893] (00+05/58) Accurately ripped
10 [8a2bf73b|57641a60] (00+05/60) Accurately ripped
11 [5a5443d7|ded754e8] (00+05/60) Accurately ripped
12 [63a5145d|ff26ae69] (00+05/59) Accurately ripped
13 [8ab25d92|7e677090] (00+05/59) Accurately ripped
14 [19319828|30f70bbc] (00+05/56) Accurately ripped
Offsetted by 18:
01 [3b875bee] (31/59) Accurately ripped
02 [c2d184a0] (31/60) Accurately ripped
03 [da98ae70] (31/60) Accurately ripped
04 [527cee99] (31/60) Accurately ripped
05 [f7b7cedf] (31/60) Accurately ripped
06 [c11e81f5] (31/60) Accurately ripped
07 [920e3c39] (31/59) Accurately ripped
08 [f71333bd] (30/58) Accurately ripped
09 [06be89b3] (30/58) Accurately ripped
10 [7f7c017d] (31/60) Accurately ripped
11 [b24fb7e3] (31/60) Accurately ripped
12 [26044c23] (30/59) Accurately ripped
13 [baa9b45f] (30/59) Accurately ripped
14 [55fb8b97] (28/56) Accurately ripped

Track Peak [ CRC32 ] [W/O NULL] [ LOG ]
– 87,6 [CD6664B5] [2D754FA5] CRC32
01 87,6 [47E95A0F] [75822B80]
02 87,6 [8FD8B91A] [A430148E]
03 87,5 [929992A4] [59DE410B]
04 87,5 [FC9F0B07] [8C9AC007]
05 87,5 [BD7316FC] [3A6DE165]
06 87,5 [956611CF] [BB4F9B54]
07 87,3 [FB8EF7A3] [5018A8C9]
08 84,8 [2045B118] [BA095D55]
09 86,3 [51F5FC04] [4E813D6E]
10 86,2 [7DAAF1F7] [E9C728DE]
11 87,6 [94B1B710] [E67B4CE7]
12 87,6 [BFD2E48D] [3D72A9C2]
13 87,4 [A16AD277] [67707775]
14 87,5 [A21AA7B6] [A4884DD8]

Free - Songs Of Yesterday (2000)

Tracklist CD5:

1. Paul Rodgers And The Maytals - (I Just Wanna) See You Smile (Previously Unreleased) 3:11
2. Peace - Like Water (Previously Unreleased) 4:35
3. Peace - Zero BC (Previously Unreleased) 5:39
4. Sharks - Ol'Jelly Roll (Alternative 7inch Mix) 2:40
5. Sharks - Follow Me (Alternative 7inch Mix) 3:03
6. KKTR - Fool's Life (Previously Unreleased) 4:18
7. KKTR - I'm On The Run (Previously Unreleased) 4:37
8. KKTR - Sammy's Alright (Previously Unreleased) 4:09
9. KKTR - Hold On (A New Stereo Mix) (5:38)
10. Rabbit - Tuesday Williamsburg (Previously Unreleased) 2:59
11. Rabbit - Unseen Love (Previously Unreleased) 4:35
12. Paul Kossoff/John Martyn - Time Spent (Time Away) (Previously Unreleased) (Full Version) 18:17

Exact Audio Copy V1.0 beta 3 from 29. August 2011

EAC extraction logfile from 26. December 2014, 14:53

Various / Songs Of Yesterday (Disc 5) (542499-2)

Used drive : PLEXTOR DVDR PX-891SA Adapter: 3 ID: 0

Read mode : Secure
Utilize accurate stream : Yes
Defeat audio cache : Yes
Make use of C2 pointers : No

Read offset correction : 6
Overread into Lead-In and Lead-Out : No
Fill up missing offset samples with silence : Yes
Delete leading and trailing silent blocks : No
Null samples used in CRC calculations : Yes
Used interface : Native Win32 interface for Win NT & 2000

Used output format : User Defined Encoder
Selected bitrate : 1024 kBit/s
Quality : High
Add ID3 tag : No
Command line compressor : C:\Program Files\Exact Audio Copy\Flac\flac.exe
Additional command line options : -V -8 -T "Genre=%genre%" -T "Artist=%artist%" -T "Title=%title%" -T "Album=%albumtitle%" -T "Date=%year%" -T "Tracknumber=%tracknr%" -T "Comment=%comment%" %source%


TOC of the extracted CD

Track | Start | Length | Start sector | End sector
––––––––––––––––––––––––––––-
1 | 0:00.00 | 3:11.67 | 0 | 14391
2 | 3:11.67 | 4:35.68 | 14392 | 35084
3 | 7:47.60 | 5:39.45 | 35085 | 60554
4 | 13:27.30 | 2:40.30 | 60555 | 72584
5 | 16:07.60 | 3:03.37 | 72585 | 86346
6 | 19:11.22 | 4:18.15 | 86347 | 105711
7 | 23:29.37 | 4:37.53 | 105712 | 126539
8 | 28:07.15 | 4:09.65 | 126540 | 145279
9 | 32:17.05 | 5:38.22 | 145280 | 170651
10 | 37:55.27 | 2:59.30 | 170652 | 184106
11 | 40:54.57 | 4:35.48 | 184107 | 204779
12 | 45:30.30 | 18:17.47 | 204780 | 287101


Range status and errors

Selected range

Filename H:\dafnaplus\Songs Of Yesterday\Disc 5\Various - Songs Of Yesterday (Disc 5) (542499-2).wav

Peak level 96.3 %
Extraction speed 8.8 X
Range quality 99.9 %
Test CRC DD73BAAA
Copy CRC DD73BAAA
Copy OK

No errors occurred


AccurateRip summary

Track 1 accurately ripped (confidence 6) [D6E87913] (AR v2)
Track 2 accurately ripped (confidence 6) [EF161F3C] (AR v2)
Track 3 accurately ripped (confidence 6) [CFE5147F] (AR v2)
Track 4 accurately ripped (confidence 6) [A5681897] (AR v2)
Track 5 accurately ripped (confidence 6) [A99779D0] (AR v2)
Track 6 accurately ripped (confidence 6) [9367EC45] (AR v2)
Track 7 accurately ripped (confidence 6) [27AF9D90] (AR v2)
Track 8 accurately ripped (confidence 6) [A73B2A29] (AR v2)
Track 9 accurately ripped (confidence 6) [32219AFB] (AR v2)
Track 10 accurately ripped (confidence 6) [614B8355] (AR v2)
Track 11 accurately ripped (confidence 6) [35CF57B6] (AR v2)
Track 12 accurately ripped (confidence 6) [6ED85A9F] (AR v2)

All tracks accurately ripped

End of status report

foobar2000 1.2.9 / Dynamic Range Meter 1.1.1
log date: 2014-12-29 11:22:41

––––––––––––––––––––––––––––––––––––––––
Analyzed: KKTR / Songs Of Yesterday (Disc 5) (542499-2)
––––––––––––––––––––––––––––––––––––––––

DR Peak RMS Duration Track
––––––––––––––––––––––––––––––––––––––––
DR11 -1.08 dB -14.86 dB 4:18 06-Fool's Life (Previously Unreleased)
DR12 -0.32 dB -15.01 dB 4:38 07-I'm On The Run (Previously Unreleased)
DR13 -0.66 dB -15.93 dB 4:10 08-Sammy's Alright (Previously Unreleased)
DR14 -1.19 dB -18.77 dB 5:38 09-Hold On (A New Stereo Mix)
––––––––––––––––––––––––––––––––––––––––

Number of tracks: 4
Official DR value: DR12

Samplerate: 44100 Hz
Channels: 2
Bits per sample: 16
Bitrate: 792 kbps
Codec: FLAC
================================================================================

––––––––––––––––––––––––––––––––––––––––
Analyzed: Paul Rodgers And The Maytals / Songs Of Yesterday (Disc 5) (542499-2) (1)
Peace / Songs Of Yesterday (Disc 5) (542499-2) (2-3)
Rabbit / Songs Of Yesterday (Disc 5) (542499-2) (4-5)
––––––––––––––––––––––––––––––––––––––––

DR Peak RMS Duration Track
––––––––––––––––––––––––––––––––––––––––
DR11 -1.15 dB -14.74 dB 3:12 01-(I Just Wanna) See You Smile (Previously Unreleased)
DR14 -0.95 dB -20.13 dB 4:36 02-Like Water (Previously Unreleased)
DR14 -0.42 dB -17.92 dB 5:40 03-Zero BC (Previously Unreleased)
DR11 -1.16 dB -15.39 dB 2:59 10-Tuesday Williamsburg (Previously Unreleased)
DR12 -1.15 dB -17.61 dB 4:36 11-Unseen Love (Previously Unreleased)
––––––––––––––––––––––––––––––––––––––––

Number of tracks: 5
Official DR value: DR13

Samplerate: 44100 Hz
Channels: 2
Bits per sample: 16
Bitrate: 792 kbps
Codec: FLAC
================================================================================

––––––––––––––––––––––––––––––––––––––––
Analyzed: Sharks / Songs Of Yesterday (Disc 5) (542499-2)
––––––––––––––––––––––––––––––––––––––––

DR Peak RMS Duration Track
––––––––––––––––––––––––––––––––––––––––
DR11 -1.49 dB -15.88 dB 2:40 04-Ol'Jelly Roll (Alternative 7inch Mix)
DR10 -1.15 dB -14.25 dB 3:03 05-Follow Me (Alternative 7inch Mix)
––––––––––––––––––––––––––––––––––––––––

Number of tracks: 2
Official DR value: DR11

Samplerate: 44100 Hz
Channels: 2
Bits per sample: 16
Bitrate: 792 kbps
Codec: FLAC

[CUETools log; Date: 26.12.2014 20:15:30; Version: 2.1.5]
[CTDB TOCID: DuE6UY2wn6cnwgnNVZpZixcz9ac-] found.
Track | CTDB Status
1 | (13/13) Accurately ripped
2 | (13/13) Accurately ripped
3 | (13/13) Accurately ripped
4 | (13/13) Accurately ripped
5 | (13/13) Accurately ripped
6 | (13/13) Accurately ripped
7 | (13/13) Accurately ripped
8 | (13/13) Accurately ripped
9 | (13/13) Accurately ripped
10 | (13/13) Accurately ripped
11 | (13/13) Accurately ripped
12 | (13/13) Accurately ripped
[AccurateRip ID: 0016c891-00d9430a-bb0ef40c] found.
Track [ CRC | V2 ] Status
01 [140ce50d|d6e87913] (02+06/48) Accurately ripped
02 [5b11bd43|ef161f3c] (02+06/49) Accurately ripped
03 [3674826a|cfe5147f] (02+06/49) Accurately ripped
04 [3557bd73|a5681897] (02+06/49) Accurately ripped
05 [bee169f1|a99779d0] (02+06/49) Accurately ripped
06 [81dd3c31|9367ec45] (02+06/49) Accurately ripped
07 [dbaced2a|27af9d90] (02+06/49) Accurately ripped
08 [e9de0f79|a73b2a29] (02+06/49) Accurately ripped
09 [a82984e7|32219afb] (02+06/49) Accurately ripped
10 [c5cb77e4|614b8355] (02+06/49) Accurately ripped
11 [517276b3|35cf57b6] (02+06/49) Accurately ripped
12 [8c657b26|6ed85a9f] (02+06/46) Accurately ripped
Offsetted by 664:
01 [da1b45cc] (21/48) Accurately ripped
02 [255a30d8] (22/49) Accurately ripped
03 [38a4d00a] (22/49) Accurately ripped
04 [ca71802b] (22/49) Accurately ripped
05 [08ce8e19] (22/49) Accurately ripped
06 [7d0a8369] (22/49) Accurately ripped
07 [6a251cf3] (22/49) Accurately ripped
08 [3292d12f] (22/49) Accurately ripped
09 [c61152c3] (22/49) Accurately ripped
10 [7f6e9c33] (22/49) Accurately ripped
11 [cdc54079] (22/49) Accurately ripped
12 [5f6df996] (19/46) Accurately ripped

Track Peak [ CRC32 ] [W/O NULL] [ LOG ]
– 96,3 [DD73BAAA] [AF4E4EBE] CRC32
01 87,5 [7091D89A] [B0627B4B]
02 89,6 [0A3D63DA] [E808F0A4]
03 95,3 [BDA19721] [144A85F9]
04 84,2 [9E74250F] [3ACF812F]
05 87,6 [ACA3C54E] [95F995DC]
06 88,3 [F67A74B5] [5910740F]
07 96,3 [79146222] [912188AD]
08 92,6 [3B2AC49F] [B1313524]
09 87,2 [728C0D10] [AE52554D]
10 87,4 [D59C4DD2] [A63F6021]
11 87,6 [AF7894DA] [0A2116E8]
12 87,0 [4C785091] [3B176A28]

Free - Songs Of Yesterday (2000)

All thanks go to dafnaplus