Subcategories

Frozen Ghost - Nice Place To Visit (1988)

Posted By: Designol
Frozen Ghost - Nice Place To Visit (1988)

Frōzen Ghost - Nice Place To Visit (1988)
EAC | FLAC | Tracks (Cue&Log) ~ 304 Mb | Mp3 (CBR320) ~ 126 Mb | Scans included
Rock, New Wave, Pop/Rock | Label: WEA | # 255 705-2 | Time: 00:44:16

First off, "Dream Come True" is maybe the most beautiful ballad ever. Why Lanni's lesser "Lost in You," which he recorded with Sheriff, came back from the dead instead of this pearl seems just plain unfair. Otherwise, this collection plays even more polished than Frozen Ghost's still-quirky debut, whereupon the Canadian duo established a superior level of professionalism and skill that works against the tunes this time around. Except for the Fixx-like first single, "Round and Round," there exists nothing simple about any of these songs. Nice Place to Visit almost echoes a new age atmosphere – i.e., dealing with outer (the memorable "Mother Nature") and inner ("Perfect World") solace. It's hard to recommend this CD to scratch any particular musical itch, but "Dream Come True" on a mixed tape could make anybody fall in love with you.

Review by Doug Stone, Allmusic.com

Frōzen Ghōst at Allmusic
Frōzen Ghōst at Wiki

Tracklist:

01. Better To Try (4:31)
02. Pauper In Paradise (4:41)
03. Selling Salvation (4:52)
04. Step By Step (3:53)
05. Mother Nature (3:50)
06. Echo A Miracle (4:31)
07. Round And Round (4:24)
08. Dream Come True (4:17)
09. Perfect World (4:24)
10. Suspended Humanation (4:53)


Exact Audio Copy V1.0 beta 3 from 29. August 2011

EAC extraction logfile from 12. July 2016, 21:54

Frozen Ghost / Nice Place To Visit

Used drive : ASUS DRW-20B1LT Adapter: 2 ID: 0

Read mode : Secure
Utilize accurate stream : Yes
Defeat audio cache : Yes
Make use of C2 pointers : No

Read offset correction : 6
Overread into Lead-In and Lead-Out : No
Fill up missing offset samples with silence : Yes
Delete leading and trailing silent blocks : No
Null samples used in CRC calculations : Yes
Used interface : Native Win32 interface for Win NT & 2000
Gap handling : Appended to previous track

Used output format : User Defined Encoder
Selected bitrate : 896 kBit/s
Quality : High
Add ID3 tag : No
Command line compressor : C:\Program Files\Exact Audio Copy\Flac\flac.exe
Additional command line options : -8 -V -T "ARTIST=%artist%" -T "TITLE=%title%" -T "ALBUM=%albumtitle%" -T "DATE=%year%" -T "TRACKNUMBER=%tracknr%" -T "GENRE=%genre%" -T "COMMENT=EAC FLAC -8" %source%


TOC of the extracted CD

Track | Start | Length | Start sector | End sector
––––––––––––––––––––––––––––-
1 | 0:00.37 | 4:31.35 | 37 | 20396
2 | 4:31.72 | 4:40.70 | 20397 | 41466
3 | 9:12.67 | 4:51.40 | 41467 | 63331
4 | 14:04.32 | 3:52.73 | 63332 | 80804
5 | 17:57.30 | 3:50.35 | 80805 | 98089
6 | 21:47.65 | 4:31.32 | 98090 | 118446
7 | 26:19.22 | 4:23.55 | 118447 | 138226
8 | 30:43.02 | 4:16.60 | 138227 | 157486
9 | 34:59.62 | 4:23.43 | 157487 | 177254
10 | 39:23.30 | 4:53.32 | 177255 | 199261


Track 1

Filename K:\EACrips\Frozen Ghost - Nice Place To Visit\01 - Better To Try.wav

Pre-gap length 0:00:02.37

Peak level 63.6 %
Extraction speed 3.4 X
Track quality 100.0 %
Test CRC 908B52AB
Copy CRC 908B52AB
Accurately ripped (confidence 2) [F9278E5B] (AR v2)
Copy OK

Track 2

Filename K:\EACrips\Frozen Ghost - Nice Place To Visit\02 - Pauper In Paradise.wav

Peak level 81.4 %
Extraction speed 3.9 X
Track quality 100.0 %
Test CRC 80F533C1
Copy CRC 80F533C1
Accurately ripped (confidence 2) [C4BF5FC0] (AR v2)
Copy OK

Track 3

Filename K:\EACrips\Frozen Ghost - Nice Place To Visit\03 - Selling Salvation.wav

Pre-gap length 0:00:01.12

Peak level 66.2 %
Extraction speed 4.3 X
Track quality 100.0 %
Test CRC 41E94ADD
Copy CRC 41E94ADD
Accurately ripped (confidence 2) [805BEBA5] (AR v2)
Copy OK

Track 4

Filename K:\EACrips\Frozen Ghost - Nice Place To Visit\04 - Step By Step.wav

Peak level 70.9 %
Extraction speed 4.5 X
Track quality 100.0 %
Test CRC 33143805
Copy CRC 33143805
Accurately ripped (confidence 2) [0B97E473] (AR v2)
Copy OK

Track 5

Filename K:\EACrips\Frozen Ghost - Nice Place To Visit\05 - Mother Nature.wav

Peak level 61.6 %
Extraction speed 4.8 X
Track quality 100.0 %
Test CRC 4EC14EA0
Copy CRC 4EC14EA0
Accurately ripped (confidence 2) [17AE7819] (AR v2)
Copy OK

Track 6

Filename K:\EACrips\Frozen Ghost - Nice Place To Visit\06 - Echo A Miracle.wav

Pre-gap length 0:00:01.13

Peak level 72.3 %
Extraction speed 5.2 X
Track quality 100.0 %
Test CRC 982DAE9A
Copy CRC 982DAE9A
Accurately ripped (confidence 2) [DB9B4BDA] (AR v2)
Copy OK

Track 7

Filename K:\EACrips\Frozen Ghost - Nice Place To Visit\07 - Round And Round.wav

Peak level 68.9 %
Extraction speed 5.4 X
Track quality 100.0 %
Test CRC 0F0E513C
Copy CRC 0F0E513C
Accurately ripped (confidence 2) [5F839920] (AR v2)
Copy OK

Track 8

Filename K:\EACrips\Frozen Ghost - Nice Place To Visit\08 - Dream Come True.wav

Pre-gap length 0:00:01.27

Peak level 72.7 %
Extraction speed 5.6 X
Track quality 100.0 %
Test CRC 9DA4A48A
Copy CRC 9DA4A48A
Accurately ripped (confidence 2) [EF91E53B] (AR v2)
Copy OK

Track 9

Filename K:\EACrips\Frozen Ghost - Nice Place To Visit\09 - Perfect World.wav

Peak level 71.4 %
Extraction speed 4.9 X
Track quality 99.9 %
Test CRC E18AB1C2
Copy CRC E18AB1C2
Accurately ripped (confidence 2) [EE5ACFB0] (AR v2)
Copy OK

Track 10

Filename K:\EACrips\Frozen Ghost - Nice Place To Visit\10 - Suspended Humanation.wav

Peak level 71.7 %
Extraction speed 6.2 X
Track quality 100.0 %
Test CRC FCCBFAA6
Copy CRC FCCBFAA6
Accurately ripped (confidence 2) [7645DB9F] (AR v2)
Copy OK


All tracks accurately ripped

No errors occurred

End of status report

==== Log checksum 109443130B2A6321AC08382C681A423B6731C7A8E082D0B87C3233354616D0B8 ====

foobar2000 1.2 / Dynamic Range Meter 1.1.1
log date: 2018-03-26 19:00:02

––––––––––––––––––––––––––––––––––––––––
Analyzed: Frozen Ghost / Nice Place To Visit
––––––––––––––––––––––––––––––––––––––––

DR Peak RMS Duration Track
––––––––––––––––––––––––––––––––––––––––
DR11 -3.92 dB -17.46 dB 4:31 01-Better To Try
DR12 -1.79 dB -16.50 dB 4:41 02-Pauper In Paradise
DR10 -3.58 dB -17.07 dB 4:52 03-Selling Salvation
DR12 -2.98 dB -16.84 dB 3:53 04-Step By Step
DR11 -4.21 dB -17.27 dB 3:50 05-Mother Nature
DR12 -2.81 dB -16.92 dB 4:31 06-Echo A Miracle
DR12 -3.23 dB -17.29 dB 4:24 07-Round And Round
DR13 -2.77 dB -19.57 dB 4:17 08-Dream Come True
DR12 -2.92 dB -16.72 dB 4:24 09-Perfect World
DR12 -2.88 dB -17.16 dB 4:53 10-Suspended Humanation
––––––––––––––––––––––––––––––––––––––––

Number of tracks: 10
Official DR value: DR12

Samplerate: 44100 Hz
Channels: 2
Bits per sample: 16
Bitrate: 863 kbps
Codec: FLAC
================================================================================

Frozen Ghost - Nice Place To Visit (1988)

Frozen Ghost - Nice Place To Visit (1988)