Subcategories
Tags
Language
Tags

George Michael - Greatest Hits '99 (1999) {Storm/Epic Russia}

Posted By: TestTickles
George Michael - Greatest Hits '99 (1999) {Storm/Epic Russia}

George Michael - Greatest Hits '99 (1999) {Storm/Epic Russia}
EAC Rip | FLAC with CUE and LOG | scans | 519 mb
MP3 CBR 320 kbps | RAR | 179 mb
Genre: pop soul

Greatest Hits '99 is a 1999 compilation CD by George Michael. This is on Russian pirate label Storm Records, despite it having an authentic Epic Records name and logo but they are the original recordings.

George Michael - Greatest Hits '99 (1999) {Storm/Epic Russia}

01. Outside
02. As
03. Careless Whisper
04. Somebody To Love
05. Killer/Papa Was A Rollin' Stone)
06. Last Christmas
07. Don't Let The Sun Go Down On Me
08. Fastlove
09. Too Funky
10. Father Figure
11. Star People '97
12. Kissing A Fool
13. Desafinado
14. Jesus To A Child
15. Praying For Time

Track 2 with Mary J. Blige
Track 4 with Queen
Track 7 with Elton John
Track 13 with Astrud Gilberto

Exact Audio Copy V0.99 prebeta 4 from 23. January 2008

EAC extraction logfile from 26. June 2009, 12:30

George Michael / Greatest Hits '99

Used drive : SONY DVD-ROM DDU1615 Adapter: 3 ID: 0

Read mode : Secure
Utilize accurate stream : Yes
Defeat audio cache : Yes
Make use of C2 pointers : No

Read offset correction : 6
Overread into Lead-In and Lead-Out : No
Fill up missing offset samples with silence : Yes
Delete leading and trailing silent blocks : No
Null samples used in CRC calculations : Yes
Used interface : Installed external ASPI interface
Gap handling : Appended to previous track

Used output format : Internal WAV Routines
Sample format : 44.100 Hz; 16 Bit; Stereo


TOC of the extracted CD

Track | Start | Length | Start sector | End sector
––––––––––––––––––––––––––––-
1 | 0:00.00 | 4:41.03 | 0 | 21077
2 | 4:41.03 | 4:41.01 | 21078 | 42153
3 | 9:22.04 | 4:58.50 | 42154 | 64553
4 | 14:20.54 | 5:22.24 | 64554 | 88727
5 | 19:43.03 | 4:14.68 | 88728 | 107845
6 | 23:57.71 | 4:24.40 | 107846 | 127685
7 | 28:22.36 | 5:45.01 | 127686 | 153561
8 | 34:07.37 | 5:26.74 | 153562 | 178085
9 | 39:34.36 | 3:46.63 | 178086 | 195098
10 | 43:21.24 | 5:39.03 | 195099 | 220526
11 | 49:00.27 | 5:32.73 | 220527 | 245499
12 | 54:33.25 | 4:34.39 | 245500 | 266088
13 | 59:07.64 | 3:15.01 | 266089 | 280714
14 | 62:22.65 | 6:48.74 | 280715 | 311388
15 | 69:11.64 | 4:40.01 | 311389 | 332389


Track 1

Filename C:\cuntfist\FLAC\George Michael - Greatest Hits '99 (1999) [FLAC] {Storm, Epic Russia}\01 - Outside.wav

Pre-gap length 0:00:02.00

Peak level 98.8 %
Track quality 100.0 %
Test CRC 753B5B16
Copy CRC 753B5B16
Track not present in AccurateRip database
Copy OK

Track 2

Filename C:\cuntfist\FLAC\George Michael - Greatest Hits '99 (1999) [FLAC] {Storm, Epic Russia}\02 - As.wav

Pre-gap length 0:00:02.00

Peak level 86.5 %
Track quality 100.0 %
Test CRC 9A2AB87E
Copy CRC 9A2AB87E
Track not present in AccurateRip database
Copy OK

Track 3

Filename C:\cuntfist\FLAC\George Michael - Greatest Hits '99 (1999) [FLAC] {Storm, Epic Russia}\03 - Careless Whisper.wav

Pre-gap length 0:00:02.00

Peak level 99.6 %
Track quality 100.0 %
Test CRC 2A4F1831
Copy CRC 2A4F1831
Track not present in AccurateRip database
Copy OK

Track 4

Filename C:\cuntfist\FLAC\George Michael - Greatest Hits '99 (1999) [FLAC] {Storm, Epic Russia}\04 - Somebody To Love.wav

Pre-gap length 0:00:02.00

Peak level 98.6 %
Track quality 100.0 %
Test CRC 6F577965
Copy CRC 6F577965
Track not present in AccurateRip database
Copy OK

Track 5

Filename C:\cuntfist\FLAC\George Michael - Greatest Hits '99 (1999) [FLAC] {Storm, Epic Russia}\05 - Killer, Papa Was A Rollin' Stone.wav

Pre-gap length 0:00:02.00

Peak level 100.0 %
Track quality 100.0 %
Test CRC B4BC9117
Copy CRC B4BC9117
Track not present in AccurateRip database
Copy OK

Track 6

Filename C:\cuntfist\FLAC\George Michael - Greatest Hits '99 (1999) [FLAC] {Storm, Epic Russia}\06 - Last Christmas.wav

Pre-gap length 0:00:02.00

Peak level 98.8 %
Track quality 100.0 %
Test CRC 4C21F26F
Copy CRC 4C21F26F
Track not present in AccurateRip database
Copy OK

Track 7

Filename C:\cuntfist\FLAC\George Michael - Greatest Hits '99 (1999) [FLAC] {Storm, Epic Russia}\07 - Don't Let The Sun Go Down On Me.wav

Pre-gap length 0:00:02.00

Peak level 97.0 %
Track quality 99.9 %
Test CRC 584B8C1C
Copy CRC 584B8C1C
Track not present in AccurateRip database
Copy OK

Track 8

Filename C:\cuntfist\FLAC\George Michael - Greatest Hits '99 (1999) [FLAC] {Storm, Epic Russia}\08 - Fastlove.wav

Pre-gap length 0:00:02.00

Peak level 95.1 %
Track quality 100.0 %
Test CRC EE73CAE8
Copy CRC EE73CAE8
Track not present in AccurateRip database
Copy OK

Track 9

Filename C:\cuntfist\FLAC\George Michael - Greatest Hits '99 (1999) [FLAC] {Storm, Epic Russia}\09 - Too Funky.wav

Pre-gap length 0:00:02.00

Peak level 95.1 %
Track quality 100.0 %
Test CRC 89A49B55
Copy CRC 89A49B55
Track not present in AccurateRip database
Copy OK

Track 10

Filename C:\cuntfist\FLAC\George Michael - Greatest Hits '99 (1999) [FLAC] {Storm, Epic Russia}\10 - Father Figure.wav

Pre-gap length 0:00:02.00

Peak level 98.2 %
Track quality 99.9 %
Test CRC 310F4181
Copy CRC 310F4181
Track not present in AccurateRip database
Copy OK

Track 11

Filename C:\cuntfist\FLAC\George Michael - Greatest Hits '99 (1999) [FLAC] {Storm, Epic Russia}\11 - Star People '97.wav

Pre-gap length 0:00:02.00

Peak level 94.0 %
Track quality 100.0 %
Test CRC 8F6827AB
Copy CRC 8F6827AB
Track not present in AccurateRip database
Copy OK

Track 12

Filename C:\cuntfist\FLAC\George Michael - Greatest Hits '99 (1999) [FLAC] {Storm, Epic Russia}\12 - Kissing A Fool.wav

Pre-gap length 0:00:02.00

Peak level 100.0 %
Track quality 100.0 %
Test CRC C3590CA6
Copy CRC C3590CA6
Track not present in AccurateRip database
Copy OK

Track 13

Filename C:\cuntfist\FLAC\George Michael - Greatest Hits '99 (1999) [FLAC] {Storm, Epic Russia}\13 - Desafinado.wav

Pre-gap length 0:00:02.00

Peak level 93.3 %
Track quality 100.0 %
Test CRC 575ADC60
Copy CRC 575ADC60
Track not present in AccurateRip database
Copy OK

Track 14

Filename C:\cuntfist\FLAC\George Michael - Greatest Hits '99 (1999) [FLAC] {Storm, Epic Russia}\14 - Jesus To A Child.wav

Pre-gap length 0:00:02.00

Peak level 99.6 %
Track quality 100.0 %
Test CRC F69CEC16
Copy CRC F69CEC16
Track not present in AccurateRip database
Copy OK

Track 15

Filename C:\cuntfist\FLAC\George Michael - Greatest Hits '99 (1999) [FLAC] {Storm, Epic Russia}\15 - Praying For Time.wav

Pre-gap length 0:00:02.00

Peak level 97.0 %
Track quality 100.0 %
Test CRC 007C8F5F
Copy CRC 007C8F5F
Track not present in AccurateRip database
Copy OK


None of the tracks are present in the AccurateRip database

No errors occurred

End of status report


George Michael - Greatest Hits '99 (1999) {Storm/Epic Russia}


Thank you to the original uploader.