Subcategories
Tags
Language
Tags

G.S. Sachdev/Zakir Hussain - Flights Of Improvisation (1993) {Lyrichord}

Posted By: TestTickles
G.S. Sachdev/Zakir Hussain - Flights Of Improvisation (1993) {Lyrichord}

G.S. Sachdev/Zakir Hussain - Flights Of Improvisation (1993) {Lyrichord}
EAC Rip | FLAC with CUE and log | scans | 224 mb
MP3 CBR 320kbps | RAR | 140 mb
Genre: Indian classical

Flights Of Improvisation is a 1993 collaborative album between bansuri musician G.S. Sachdev and tabla player Zakir Hussain. This released on the Lyrichord label

1. Ahir Bhairov (24:55)
2. Shudha Sarang (6:11)
3. Abhogi (28:59)

G.S. Sachdev-bansuri
Zakir Hussain-tabla
Gay Kagy-tanpura

Recorded, mixed & mastered by Joe Hoffman

Exact Audio Copy V1.0 beta 3 from 29. August 2011

EAC extraction logfile from 13. March 2013, 8:18

G.S. Sachdev, Zakir Hussain / Flights Of Improvisation

Used drive : HL-DT-STDVD-ROM GDR8164B Adapter: 0 ID: 0

Read mode : Secure
Utilize accurate stream : Yes
Defeat audio cache : Yes
Make use of C2 pointers : No

Read offset correction : 102
Overread into Lead-In and Lead-Out : No
Fill up missing offset samples with silence : Yes
Delete leading and trailing silent blocks : No
Null samples used in CRC calculations : Yes
Used interface : Native Win32 interface for Win NT & 2000
Gap handling : Appended to previous track

Used output format : User Defined Encoder
Selected bitrate : 1024 kBit/s
Quality : High
Add ID3 tag : No
Command line compressor : D:\Programma´s\Hobby\EAC\Exact Audio Copy\Flac\flac.exe
Additional command line options : -8 -V -T "ARTIST=%artist%" -T "TITLE=%title%" -T "ALBUM=%albumtitle%" -T "DATE=%year%" -T "TRACKNUMBER=%tracknr%" -T "GENRE=%genre%" -T "PERFORMER=%albuminterpret%" -T "COMPOSER=%composer%" %haslyrics%–tag-from-file=LYRICS="%lyricsfile%"%haslyrics% -T "ALBUMARTIST=%albumartist%" -T "DISCNUMBER=%cdnumber%" -T "TOTALDISCS=%totalcds%" -T "TOTALTRACKS=%numtracks%" -T "COMMENT=%comment%" %source% -o %dest%

TOC of the extracted CD

Track | Start | Length | Start sector | End sector
––––––––––––––––––––––––––––-
1 | 0:00.33 | 25:00.00 | 33 | 112532
2 | 25:00.33 | 6:16.42 | 112533 | 140774
3 | 31:17.00 | 29:01.50 | 140775 | 271399

Track 1

Filename C:\cuntfist\FLAC\G.S. Sachdev, Zakir Hussain - Flights Of Improvisation (1993) [FLAC] {Lyrichord}\01 - Ahir Bhairov.wav

Pre-gap length 0:00:02.44

Peak level 99.4 %
Extraction speed 7.3 X
Track quality 99.9 %
Test CRC D6E92431
Copy CRC D6E92431
Track not present in AccurateRip database
Copy OK

Track 2

Filename C:\cuntfist\FLAC\G.S. Sachdev, Zakir Hussain - Flights Of Improvisation (1993) [FLAC] {Lyrichord}\02 - Shudha Sarang.wav

Pre-gap length 0:00:04.74

Peak level 99.8 %
Extraction speed 9.0 X
Track quality 100.0 %
Test CRC 0994346D
Copy CRC 0994346D
Track not present in AccurateRip database
Copy OK

Track 3

Filename C:\cuntfist\FLAC\G.S. Sachdev, Zakir Hussain - Flights Of Improvisation (1993) [FLAC] {Lyrichord}\03 - Abhogi.wav

Pre-gap length 0:00:04.56

Peak level 99.4 %
Extraction speed 10.0 X
Track quality 99.9 %
Test CRC 81A3FFA5
Copy CRC 81A3FFA5
Track not present in AccurateRip database
Copy OK

None of the tracks are present in the AccurateRip database

No errors occurred

End of status report

==== Log checksum A34511C2CB2937976A696A470994F25A537F498A8F8BF9D87DAE72ED412B64E6 ====


G.S. Sachdev/Zakir Hussain - Flights Of Improvisation (1993) {Lyrichord}


Thank you to the original uploader.