Subcategories

Green Day - Time Of Your Life (Good Riddance) (Australian CD5) (1997) **[RE-UP]**

Posted By: TestTickles
Green Day - Time Of Your Life (Good Riddance) (Australian CD5) (1997) **[RE-UP]**

Green Day - Time Of Your Life (Good Riddance) (Australian CD5) (1997)
EAC Rip | FLAC with CUE and log | scans | 87 mb
MP3 CBR 320kbps | RAR | 30 mb
Genre: punk rock, alternative

"Time Of Your Life (Good Riddance)" is a 1997 CD single by Green Day, released in Australia. It consists of the hit song plus three songs not on the album.

Green Day - Time Of Your Life (Good Riddance) (Australian CD5) (1997) **[RE-UP]**

1. Time Of Your Life (Good Riddance)
2. Rotting
3. Suffocate
4. You Lied

EAC extraction logfile from 27. December 2005, 8:08 for CD
Green Day / Time Of Your Life (Good Riddance) (Australian CD5)

Used drive : LITE-ON DVDRW SOHW-1633S Adapter: 0 ID: 0
Read mode : Secure with NO C2, accurate stream, disable cache
Read offset correction : 12
Overread into Lead-In and Lead-Out : No

Used output format : Internal WAV Routines
44.100 Hz; 16 Bit; Stereo

Other options :
Fill up missing offset samples with silence : Yes
Delete leading and trailing silent blocks : No
Installed external ASPI interface


Track 1
Filename D:\FLAC\Green Day - Time Of Your Life (Good Riddance) (Australian CD5) (1997) [FLAC]\01 - Time Of Your Life (Good Riddance).wav

Pre-gap length 0:00:02.00

Peak level 94.1 %
Track quality 100.0 %
Test CRC 5949C74A
Copy CRC 5949C74A
Copy OK

Track 2
Filename D:\FLAC\Green Day - Time Of Your Life (Good Riddance) (Australian CD5) (1997) [FLAC]\02 - Rotting.wav

Pre-gap length 0:00:02.53

Peak level 86.6 %
Track quality 100.0 %
Test CRC 3AF7F930
Copy CRC 3AF7F930
Copy OK

Track 3
Filename D:\FLAC\Green Day - Time Of Your Life (Good Riddance) (Australian CD5) (1997) [FLAC]\03 - Suffocate.wav

Pre-gap length 0:00:02.21

Peak level 90.5 %
Track quality 100.0 %
Test CRC 3DE5CA88
Copy CRC 3DE5CA88
Copy OK

Track 4
Filename D:\FLAC\Green Day - Time Of Your Life (Good Riddance) (Australian CD5) (1997) [FLAC]\04 - You Lied.wav

Pre-gap length 0:00:01.92

Peak level 90.5 %
Track quality 100.0 %
Test CRC 6A04444E
Copy CRC 6A04444E
Copy OK

No errors occured


End of status report


Green Day - Time Of Your Life (Good Riddance) (Australian CD5) (1997) **[RE-UP]**