Gamma Ray - Alive '95 (1996) [Japanese Anniversary Ed. 2017] 2CD

Posted By: Andi_Deris
Gamma Ray - Alive '95 (1996) [Japanese Anniversary Ed. 2017] 2CD

Gamma Ray - Alive '95 (1996) [Japanese Anniversary Ed. 2017] 2CD
EAC Rip | FLAC: Image+Cue+Log | 821 Mb | MP3 CBR 320 kbps | 267 Mb | Scans | 61 Mb
Ward Records Inc. | GQCS-90379~0
Heavy Metal, Power/Speed Metal

“Alive '95“ was the first live album by GammaRay. It was released on May 1996, following the live concerts in Milano, Paris, Madrid, Pamplona and Erlangen, during the band's "Men on a Tour" European tour. This 2CD premium-quality digipak includes such classics as “Man on a Mission” and “Rebellion in Dreamland” as well as two classic Helloween tracks composed by Kai Hansen himself. The 2017 anniversary re-release of Alive '95 contains a bonus CD including material recorded with Ralf Scheepers in 1993 who provides an impressive evidence of his insane vocal range on tracks like "Future Madhouse","Insanity and Genius" and "Heading for Tomorrow".

Gamma Ray - Alive '95 (1996) [Japanese Anniversary Ed. 2017] 2CD




Gamma Ray - Alive '95 (1996) [Japanese Anniversary Ed. 2017] 2CD


CD1
Recorded in Milano, Paris, Madrid, Pamplona and Erlangen.
01:10:56

01. Land Of The Free (05:29)
02. Man On A Mission (05:54)
03. Rebellion In Dreamland (08:23)
04. Space Eater (04:44)
05. Fairytale (00:46)
06. Tribute To The Past (04:47)
07. Heal Me (07:28)
08. The Saviour (01:31)
09. Abyss Of The Void (05:53)
10. Ride The Sky (Helloween cover) (05:47)
11. Future World (Helloween cover) (07:29)
12. Heavy Metal Mania (Holocaust cover) (06:27)
13. Lust For Life (06:18)

Gamma Ray - Alive '95 (1996) [Japanese Anniversary Ed. 2017] 2CD


Bonus CD
Recorded live in 1993 with Ralf Scheepers on vocals. Originally released as part of the US version - for the first time available in the rest of the world.
30:16

01. No Return (04:02)
02. Changes (05:24)
03. Insanity & Genius (04:10)
04. Last Before The Storm (04:12)
05. Future Madhouse (04:10)
06. Heading For Tommorow (08:19)

Produced by Kai Hansen and Dirk Schlächter
Remastered by Eike Freese

The Band

• Kai Hansen - lead vocals on CD1 & guitar
Ralf Scheepers - lead vocals on CD2
• Dirk Schlächter - guitar, keyboards
• Jan Rubach - bass
• Thomas Nack - drums

Exact Audio Copy V1.3 from 2. September 2016

EAC extraction logfile from 5. October 2017, 15:29

Gamma Ray / Alive '95 (2017 - CD1)

Used drive : MATSHITADVD-RAM UJ8G6 Adapter: 1 ID: 0

Read mode : Secure
Utilize accurate stream : Yes
Defeat audio cache : Yes
Make use of C2 pointers : No

Read offset correction : 103
Overread into Lead-In and Lead-Out : No
Fill up missing offset samples with silence : Yes
Delete leading and trailing silent blocks : No
Null samples used in CRC calculations : Yes
Used interface : Native Win32 interface for Win NT & 2000

Used output format : User Defined Encoder
Selected bitrate : 1024 kBit/s
Quality : High
Add ID3 tag : No
Command line compressor : C:\Program Files (x86)\Exact Audio Copy\FLAC\FLAC.EXE
Additional command line options : -V -8 -T "Date=%year%" -T"Genre=%genre%" -T"COMMENT=Ripped by Ilijan - ilko" -8 -V %source%


TOC of the extracted CD

Track | Start | Length | Start sector | End sector
––––––––––––––––––––––––––––-
1 | 0:00.00 | 5:28.32 | 0 | 24631
2 | 5:28.32 | 5:53.43 | 24632 | 51149
3 | 11:22.00 | 8:23.20 | 51150 | 88894
4 | 19:45.20 | 4:44.27 | 88895 | 110221
5 | 24:29.47 | 0:46.23 | 110222 | 113694
6 | 25:15.70 | 4:46.55 | 113695 | 135199
7 | 30:02.50 | 7:27.42 | 135200 | 168766
8 | 37:30.17 | 1:31.13 | 168767 | 175604
9 | 39:01.30 | 5:53.10 | 175605 | 202089
10 | 44:54.40 | 5:46.37 | 202090 | 228076
11 | 50:41.02 | 7:29.00 | 228077 | 261751
12 | 58:10.02 | 6:26.63 | 261752 | 290764
13 | 64:36.65 | 6:17.50 | 290765 | 319089


Range status and errors

Selected range

Filename D:\ilko\Gamma Ray - Alive '95 (2017 - CD1).wav

Peak level 99.7 %
Extraction speed 4.5 X
Range quality 100.0 %
Test CRC F440D269
Copy CRC F440D269
Copy OK

No errors occurred


AccurateRip summary

Track 1 not present in database
Track 2 not present in database
Track 3 not present in database
Track 4 not present in database
Track 5 not present in database
Track 6 not present in database
Track 7 not present in database
Track 8 not present in database
Track 9 not present in database
Track 10 not present in database
Track 11 not present in database
Track 12 not present in database
Track 13 not present in database

None of the tracks are present in the AccurateRip database

End of status report

–– CUETools DB Plugin V2.1.6

[CTDB TOCID: Y2TSvdmHKRCxKI3yBvPzXv3qk_E-] found
Submit result: Y2TSvdmHKRCxKI3yBvPzXv3qk_E- has been confirmed
Track | CTDB Status
1 | (2/2) Accurately ripped
2 | (2/2) Accurately ripped
3 | (2/2) Accurately ripped
4 | (2/2) Accurately ripped
5 | (2/2) Accurately ripped
6 | (2/2) Accurately ripped
7 | (2/2) Accurately ripped
8 | (2/2) Accurately ripped
9 | (2/2) Accurately ripped
10 | (2/2) Accurately ripped
11 | (2/2) Accurately ripped
12 | (2/2) Accurately ripped
13 | (2/2) Accurately ripped


==== Log checksum B9D750B61AE9DAB48D5C864D2AE78BC2E0272EB6BBADB28DAB8D10B1AC775491 ====

Exact Audio Copy V1.3 from 2. September 2016

EAC extraction logfile from 5. October 2017, 14:53

Gamma Ray / Alive '95 (2017 - CD2)

Used drive : MATSHITADVD-RAM UJ8G6 Adapter: 1 ID: 0

Read mode : Secure
Utilize accurate stream : Yes
Defeat audio cache : Yes
Make use of C2 pointers : No

Read offset correction : 103
Overread into Lead-In and Lead-Out : No
Fill up missing offset samples with silence : Yes
Delete leading and trailing silent blocks : No
Null samples used in CRC calculations : Yes
Used interface : Native Win32 interface for Win NT & 2000

Used output format : User Defined Encoder
Selected bitrate : 1024 kBit/s
Quality : High
Add ID3 tag : No
Command line compressor : C:\Program Files (x86)\Exact Audio Copy\FLAC\FLAC.EXE
Additional command line options : -V -8 -T "Date=%year%" -T"Genre=%genre%" -T"COMMENT=Ripped by Ilijan - ilko" -8 -V %source%


TOC of the extracted CD

Track | Start | Length | Start sector | End sector
––––––––––––––––––––––––––––-
1 | 0:00.00 | 4:01.65 | 0 | 18139
2 | 4:01.65 | 5:23.37 | 18140 | 42401
3 | 9:25.27 | 4:09.60 | 42402 | 61136
4 | 13:35.12 | 4:11.70 | 61137 | 80031
5 | 17:47.07 | 4:09.37 | 80032 | 98743
6 | 21:56.44 | 8:19.10 | 98744 | 136178


Range status and errors

Selected range

Filename D:\ilko\Gamma Ray - Alive '95 (2017 - CD2).wav

Peak level 99.7 %
Extraction speed 3.5 X
Range quality 99.9 %
Test CRC BC125BC6
Copy CRC BC125BC6
Copy OK

No errors occurred


AccurateRip summary

Track 1 not present in database
Track 2 not present in database
Track 3 not present in database
Track 4 not present in database
Track 5 not present in database
Track 6 not present in database

None of the tracks are present in the AccurateRip database

End of status report

–– CUETools DB Plugin V2.1.6

[CTDB TOCID: 81fXcouygc3Cc4pBt_0GMZxEhE0-] found
Submit result: 81fXcouygc3Cc4pBt_0GMZxEhE0- has been confirmed
Track | CTDB Status
1 | (1/1) Accurately ripped
2 | (1/1) Accurately ripped
3 | (1/1) Accurately ripped
4 | (1/1) Accurately ripped
5 | (1/1) Accurately ripped
6 | (1/1) Accurately ripped


==== Log checksum 852DE17F902F96141A73A2E0793FC78893C826D560695C34549B322FBD347B08 ====


Many thanks to the original uploader: ilijan


Andi Deris 1999 Done By Mirrors [Japanese Ed.]

Bloodbound 2005 Nosferatu [Japanese Ed.]
Bloodbound 2007 Book Of The Dead [Japanese Ed.]
Bloodbound 2009 Tabula Rasa [Japanese Ed.]
Bloodbound 2011 Unholy Cross
Bloodbound 2012 In The Name Of Metal [Japanese Ed.]
Bloodbound 2014 Stormborn [Japanese Ed.]

Dark Empire 2012 From Refuge To Ruin

Gamma Ray 1990 Heading For Tomorrow [Anniversary Ed. 2015] 2CD
Gamma Ray 1995 Land Of The Free [Japanese Anniversary Ed. 2017] 2CD
Gamma Ray 2012 Skeletons & Majesties Live [2CD+2DVD]
Gamma Ray 2014 Empire Of The Undead [Japanese Ed.]

Helloween 2007 Keeper Of The Seven Keys - The Legacy World Tour 2005-2006 [2xDVD]

Hansen & Friends 2016 XXX - Three Decades In Metal [Japanese Ltd. Ed.] 2CD
Hansen & Friends 2017 Thank You Wacken [Japanese Ltd. Ed.] DVD+CD

Iron Savior 2014 Rise Of The Hero [Japanese Ed.]
Iron Savior 2015 Live At The Final Frontier [DVD/2CD Digipak]
Iron Savior 2016 Titancraft [Japanese Ed.]
Iron Savior 2017 Reforged - Riding On Fire [Japanese Ed.] 2CD

Kiske / Somerville 2015 City Of Heroes [Deluxe Ed. CD/DVD]

Michael Kiske 1996 Instant Clarity [Japanese Ed.]
Michael Kiske 1996 Instant Clarity [Irond, 2006]
Michael Kiske 1999 R.T.S. (Readiness To Sacrifice) [Japanese Ed.]
Michael Kiske 2006 Kiske [Irond]

Place Vendome 2013 Thunder In The Distance [Japanese Ed.]
Place Vendome 2017 Close To The Sun [Japanese Ed.]

Sebastien 2010 Tears Of White Roses
Sebastien 2015 Dark Chambers Of Deja Vu

Stratovarius 2015 Eternal [Japan SHM-CD]

Timo Tolkki's Avalon 2013 The Land Of New Hope [Deluxe Ed. CD/DVD]

Unisonic 2014 Light Of Dawn [Japanese Ed.]
Unisonic 2017 Live In Wacken [Japanese Ed.] DVD

Wolfpakk 2011 Wolfpakk
Wolfpakk 2013 Cry Wolf
Wolfpakk 2015 Rise Of The Animal
Wolfpakk 2017 Wolves Reign




Password: pass