Subcategories
Tags
Language
Tags

Gandalf - Samsara (1999) [Reissue 2006]

Posted By: gribovar
Gandalf - Samsara (1999) [Reissue 2006]

Gandalf - Samsara (1999) [Reissue 2006]
EAC Rip | FLAC (image+.cue+log) - 337 MB | MP3 CBR 320 kbps (LAME 3.93) - 124 MB | Covers - 18 MB
Genre: New Age | RAR 3% Rec. | Label: Prudence (398.6722.2)

Hein Strobl is an Austrian new age multi-instrumentalist (proficient at piano, percussion, guitar, and synthesizer), and has issued countless albums on a steady basis since 1980 under the alias of Gandalf. Taking his name from the good-hearted wizard in J.R.R. Tolkien's trilogy Lord of the Rings, Gandalf's work often reflects his love of nature, as well as his commitment to preserving the environment (while his music has been compared to such other artists as William Ackerman, Rick Wakeman, Shadowfax, Enya, and Mike Oldfield over the years). His first few albums - 1980's Journey to an Imaginary Land, 1982's To Another Horizon, and 1983's Magic Theatre - contained a definite prog rock edge, before adding such instruments as flutes and saxophones to the equation and heading in a more new age-ish direction. Over the years, Strobl has recruited several renowned musicians to guest on Gandalf's recordings (including Tracy Hitchings, Steve Hackett, Emily Burridge, and Peter Ashenbrenner), and in 1989, composed the soundtrack to the motion picture Labyrinth.
Tracklist:
01. Samsara
02. Planet Of Love
03. I Am Here
04. Samsara (Theme 1)
05. Visions Of Night (Instrumental)
06. Eternal Love
07. Mystery Of Love
08. Samsara (Theme 2)
09. Like A Pearl In A Shell (Instrumental)
10. Water Of Love
11. Samsara (Theme 3)
12. Going Home

Total time: 52:40

Exact Audio Copy V1.3 from 2. September 2016

Отчёт EAC об извлечении, выполненном 27. мая 2021, 13:45

Gandalf / Samsara

Дисковод: ASUS DRW-24D5MT Adapter: 1 ID: 0

Режим чтения : Достоверность
Использование точного потока : Да
Отключение кэша аудио : Да
Использование указателей C2 : Нет

Коррекция смещения при чтении : 6
Способность читать области Lead-in и Lead-out : Нет
Заполнение пропущенных сэмплов тишиной : Да
Удаление блоков с тишиной в начале и конце : Нет
При вычислениях CRC использовались нулевые сэмплы : Да
Интерфейс : Встроенный Win32-интерфейс для Win NT/2000

Выходной формат : Пользовательский кодировщик
Выбранный битрейт : 128 kBit/s
Качество : Высокий
Добавление ID3-тега : Нет
Утилита сжатия : C:\Program Files (x86)\Exact Audio Copy\FLAC\FLAC.EXE
Дополнительные параметры : -V -8 -T "Date=%year%" -T "Genre=%genre%" %source%


TOC извлечённого CD

Трек | Старт | Длительность | Начальный сектор | Конечный сектор
––––––––––––––––––––––––––––––––––-
1 | 0:00.00 | 5:17.28 | 0 | 23802
2 | 5:17.28 | 4:28.07 | 23803 | 43909
3 | 9:45.35 | 4:06.00 | 43910 | 62359
4 | 13:51.35 | 1:16.35 | 62360 | 68094
5 | 15:07.70 | 6:28.11 | 68095 | 97205
6 | 21:36.06 | 5:58.28 | 97206 | 124083
7 | 27:34.34 | 4:14.15 | 124084 | 143148
8 | 31:48.49 | 1:39.35 | 143149 | 150608
9 | 33:28.09 | 5:30.51 | 150609 | 175409
10 | 38:58.60 | 3:47.42 | 175410 | 192476
11 | 42:46.27 | 1:10.45 | 192477 | 197771
12 | 43:56.72 | 8:43.17 | 197772 | 237013


Характеристики диапазона извлечения и сообщения об ошибках

Выбранный диапазон

Имя файла C:\EAC\Gandalf - Samsara - 2006 (reissue, 1999) CD\Gandalf - Samsara.wav

Пиковый уровень 100.0 %
Скорость извлечения 7.5 X
Качество диапазона 100.0 %
CRC теста 0995E06D
CRC копии 0995E06D
Копирование… OK

Ошибок не произошло


AccurateRip: сводка

Трек 1 : извлечено точно (доверие 2) [04640A72] (AR v2)
Трек 2 : извлечено точно (доверие 2) [9AEDB55D] (AR v2)
Трек 3 : извлечено точно (доверие 2) [579A2AF3] (AR v2)
Трек 4 : извлечено точно (доверие 2) [6D8E2B6F] (AR v2)
Трек 5 : извлечено точно (доверие 2) [F8A85B28] (AR v2)
Трек 6 : извлечено точно (доверие 2) [4B366FB0] (AR v2)
Трек 7 : извлечено точно (доверие 2) [3275972A] (AR v2)
Трек 8 : извлечено точно (доверие 2) [1FEC606A] (AR v2)
Трек 9 : извлечено точно (доверие 2) [C4D0FDFB] (AR v2)
Трек 10 : извлечено точно (доверие 2) [323F0837] (AR v2)
Трек 11 : извлечено точно (доверие 2) [2D51CC83] (AR v2)
Трек 12 : извлечено точно (доверие 2) [CF594EAF] (AR v2)

Все треки извлечены точно

Конец отчёта

==== Контрольная сумма отчёта 9B59F234B1C4E4913F513A2FF5C53AB43DEA0772695F1DFC0F9E43D183DE0BEA ====

[CUETools log; Date: 28.05.2021 17:03:03; Version: 2.1.4]
[CTDB TOCID: 9ef4ogKKeHOCa6hsb1u4iCm3ka4-] found.
Track | CTDB Status
1 | (8/8) Accurately ripped
2 | (8/8) Accurately ripped
3 | (8/8) Accurately ripped
4 | (8/8) Accurately ripped
5 | (8/8) Accurately ripped
6 | (8/8) Accurately ripped
7 | (8/8) Accurately ripped
8 | (8/8) Accurately ripped
9 | (8/8) Accurately ripped
10 | (8/8) Accurately ripped
11 | (8/8) Accurately ripped
12 | (8/8) Accurately ripped
[AccurateRip ID: 00172171-00d65936-a80c580c] found.
Track [ CRC | V2 ] Status
01 [427bf6ac|04640a72] (2+2/4) Accurately ripped
02 [bfa8028a|9aedb55d] (2+2/4) Accurately ripped
03 [bc648ed2|579a2af3] (2+2/4) Accurately ripped
04 [c3b0b216|6d8e2b6f] (2+2/4) Accurately ripped
05 [e3c8c3b1|f8a85b28] (2+2/4) Accurately ripped
06 [46555bc9|4b366fb0] (2+2/4) Accurately ripped
07 [c0fc4541|3275972a] (2+2/4) Accurately ripped
08 [70befd9c|1fec606a] (2+2/4) Accurately ripped
09 [dce8acef|c4d0fdfb] (2+2/4) Accurately ripped
10 [f9e8c1c2|323f0837] (2+2/4) Accurately ripped
11 [2d3231e1|2d51cc83] (2+2/4) Accurately ripped
12 [896a733b|cf594eaf] (2+2/4) Accurately ripped

Track Peak [ CRC32 ] [W/O NULL] [ LOG ]
– 100,0 [0995E06D] [7A9DF0B4] CRC32
01 99,9 [1D1341EE] [C30C4772]
02 99,9 [CFF82E81] [598C5C64]
03 99,9 [1681F78D] [295BCBB2]
04 48,5 [9EDC3857] [34DECA88]
05 97,7 [8F3AC97E] [580170AF]
06 99,9 [C17D1713] [72706366]
07 94,4 [D0D5BB5D] [736B5E72]
08 56,3 [E86AE412] [EAF3E183]
09 97,7 [CC9BEA88] [03A2E4EC]
10 99,9 [FF76A174] [4E78B204]
11 49,7 [3EE49A18] [95F7CE53]
12 100,0 [CED7D83D] [AE6D4DAE]

Thanks to s-p-m2009