Tags
Language
Tags

Genesis Archive, Vol. 1: 1967-1975 (1998)

Posted By: v3122
Genesis Archive, Vol. 1: 1967-1975 (1998)

Genesis Archive, Vol. 1: 1967-1975 (1998)
EAC | Flac(Image) + Cue + Log & MP3 CBR 320Kbps
4CD | Virgin Records, CDBOX6 | ~ 1453 or 604 Mb | Scans(png) -> 62 Mb
Progressive Rock

Prog rock audiences have always been receptive to box sets, especially sets that include an abundance of rare material – witness the success of the numerous King Crimson sets. When it came time to assemble their own box sets, Genesis chose to follow the path of rarities instead of merely rehashing their old hits. That means, of course, that Genesis Archives, Vol. 1: 1967-1975 is the province of hardcore fans and collectors, not casual listeners, since there is nothing but unreleased material on the four-disc set. The first two discs are devoted to a live performance of The Lamb Lies Down on Broadway at the Shrine Auditorium in Los Angeles on January 24, 1975; the third has a selection of live material from the London Rainbow Theatre on October 20, 1973, plus a handful of rare singles and a BBC session; the fourth has alternate mixes, BBC sessions, and demos from 1967-1969. It's a virtual cornucopia of rare material, much of which will be necessary to dedicated fans. However, for some listeners, the set may be frustrating, and not because it contains rarities – it's because those rarities have been tampered with. Peter Gabriel recut some of his vocals for The Lamb in 1998, claiming that he didn't give his best possible performance because his elaborate costumes were constricting. Steve Hackett followed suit and "brushed up" some guitar lines. This may frustrate some fans who would prefer to have the original tapes preserved, but it may be a minor thing to collectors, who will likely delight in having all these rare recordings – many of which are quite terrific – in one place.

by Stephen Thomas Erlewine, allmusic
Genesis Archive, Vol. 1: 1967-1975 (1998):

Genesis Archive, Vol. 1: 1967-1975 (1998)

Tracklist CD1:

01. The Lamb Lies Down On Broadway [06:31]
02. Fly On A Windshield [04:36]
03. Broadway Melody Of 1974 [00:34]
04. Cuckoo Cocoon [02:16]
05. In The Cage [07:57]
06. The Grand Parade Of Lifeless Packaging [04:25]
07. Back In N.Y.C. [06:10]
08. Hairless Heart [02:30]
09. Counting Out Time [03:57]
10. Carpet Crawlers [05:46]
11. The Chamber Of 32 Doors [05:52]

Exact Audio Copy V0.99 prebeta 5 from 4. May 2009

EAC extraction logfile from 11. August 2012, 21:20

Genesis / Archive 1967-75 (Disc 1)

Used drive : ASUS DRW-24B3ST Adapter: 3 ID: 0

Read mode : Secure
Utilize accurate stream : Yes
Defeat audio cache : Yes
Make use of C2 pointers : No

Read offset correction : 6
Overread into Lead-In and Lead-Out : No
Fill up missing offset samples with silence : Yes
Delete leading and trailing silent blocks : No
Null samples used in CRC calculations : Yes
Used interface : Native Win32 interface for Win NT & 2000

Used output format : User Defined Encoder
Selected bitrate : 1024 kBit/s
Quality : High
Add ID3 tag : No
Command line compressor : C:\Program Files (x86)\EAC\WV\wavpack.exe
Additional command line options : -h -hh -m %s %d


TOC of the extracted CD

Track | Start | Length | Start sector | End sector
––––––––––––––––––––––––––––-
1 | 0:00.00 | 6:31.25 | 0 | 29349
2 | 6:31.25 | 4:36.47 | 29350 | 50096
3 | 11:07.72 | 0:34.15 | 50097 | 52661
4 | 11:42.12 | 2:16.20 | 52662 | 62881
5 | 13:58.32 | 7:57.03 | 62882 | 98659
6 | 21:55.35 | 4:25.27 | 98660 | 118561
7 | 26:20.62 | 6:10.28 | 118562 | 146339
8 | 32:31.15 | 2:30.27 | 146340 | 157616
9 | 35:01.42 | 3:57.23 | 157617 | 175414
10 | 38:58.65 | 5:46.57 | 175415 | 201421
11 | 44:45.47 | 5:52.28 | 201422 | 227849


Range status and errors

Selected range

Filename G:\GENESIS\1998- Archive #1- 1967-1975 (4CD UK 1998 Virgin Records • 7243 8 42221 2 3)\Genesis - Archive (Disc 1).wav

Peak level 99.8 %
Range quality 99.9 %
Test CRC F1C8BE9E
Copy CRC F1C8BE9E
Copy OK

No errors occurred


AccurateRip summary

Track 1 accurately ripped (confidence 90) [D4DA9E61]
Track 2 accurately ripped (confidence 89) [C10552E8]
Track 3 accurately ripped (confidence 90) [5DC81297]
Track 4 accurately ripped (confidence 89) [E07DB2ED]
Track 5 accurately ripped (confidence 86) [C7452590]
Track 6 cannot be verified as accurate (confidence 88) [E9C066D4], AccurateRip returned [317551AD]
Track 7 cannot be verified as accurate (confidence 90) [03786E00], AccurateRip returned [D839219A]
Track 8 cannot be verified as accurate (confidence 91) [1433C5FE], AccurateRip returned [4A6CEFD5]
Track 9 accurately ripped (confidence 90) [93564C58]
Track 10 cannot be verified as accurate (confidence 89) [24A2489A], AccurateRip returned [D1FAAD57]
Track 11 accurately ripped (confidence 90) [A1E8E543]

7 track(s) accurately ripped
4 track(s) could not be verified as accurate

Some tracks could not be verified as accurate

End of status report


[CUETools log; Date: 27.01.2018 0:27:39; Version: 2.1.5]
[AccurateRip ID: 00142799-00aeb379-910bde0b] found.
Track [ CRC | V2 ] Status
01 [d4da9e61|981211e3] (094+113/207) Accurately ripped
02 [c10552e8|8bfa143a] (093+112/205) Accurately ripped
03 [5dc81297|98bc9eea] (094+112/208) Accurately ripped
04 [e07db2ed|a103552a] (093+112/207) Accurately ripped
05 [c7452590|3228e278] (090+111/201) Accurately ripped
06 [e9c066d4|0a3299b2] (000+000/203) No match
07 [03786e00|6d7a8eac] (000+000/204) No match
08 [1433c5fe|79c1b606] (000+000/208) No match
09 [93564c58|384a43fa] (094+112/206) Accurately ripped
10 [24a2489a|6271160b] (000+000/202) No match
11 [a1e8e543|1526d3a3] (094+108/204) Accurately ripped
Offsetted by -661:
01 [116aaf2f] (000/207) No match (V2 was not tested)
02 [5d080238] (000/205) No match (V2 was not tested)
03 [d1f71666] (000/208) No match (V2 was not tested)
04 [4e6ff44d] (000/207) No match (V2 was not tested)
05 [9d848cac] (000/201) No match (V2 was not tested)
06 [3a0d2399] (000/203) No match
07 [11e968c2] (000/204) No match (V2 was not tested)
08 [6f636074] (000/208) No match (V2 was not tested)
09 [dab9ab88] (000/206) No match (V2 was not tested)
10 [7324f216] (000/202) No match (V2 was not tested)
11 [f3baf356] (000/204) No match (V2 was not tested)
Offsetted by 6:
01 [15a9fc8d] (000/207) No match (V2 was not tested)
02 [c741211c] (000/205) No match (V2 was not tested)
03 [6d75669c] (000/208) No match (V2 was not tested)
04 [2b57c155] (000/207) No match (V2 was not tested)
05 [6ce029e8] (000/201) No match (V2 was not tested)
06 [377b0c0d] (000/203) No match (V2 was not tested)
07 [b0ba6f24] (000/204) No match (V2 was not tested)
08 [daba8f59] (000/208) No match (V2 was not tested)
09 [29890e89] (000/206) No match (V2 was not tested)
10 [0e236b1c] (000/202) No match (V2 was not tested)
11 [699d2aa9] (000/204) No match (V2 was not tested)

Track Peak [ CRC32 ] [W/O NULL] [ LOG ]
– 99,8 [F1C8BE9E] [19FE3C38] CRC32
01 99,1 [4DDFA61A] [846CFF17]
02 94,8 [E3169A38] [A27D00F8]
03 28,8 [AA4C6B40] [4E1D67D5]
04 54,3 [5F96A429] [366127C5]
05 98,4 [4D1D5C6D] [91BE663D]
06 98,7 [F827880D] [94BEAFE3]
07 99,8 [FF9EB8DC] [E0448233]
08 99,1 [4C8B03A4] [00E58E61]
09 99,8 [105EE2FA] [7386B76A]
10 99,3 [9661659D] [2AC39913]
11 97,7 [0E042CF8] [CF7D761C]


Genesis Archive, Vol. 1: 1967-1975 (1998)

Tracklist CD2:

01. Lillywhite Lilith [03:04]
02. The Waiting Room [06:14]
03. Anyway [03:28]
04. Here Comes The Supernatural Anaesthetist [03:57]
05. The Lamia [07:18]
06. Silent Sorrow In Empty Boats [03:08]
07. The Colony Of Slippermen [08:47]
08. Ravine [01:36]
09. The Light Dies Down On Broadway [03:37]
10. Riding The Scree [04:29]
11. In The Rapids [02:25]
12. It [04:20]

Exact Audio Copy V0.99 prebeta 5 from 4. May 2009

EAC extraction logfile from 11. August 2012, 22:04

Genesis / Archive 1967-75 (Disc 2)

Used drive : ASUS DRW-24B3ST Adapter: 3 ID: 0

Read mode : Secure
Utilize accurate stream : Yes
Defeat audio cache : Yes
Make use of C2 pointers : No

Read offset correction : 6
Overread into Lead-In and Lead-Out : No
Fill up missing offset samples with silence : Yes
Delete leading and trailing silent blocks : No
Null samples used in CRC calculations : Yes
Used interface : Native Win32 interface for Win NT & 2000

Used output format : User Defined Encoder
Selected bitrate : 1024 kBit/s
Quality : High
Add ID3 tag : No
Command line compressor : C:\Program Files (x86)\EAC\WV\wavpack.exe
Additional command line options : -h -hh -m %s %d


TOC of the extracted CD

Track | Start | Length | Start sector | End sector
––––––––––––––––––––––––––––-
1 | 0:00.00 | 3:04.15 | 0 | 13814
2 | 3:04.15 | 6:14.50 | 13815 | 41914
3 | 9:18.65 | 3:28.42 | 41915 | 57556
4 | 12:47.32 | 3:57.03 | 57557 | 75334
5 | 16:44.35 | 7:18.60 | 75335 | 108244
6 | 24:03.20 | 3:08.52 | 108245 | 122396
7 | 27:11.72 | 8:47.58 | 122397 | 161979
8 | 35:59.55 | 1:36.47 | 161980 | 169226
9 | 37:36.27 | 3:37.18 | 169227 | 185519
10 | 41:13.45 | 4:29.55 | 185520 | 205749
11 | 45:43.25 | 2:25.07 | 205750 | 216631
12 | 48:08.32 | 4:20.43 | 216632 | 236174


Range status and errors

Selected range

Filename G:\GENESIS\1998- Archive #1- 1967-1975 (4CD UK 1998 Virgin Records • 7243 8 42221 2 3)\Genesis - Archive (Disc 2).wav

Peak level 100.0 %
Range quality 100.0 %
Test CRC 238A6CFC
Copy CRC 238A6CFC
Copy OK

No errors occurred


AccurateRip summary

Track 1 accurately ripped (confidence 92) [49ECA4FF]
Track 2 accurately ripped (confidence 94) [D7AAE73D]
Track 3 accurately ripped (confidence 94) [BAD4908F]
Track 4 accurately ripped (confidence 94) [31AC21C1]
Track 5 accurately ripped (confidence 93) [BF0FFA39]
Track 6 cannot be verified as accurate (confidence 92) [D0116A50], AccurateRip returned [2164A351]
Track 7 accurately ripped (confidence 90) [509F2FCC]
Track 8 accurately ripped (confidence 92) [6C293143]
Track 9 accurately ripped (confidence 91) [9FFCBA9D]
Track 10 accurately ripped (confidence 92) [8357A586]
Track 11 accurately ripped (confidence 92) [DA64DAE9]
Track 12 cannot be verified as accurate (confidence 85) [6479D8BD], AccurateRip returned [DE33F1DC]

10 track(s) accurately ripped
2 track(s) could not be verified as accurate

Some tracks could not be verified as accurate

End of status report


[CUETools log; Date: 27.01.2018 0:30:21; Version: 2.1.5]
[AccurateRip ID: 001854b4-00e2f478-a60c4d0c] found.
Track [ CRC | V2 ] Status
01 [49eca4ff|f5308c43] (096+118/214) Accurately ripped
02 [d7aae73d|b8bf7a86] (098+116/216) Accurately ripped
03 [bad4908f|b23fbc64] (098+115/215) Accurately ripped
04 [31ac21c1|59080a8e] (098+118/216) Accurately ripped
05 [bf0ffa39|63fc2955] (097+118/215) Accurately ripped
06 [d0116a50|aa370320] (000+000/213) No match
07 [509f2fcc|9bccd6ce] (094+116/210) Accurately ripped
08 [6c293143|d4d1e017] (096+118/214) Accurately ripped
09 [9ffcba9d|1a8fedc0] (095+117/214) Accurately ripped
10 [8357a586|af3eced8] (096+117/215) Accurately ripped
11 [da64dae9|887fabae] (096+118/216) Accurately ripped
12 [6479d8bd|85e5c600] (000+000/205) No match
Offsetted by -661:
01 [03ca7e90] (000/214) No match (V2 was not tested)
02 [15884c12] (000/216) No match (V2 was not tested)
03 [cd3d7348] (000/215) No match (V2 was not tested)
04 [7e17c29d] (000/216) No match (V2 was not tested)
05 [55098edf] (000/215) No match (V2 was not tested)
06 [44f2667e] (000/213) No match (V2 was not tested)
07 [73a1dbf8] (000/210) No match (V2 was not tested)
08 [063c27f5] (000/214) No match (V2 was not tested)
09 [89d04aa0] (000/214) No match (V2 was not tested)
10 [8608dd29] (000/215) No match (V2 was not tested)
11 [d7a3bf80] (000/216) No match (V2 was not tested)
12 [0788a4bb] (000/205) No match (V2 was not tested)
Offsetted by -24:
01 [823719cb] (000/214) No match
02 [c05396b4] (000/216) No match
03 [101a94da] (000/215) No match
04 [eb8783ae] (000/216) No match
05 [20e6b7b5] (000/215) No match
06 [a9447c03] (000/213) No match
07 [af0f4454] (000/210) No match
08 [d60335eb] (000/214) No match
09 [5e113bb5] (000/214) No match
10 [e1c9fc14] (000/215) No match (V2 was not tested)
11 [5c7245a6] (000/216) No match (V2 was not tested)
12 [c7a6bedc] (000/205) No match (V2 was not tested)
Offsetted by 6:
01 [1b42a5c8] (000/214) No match (V2 was not tested)
02 [55b921b2] (000/216) No match (V2 was not tested)
03 [bce66e25] (000/215) No match (V2 was not tested)
04 [ee14d48a] (000/216) No match (V2 was not tested)
05 [24a10a1b] (000/215) No match (V2 was not tested)
06 [0b1e4ef7] (000/213) No match (V2 was not tested)
07 [ab47cd59] (000/210) No match (V2 was not tested)
08 [b7154fc2] (000/214) No match (V2 was not tested)
09 [1f0332c9] (000/214) No match (V2 was not tested)
10 [96c3bf3f] (000/215) No match (V2 was not tested)
11 [1c8cf805] (000/216) No match (V2 was not tested)
12 [2966ce92] (000/205) No match (V2 was not tested)

Track Peak [ CRC32 ] [W/O NULL] [ LOG ]
– 100,0 [238A6CFC] [EEF13D86] CRC32
01 98,5 [2DC8235A] [54983AA8]
02 98,5 [8E5C7F1D] [9D57273F]
03 98,7 [F5749A78] [3D04F63B]
04 98,7 [72453EEC] [446566CE]
05 98,7 [BC50F8D2] [A707802F]
06 43,9 [E6A06DAB] [AB2B6CA1]
07 99,1 [EFA66ACF] [CF33E88B]
08 40,6 [75CCFD8B] [191CAFAA]
09 97,5 [C1A551CE] [ADF5E738]
10 100,0 [A0445D57] [F186CE30]
11 98,4 [C0FC9837] [2567AD94]
12 98,8 [F1F8A2B8] [DC1AF201]


Genesis Archive, Vol. 1: 1967-1975 (1998)

Tracklist CD3:

01. Dancing With The Moonlit Knight [Live recording at Rainbow 1973] [07:05]
02. Firth Of Fifth [Live recording at Rainbow 1973] [08:28]
03. More Fool Me [Live recording at Rainbow 1973] [03:59]
04. Suppers Ready [Live recording at Rainbow 1973] [26:33]
05. I Know What I Like [Live recording at Rainbow 1973] [05:35]
06. Stagnation [BBC live recording 1971] [08:51]
07. Twilight Alehouse [Single B-side 1973] [07:45]
08. Happy The Man [Single A-side 1972] [02:53]
09. Watcher Of The Skies [Remix of 1972 Single] [03:42]

Exact Audio Copy V0.99 prebeta 5 from 4. May 2009

EAC extraction logfile from 11. August 2012, 21:26

Genesis / Archive 1967-75 (Disc 3)

Used drive : ASUS DRW-24B3ST Adapter: 2 ID: 0

Read mode : Secure
Utilize accurate stream : Yes
Defeat audio cache : Yes
Make use of C2 pointers : No

Read offset correction : 6
Overread into Lead-In and Lead-Out : No
Fill up missing offset samples with silence : Yes
Delete leading and trailing silent blocks : No
Null samples used in CRC calculations : Yes
Used interface : Native Win32 interface for Win NT & 2000

Used output format : User Defined Encoder
Selected bitrate : 1024 kBit/s
Quality : High
Add ID3 tag : No
Command line compressor : C:\Program Files (x86)\EAC\WV\wavpack.exe
Additional command line options : -h -hh -m %s %d


TOC of the extracted CD

Track | Start | Length | Start sector | End sector
––––––––––––––––––––––––––––-
1 | 0:00.00 | 7:05.02 | 0 | 31876
2 | 7:05.02 | 8:28.20 | 31877 | 69996
3 | 15:33.22 | 3:59.13 | 69997 | 87934
4 | 19:32.35 | 26:34.32 | 87935 | 207516
5 | 46:06.67 | 5:36.30 | 207517 | 232746
6 | 51:43.22 | 8:53.43 | 232747 | 272764
7 | 60:36.65 | 7:48.30 | 272765 | 307894
8 | 68:25.20 | 2:54.05 | 307895 | 320949
9 | 71:19.25 | 3:42.50 | 320950 | 337649


Range status and errors

Selected range

Filename G:\GENESIS\1998- Archive #1- 1967-1975 (4CD UK 1998 Virgin Records • 7243 8 42221 2 3)\Genesis - Archive (Disc 3).wav

Peak level 99.9 %
Range quality 100.0 %
Test CRC 699D285B
Copy CRC 699D285B
Copy OK

No errors occurred


AccurateRip summary

Track 1 accurately ripped (confidence 59) [4A1E53AC]
Track 2 cannot be verified as accurate (confidence 59) [19CD2866], AccurateRip returned [468D6D44]
Track 3 accurately ripped (confidence 59) [6CCA004B]
Track 4 cannot be verified as accurate (confidence 58) [6CE84FD9], AccurateRip returned [05B2A7AF]
Track 5 accurately ripped (confidence 59) [A730666B]
Track 6 cannot be verified as accurate (confidence 58) [B4749A90], AccurateRip returned [E17A706F]
Track 7 cannot be verified as accurate (confidence 55) [E9628A3E], AccurateRip returned [8A863DFF]
Track 8 accurately ripped (confidence 56) [FC050E59]
Track 9 accurately ripped (confidence 53) [84EE2DEA]

5 track(s) accurately ripped
4 track(s) could not be verified as accurate

Some tracks could not be verified as accurate

End of status report


[CUETools log; Date: 27.01.2018 0:33:07; Version: 2.1.5]
[AccurateRip ID: 001c8615-00d1005e-7c119609] found.
Track [ CRC | V2 ] Status
01 [4a1e53ac|a4950e2c] (061+085/215) Accurately ripped
02 [19cd2866|748da418] (000+000/216) No match
03 [6cca004b|c12b80e8] (061+087/218) Accurately ripped
04 [6ce84fd9|a5f6bc1f] (000+000/208) No match
05 [a730666b|70c1a7e9] (061+086/214) Accurately ripped
06 [b4749a90|2b9af568] (000+000/208) No match
07 [e9628a3e|23eb8f34] (000+000/205) No match
08 [fc050e59|776b3e5b] (057+082/204) Accurately ripped
09 [84ee2dea|696bb0ec] (054+078/198) Accurately ripped
Offsetted by -132:
01 [38fe6584] (000/215) No match (V2 was not tested)
02 [6a4fa7da] (000/216) No match (V2 was not tested)
03 [3c8db5ef] (000/218) No match (V2 was not tested)
04 [e5e13bf9] (000/208) No match (V2 was not tested)
05 [09a64c67] (000/214) No match (V2 was not tested)
06 [bd53399c] (000/208) No match (V2 was not tested)
07 [a6f2e686] (000/205) No match
08 [05ca8c51] (000/204) No match
09 [471425aa] (000/198) No match
Offsetted by -12:
01 [0523aa03] (000/215) No match (V2 was not tested)
02 [de825671] (000/216) No match (V2 was not tested)
03 [ad37aab0] (000/218) No match (V2 was not tested)
04 [56c643f2] (000/208) No match (V2 was not tested)
05 [c769a9df] (000/214) No match (V2 was not tested)
06 [86b76334] (000/208) No match (V2 was not tested)
07 [e3586416] (000/205) No match (V2 was not tested)
08 [42b9eb41] (000/204) No match (V2 was not tested)
09 [c5202d2a] (000/198) No match (V2 was not tested)
Offsetted by 6:
01 [2769e302] (000/215) No match (V2 was not tested)
02 [b45ebe27] (000/216) No match (V2 was not tested)
03 [8b134c38] (000/218) No match (V2 was not tested)
04 [f6cae31f] (000/208) No match (V2 was not tested)
05 [1713c4b1] (000/214) No match (V2 was not tested)
06 [cb53363e] (000/208) No match (V2 was not tested)
07 [6c679d52] (000/205) No match (V2 was not tested)
08 [58aa9fe5] (000/204) No match (V2 was not tested)
09 [64d52e4a] (000/198) No match (V2 was not tested)
Offsetted by 659:
01 [e699b446] (000/215) No match (V2 was not tested)
02 [ec2574ca] (000/216) No match (V2 was not tested)
03 [64f7bb01] (035/218) Accurately ripped
04 [56806958] (000/208) No match (V2 was not tested)
05 [52e7ae1e] (033/214) Accurately ripped
06 [044bbab7] (000/208) No match (V2 was not tested)
07 [4a6539a8] (000/205) No match (V2 was not tested)
08 [910e003f] (034/204) Accurately ripped
09 [3f89d71a] (034/198) Accurately ripped

Track Peak [ CRC32 ] [W/O NULL] [ LOG ]
– 99,9 [699D285B] [A5DC3F6D] CRC32
01 94,6 [B06D8227] [36187D24]
02 94,8 [6F16BC62] [E9317D80]
03 91,4 [56D43472] [B798D9B4]
04 96,3 [0A11F636] [916B4286]
05 95,8 [C18E3B6B] [C442B920]
06 99,9 [9E4C4E13] [A3BBF53A]
07 96,8 [3B94D383] [82725AAD]
08 99,9 [00EBF3A0] [830F99C5]
09 98,8 [A77D8FCC] [47CA900B]


Genesis Archive, Vol. 1: 1967-1975 (1998)

Tracklist CD4:

01. In The Wilderness [Rough Mix without strings 1968] [02:59]
02. Shepherd [BBC Nightride 1970] [04:00]
03. Pacidy [BBC Nightride 1970] [05:41]
04. Let Us Now Make Love [BBC Nightride 1970] [06:13]
05. Going Out To Get You [Demo 1969] [04:53]
06. Dusk [Demo 1968] [06:13]
07. Build Me A Mountain [Rough Mix 1968] [04:12]
08. Image Blown Out [Rough Mix 1968] [02:11]
09. One Day [Rough Mix 1968] [03:08]
10. Where The Sour Turns To Sweet [Demo 1968] [03:14]
11. In The Beginning [Demo 1968] [03:31]
12. The Magic Of Time [Demo 1968] [02:01]
13. Hey! [Demo 1968] [02:27]
14. Hidden In the World Of Dawn [Demo 1968] [03:10]
15. Sea Bee [Demo 1968] [03:04]
16. The Mystery Of The Flannan Isle Lighthouse [Demo 1968] [02:35]
17. Hair On The Arms And Legs [Demo 1968] [02:42]
18. She Is Beautiful [Demo 1967, later 'The Serpent'] [03:47]
19. Try A Little Sadness [Demo 1967] [03:19]
20. Patricia [Demo 1967, later 'In Hiding'] [03:05]

Exact Audio Copy V0.99 prebeta 5 from 4. May 2009

EAC extraction logfile from 11. August 2012, 22:04

Genesis / Archive 1967-75 (Disc 4)

Used drive : ASUS DRW-24B3ST Adapter: 2 ID: 0

Read mode : Secure
Utilize accurate stream : Yes
Defeat audio cache : Yes
Make use of C2 pointers : No

Read offset correction : 6
Overread into Lead-In and Lead-Out : No
Fill up missing offset samples with silence : Yes
Delete leading and trailing silent blocks : No
Null samples used in CRC calculations : Yes
Used interface : Native Win32 interface for Win NT & 2000

Used output format : User Defined Encoder
Selected bitrate : 1024 kBit/s
Quality : High
Add ID3 tag : No
Command line compressor : C:\Program Files (x86)\EAC\WV\wavpack.exe
Additional command line options : -h -hh -m %s %d


TOC of the extracted CD

Track | Start | Length | Start sector | End sector
––––––––––––––––––––––––––––-
1 | 0:00.00 | 2:59.40 | 0 | 13464
2 | 2:59.40 | 4:00.27 | 13465 | 31491
3 | 6:59.67 | 5:41.60 | 31492 | 57126
4 | 12:41.52 | 6:13.53 | 57127 | 85154
5 | 18:55.30 | 4:53.72 | 85155 | 107201
6 | 23:49.27 | 6:13.63 | 107202 | 135239
7 | 30:03.15 | 4:12.40 | 135240 | 154179
8 | 34:15.55 | 2:11.55 | 154180 | 164059
9 | 36:27.35 | 3:08.15 | 164060 | 178174
10 | 39:35.50 | 3:14.37 | 178175 | 192761
11 | 42:50.12 | 3:31.38 | 192762 | 208624
12 | 46:21.50 | 2:01.32 | 208625 | 217731
13 | 48:23.07 | 2:27.70 | 217732 | 228826
14 | 50:51.02 | 3:10.13 | 228827 | 243089
15 | 54:01.15 | 3:04.52 | 243090 | 256941
16 | 57:05.67 | 2:35.20 | 256942 | 268586
17 | 59:41.12 | 2:42.30 | 268587 | 280766
18 | 62:23.42 | 3:47.30 | 280767 | 297821
19 | 66:10.72 | 3:19.40 | 297822 | 312786
20 | 69:30.37 | 3:05.10 | 312787 | 326671


Range status and errors

Selected range

Filename G:\GENESIS\1998- Archive #1- 1967-1975 (4CD UK 1998 Virgin Records • 7243 8 42221 2 3)\Genesis - Archive (Disc 4).wav

Peak level 100.0 %
Range quality 99.9 %
Test CRC D67B6CFE
Copy CRC D67B6CFE
Copy OK

No errors occurred


AccurateRip summary

Track 1 accurately ripped (confidence 63) [76BC647F]
Track 2 accurately ripped (confidence 63) [0C49380C]
Track 3 accurately ripped (confidence 63) [FC919337]
Track 4 accurately ripped (confidence 62) [246CD2D5]
Track 5 accurately ripped (confidence 62) [E646A24F]
Track 6 accurately ripped (confidence 62) [6A57ED13]
Track 7 accurately ripped (confidence 61) [F249BB1B]
Track 8 accurately ripped (confidence 63) [72986322]
Track 9 accurately ripped (confidence 63) [34AC0BD0]
Track 10 accurately ripped (confidence 62) [C995C453]
Track 11 accurately ripped (confidence 62) [88990715]
Track 12 accurately ripped (confidence 63) [1163C5D7]
Track 13 accurately ripped (confidence 63) [7765994A]
Track 14 accurately ripped (confidence 63) [FE48FE67]
Track 15 accurately ripped (confidence 63) [2CF031CD]
Track 16 accurately ripped (confidence 61) [290733AF]
Track 17 accurately ripped (confidence 60) [8DB168AA]
Track 18 accurately ripped (confidence 60) [55F30A75]
Track 19 accurately ripped (confidence 62) [30160731]
Track 20 accurately ripped (confidence 61) [699B3954]

All tracks accurately ripped

End of status report


[CUETools log; Date: 27.01.2018 0:36:50; Version: 2.1.5]
[AccurateRip ID: 00396245-0332e495-20110314] found.
Track [ CRC | V2 ] Status
01 [76bc647f|c4955d16] (066+070/136) Accurately ripped
02 [0c49380c|953ccfa8] (066+071/137) Accurately ripped
03 [fc919337|0bfe9cdd] (066+071/137) Accurately ripped
04 [246cd2d5|1c4c0e87] (065+070/135) Accurately ripped
05 [e646a24f|7780fc14] (065+071/136) Accurately ripped
06 [6a57ed13|ffb415e4] (065+071/136) Accurately ripped
07 [f249bb1b|b13bd024] (064+070/136) Accurately ripped
08 [72986322|773cf2e7] (066+071/137) Accurately ripped
09 [34ac0bd0|9a4b8766] (066+071/137) Accurately ripped
10 [c995c453|784056fd] (065+070/137) Accurately ripped
11 [88990715|83ce0674] (065+069/136) Accurately ripped
12 [1163c5d7|fc4a66c0] (066+071/139) Accurately ripped
13 [7765994a|e82b3530] (066+070/138) Accurately ripped
14 [fe48fe67|f6c86844] (066+071/139) Accurately ripped
15 [2cf031cd|5ffc666d] (066+070/138) Accurately ripped
16 [290733af|2745abcd] (064+070/134) Accurately ripped
17 [8db168aa|4a254ae3] (063+070/133) Accurately ripped
18 [55f30a75|5f0fbb72] (063+070/135) Accurately ripped
19 [30160731|21a285dd] (065+069/136) Accurately ripped
20 [699b3954|cc37b691] (064+069/135) Accurately ripped
Offsetted by -661:
01 [917a615f] (000/136) No match (V2 was not tested)
02 [c659d8f1] (000/137) No match (V2 was not tested)
03 [1c036ca3] (000/137) No match (V2 was not tested)
04 [0811472e] (000/135) No match (V2 was not tested)
05 [3e0a4459] (000/136) No match (V2 was not tested)
06 [47d06383] (000/136) No match (V2 was not tested)
07 [7cc13cc3] (000/136) No match (V2 was not tested)
08 [629746c9] (000/137) No match (V2 was not tested)
09 [5c5d7cfb] (000/137) No match (V2 was not tested)
10 [e6522a0e] (000/137) No match (V2 was not tested)
11 [50e31790] (000/136) No match (V2 was not tested)
12 [f4893d09] (000/139) No match (V2 was not tested)
13 [bf4c4f06] (000/138) No match (V2 was not tested)
14 [99021364] (000/139) No match (V2 was not tested)
15 [71de4fc3] (000/138) No match (V2 was not tested)
16 [69ddb581] (000/134) No match (V2 was not tested)
17 [74f2440c] (000/133) No match (V2 was not tested)
18 [a0096ba2] (000/135) No match (V2 was not tested)
19 [f076732f] (000/136) No match (V2 was not tested)
20 [55b7a7d8] (000/135) No match (V2 was not tested)

Track Peak [ CRC32 ] [W/O NULL] [ LOG ]
– 100,0 [D67B6CFE] [4453DF7A] CRC32
01 96,5 [C9B05EF2] [FA8B7F15]
02 82,2 [3A3BFAE5] [3E3F5031]
03 94,1 [438484A4] [3A614898]
04 100,0 [D6D50129] [BBA1DEB4]
05 100,0 [32DE29A7] [56AE2179]
06 100,0 [471CE3EA] [72E21D6E]
07 100,0 [F3972BCB] [51B6ECB0]
08 100,0 [454DC0F9] [9EC8E3C1]
09 80,3 [E613CA7D] [BAF0BA91]
10 96,1 [074993C3] [3844BFA5]
11 91,1 [709BB1B3] [C7D64366]
12 100,0 [94F5484C] [9E744DC7]
13 91,8 [5FC622AD] [0A977C2B]
14 100,0 [C7BD901B] [8B14548F]
15 89,0 [CF19F95B] [A034C5D9]
16 100,0 [A2468ADE] [CE6F4731]
17 82,1 [8E2ACB5C] [1219DD30]
18 98,1 [DDAF42F8] [49887A0B]
19 96,0 [E6326E25] [DA3B577F]
20 99,9 [00DFEC81] [8C9B3EF9]


All thanks go to the original releaser

Genesis in my Blog

Download Genesis Archive, Vol. 1: 1967-1975 (1998):