Tags
Language
Tags

George Clinton ‎- 6 Degrees Of P-Funk: The Best Of George Clinton And His Funk Family (2003)

Posted By: JET 1
George Clinton ‎- 6 Degrees Of P-Funk: The Best Of George Clinton And His Funk Family (2003)

George Clinton ‎- 6 Degrees Of P-Funk: The Best Of George Clinton And His Funk Family (2003)
EAC Rip | FLAC (Tracks) +CUE, LOG | 507 MB
Genre: R&B, Funk, Soul, P.Funk | Label: Epic/Legacy Records | Catalog Number: EK 86805

This compilation features some of the best solo material from the Parliament/Funkadelic crew during the late '70s and '80s under the direction of George Clinton. Ever the entrepreneur, Clinton had farmed his aggregate of loose booties to no less than five respective (major) labels. While technically Parliament was recording for Casablanca and Funkadelic was signed to Warner Bros., Clinton's short-lived Uncle Jam imprint was issued and distributed by Columbia/Epic. It is here that listeners find the 15 tracks – nine of which are making their debut in the digital domain – that comprise Six Degrees of P-Funk: The Best of George Clinton & His Funky Family (2003). While Clinton is the central figure, his most enduring contributions to each of these projects is to simply allow all of the artists involved to develop their unique substrata of funk – which he does and they most certainly do. The disc rightfully kicks off with a pair of cuts from the P-Funk All Stars' The Awesome Power of a Fully Operational Mothership (1996). "If Anybody Gets Funked Up (It's Gonna Be You)" is a sample-heavy and highly danceable side featuring new breed funk-a-teers Erick Sermon of EPMD and MC Breed. "Funky Kind (Gonna Knock You Down)" contains a midtempo groove featuring a trademark full-ensemble vocal supporting Clinton's lead. This is followed by two cuts from bassist Bootsy Collins off of his sole Columbia long-player, What's Bootsy Doin'? (1988). His hardcore "Party on Plastic" and Prince sound-alike "Leakin'" are included here. Former Ohio Player Walter "Junie" Morrison climbed aboard the Mothership in the late '70s. From his solo projects Bread Alone (1980) and Junie 5 (1981) are the melodic and synthesizer-laden "Love Have Taken Me Over" and "Rappin' About Rappin'." Although business differences put the two at odds, Clinton and Jerome "Bigfoot" Brailey collaborated momentarily on the all-star side project Mutiny, whose hard-hittin' "Lump"and soulful "Funk 'n' Bop" come from their highly controversial and confrontational Mutiny on the Mamaship (1979). Philippe Wynne's Wynne Jammin (1980) was the only long-player that the vocalist issued on Uncle Jam and stands as one of the rare non-P-Funk-related projects that Clinton produced. The former lead singer for the Spinners includes both the ballad "Never Gonna Tell It" and the beat-heavy dance track "Breakout." The unmistakable sound of Bootsy Collins returns for the seminal hearty party fare "Freak to Freak."This is followed by the final non-P-Funk-related tracks from Champaign, IL, natives Micro Wave. The band – led by multi-instrumentalist Michael Lane – scored a Top 15 R&B platter with one of the tunes featured here, titled "Misunderstood."
Exact Audio Copy V1.0 beta 3 from 29. August 2011

EAC extraction logfile from 8. May 2014, 15:04

George Clinton / 6 Degrees Of P-Funk: The Best Of George Clinton And His Funk Family

Used drive : PHILIPS DVD+-RW DVD8881 Adapter: 3 ID: 0

Read mode : Secure
Utilize accurate stream : Yes
Defeat audio cache : Yes
Make use of C2 pointers : No

Read offset correction : 618
Overread into Lead-In and Lead-Out : No
Fill up missing offset samples with silence : Yes
Delete leading and trailing silent blocks : No
Null samples used in CRC calculations : Yes
Used interface : Native Win32 interface for Win NT & 2000
Gap handling : Appended to previous track

Used output format : User Defined Encoder
Selected bitrate : 896 kBit/s
Quality : High
Add ID3 tag : No
Command line compressor : C:\Program Files (x86)\Exact Audio Copy\Flac\flac.exe
Additional command line options : -8 -V -T "ARTIST=%artist%" -T "TITLE=%title%" -T "ALBUM=%albumtitle%" -T "DATE=%year%" -T "TRACKNUMBER=%tracknr%" -T "GENRE=%genre%" -T "PERFORMER=%albuminterpret%" -T "COMPOSER=%composer%" %haslyrics%–tag-from-file=LYRICS="%lyricsfile%"%haslyrics% -T "ALBUMARTIST=%albumartist%" -T "DISCNUMBER=%cdnumber%" -T "TOTALDISCS=%totalcds%" -T "TOTALTRACKS=%numtracks%" -T "COMMENT=%comment%" %source% -o %dest%


TOC of the extracted CD

Track | Start | Length | Start sector | End sector
––––––––––––––––––––––––––––-
1 | 0:00.00 | 4:23.62 | 0 | 19786
2 | 4:23.62 | 5:35.58 | 19787 | 44969
3 | 9:59.45 | 3:58.12 | 44970 | 62831
4 | 13:57.57 | 4:17.25 | 62832 | 82131
5 | 18:15.07 | 4:01.28 | 82132 | 100234
6 | 22:16.35 | 4:03.52 | 100235 | 118511
7 | 26:20.12 | 4:36.03 | 118512 | 139214
8 | 30:56.15 | 4:18.25 | 139215 | 158589
9 | 35:14.40 | 4:11.57 | 158590 | 177471
10 | 39:26.22 | 5:04.13 | 177472 | 200284
11 | 44:30.35 | 6:49.45 | 200285 | 231004
12 | 51:20.05 | 5:04.65 | 231005 | 253869
13 | 56:24.70 | 7:37.32 | 253870 | 288176
14 | 64:02.27 | 4:38.28 | 288177 | 309054
15 | 68:40.55 | 6:58.42 | 309055 | 340446


Track 1

Filename C:\EACrips\01 - George Clinton And The P-Funk All Stars - If Anybody Gets Funked Up (It's Gonna Be You).wav

Pre-gap length 0:00:02.00

Peak level 99.8 %
Extraction speed 5.8 X
Track quality 100.0 %
Test CRC 4DF2A7A2
Copy CRC 4DF2A7A2
Accurately ripped (confidence 2) [6D9982D9] (AR v2)
Copy OK

Track 2

Filename C:\EACrips\02 - George Clinton And The P-Funk All Stars - Funky Kind (Gonna Knock It Down).wav

Peak level 88.9 %
Extraction speed 6.6 X
Track quality 100.0 %
Test CRC 8E8F76A8
Copy CRC 8E8F76A8
Accurately ripped (confidence 2) [A56BBB37] (AR v2)
Copy OK

Track 3

Filename C:\EACrips\03 - Bootsy Collins - Party On Plastic (What's Bootsy Doin').wav

Peak level 97.6 %
Extraction speed 6.9 X
Track quality 100.0 %
Test CRC 07E28CFC
Copy CRC 07E28CFC
Accurately ripped (confidence 2) [FC3AE912] (AR v2)
Copy OK

Track 4

Filename C:\EACrips\04 - Bootsy Collins - Leakin'.wav

Pre-gap length 0:00:01.20

Peak level 99.8 %
Extraction speed 7.3 X
Track quality 100.0 %
Test CRC A80D8AED
Copy CRC A80D8AED
Accurately ripped (confidence 2) [C6DA1D4F] (AR v2)
Copy OK

Track 5

Filename C:\EACrips\05 - Junie Morrison - Love Has Taken Me Over.wav

Peak level 94.3 %
Extraction speed 6.4 X
Track quality 99.9 %
Test CRC 001A66F4
Copy CRC 001A66F4
Accurately ripped (confidence 2) [116CF584] (AR v2)
Copy OK

Track 6

Filename C:\EACrips\06 - Junie Morrison - Rappin' About Rappin' (Uh-Uh-Uh).wav

Peak level 96.2 %
Extraction speed 6.7 X
Track quality 99.9 %
Test CRC C420B4A4
Copy CRC C420B4A4
Accurately ripped (confidence 2) [B2DC78EE] (AR v2)
Copy OK

Track 7

Filename C:\EACrips\07 - Mutiny - Lump.wav

Peak level 91.8 %
Extraction speed 8.5 X
Track quality 100.0 %
Test CRC 8BDEA3AA
Copy CRC 8BDEA3AA
Accurately ripped (confidence 2) [1A1ABF0E] (AR v2)
Copy OK

Track 8

Filename C:\EACrips\08 - Mutiny - Funk 'N' Bop.wav

Pre-gap length 0:00:01.26

Peak level 99.8 %
Extraction speed 8.8 X
Track quality 100.0 %
Test CRC 29105AF2
Copy CRC 29105AF2
Accurately ripped (confidence 2) [900F6C78] (AR v2)
Copy OK

Track 9

Filename C:\EACrips\09 - Philippe Wynne - Never Gonna Tell It.wav

Pre-gap length 0:00:01.50

Peak level 99.4 %
Extraction speed 9.1 X
Track quality 100.0 %
Test CRC 2FE770C8
Copy CRC 2FE770C8
Accurately ripped (confidence 2) [DD1CEAD7] (AR v2)
Copy OK

Track 10

Filename C:\EACrips\10 - Philippe Wynne - Breakout.wav

Pre-gap length 0:00:02.16

Peak level 96.5 %
Extraction speed 9.6 X
Track quality 100.0 %
Test CRC 70B2A098
Copy CRC 70B2A098
Accurately ripped (confidence 2) [0765245D] (AR v2)
Copy OK

Track 11

Filename C:\EACrips\11 - The Sweat Band - Freak To Freak.wav

Peak level 94.3 %
Extraction speed 10.3 X
Track quality 100.0 %
Test CRC 93F6D2B0
Copy CRC 93F6D2B0
Accurately ripped (confidence 2) [95734134] (AR v2)
Copy OK

Track 12

Filename C:\EACrips\12 - Mico Wave - Instant Replay.wav

Peak level 94.2 %
Extraction speed 10.4 X
Track quality 100.0 %
Test CRC AFDE4BD3
Copy CRC AFDE4BD3
Accurately ripped (confidence 2) [82CEB995] (AR v2)
Copy OK

Track 13

Filename C:\EACrips\13 - Mico Wave - Misunderstood.wav

Peak level 89.0 %
Extraction speed 11.2 X
Track quality 100.0 %
Test CRC BE6BA3AB
Copy CRC BE6BA3AB
Accurately ripped (confidence 2) [612BF5CE] (AR v2)
Copy OK

Track 14

Filename C:\EACrips\14 - P-Funk All Stars - One Of Those Summers.wav

Peak level 94.1 %
Extraction speed 11.0 X
Track quality 100.0 %
Test CRC 896218B1
Copy CRC 896218B1
Accurately ripped (confidence 2) [A9C5E4B6] (AR v2)
Copy OK

Track 15

Filename C:\EACrips\15 - P-Funk All Stars - Pumpin' It Up.wav

Peak level 94.3 %
Extraction speed 4.8 X
Track quality 100.0 %
Test CRC 76EAB2F7
Copy CRC 76EAB2F7
Accurately ripped (confidence 2) [B6D5BE59] (AR v2)
Copy OK


All tracks accurately ripped

No errors occurred

End of status report

–– CUETools DB Plugin V2.1.3

[CTDB TOCID: Chs4Ux6GzZZGyyAA9yLRbXqmpUQ-] disk not present in database, Submit result: Chs4Ux6GzZZGyyAA9yLRbXqmpUQ- has been uploaded


==== Log checksum 03E8EA8B5421049F08F8405A8A777C5CF185E6E329FA165D9A79C255762000EF ====

Tracklist :::::
01. George Clinton And The P-Funk All Stars - If Anybody Gets Funked Up (It's Gonna Be You) (4:24)
02. George Clinton And The P-Funk All Stars - Funky Kind (Gonna Knock It Down) (5:35)
03. Bootsy Collins - Party On Plastic (What's Bootsy Doin'?) (3:57)
04. Bootsy Collins - Leakin' (4:17)
05. Junie Morrison - Love Has Taken Me Over (4:01)
06. Junie Morrison - Rappin' About Rappin' (Uh-Uh-Uh) (4:04)
07. Mutiny - Lump (4:35)
08. Mutiny - Funk 'N' Bop (4:17)
09. Philippe Wynne - Never Gonna Tell It (4:09)
10. Philippe Wynne - Breakout (5:04)
11. The Sweat Band - Freak To Freak (6:48)
12. Mico Wave - Instant Replay (5:05)
13. Mico Wave - Misunderstood (7:37)
14. P-Funk All Stars - One Of Those Summers (4:38)
15. P-Funk All Stars - Pumpin' It Up (6:58)

Thanks to Original Re-leaser.