Subcategories

George Duke - Snapshot (1992) {Warner}

Posted By: tiburon
George Duke - Snapshot (1992) {Warner}

George Duke - Snapshot (1992) {Warner}
EAC 0.99pb4 | FLAC tracks level 8 | Cue+Log+M3U | Full Scans 300dpi | 437MB + 5% Recovery
MP3 CBR 320 Kbps | 150MB + 5% Recovery
Genre: Jazz Funk, Fusion, Smooth Jazz
George Duke - Snapshot (1992) {Warner}

With a several decade career as an artist and producer successfully spanning the realms of bebop, fusion, soul, and funk, nothing gives George Duke more pleasure than being able to go back to his basics as an acoustic jazz pianist on his smooth, multifaceted Warner Bros. debut, Snapshot. The keyboardist takes listeners on a whimsical, generally cool journey through the myriad styles he's purveyed over the years: Latin, pop, R&B, and live-in-the-studio jazz. Snapshot seems divided by Duke's pop sensibilities and these urges to simplify those electronic trappings.
Track List
01. From The Void (Intro) 0:51
02. History (I Remember) 5:37
03. Snapshot (Album Version) 5:40
04. No Rhyme, No Reason 5:48
05. 6 O'Clock 4:36
06. Ooh Baby 5:01
07. Fame 5:47
08. Geneva 5:28
09. Speak Low 4:08
10. Keeping Love Alive 5:43
11. Until Sunrise 5:54
12. Bus Tours 4:43
13. In The Meantime (Interlude) 0:28
14. The Morning After 5:49

musicians
George Duke - Synclavier, D550, M1, Wave,VFX, acoustic piano, TX 816, S1000, Mini Moog bass, Fender Rhodes, lead and background vocal
Dennis Chambers - Pearl drums, Zildjan cymbalis
George Howard - soprano saxophone on track 14
Everette Harp - alto saxophone on track 12
Larry Williams - tenor saxophone
Jerry Hey - trumpet
Gary Grant - trumpet
Hubert Laws - flute
Paul Jackson, Jr. - acoustic & electric guitars
Ray Fuller - guitar
Larry Kimpel - bass
Ndugu Chancler -drums
Sheila E (Escovedo) - congas, percussion
Airto Moriera - percussion
Paulinho Da Costa - percussion
Byron Miller - bass
Charles Icarus Johnson - bass on track 8
Oscar Brashear - trumpet on track 12
Reginald Young - trombone
Phil Perry, Chante Moore, Jeffrey Osborne, Howard Hewett, Lori Perry, Phillip Bailey,
Deniece Williams, Keith Washington - vocals
Rachell Farrell, Jim Gilstrap, Angel Rogers, Lynn Davis, Marci Levy, Alex Brown - background vocals

Recorded and mixed by Erik Zobler at Le Gonks West, Conway Studios & Ocean Way Studio,LA

Produced by George Duke


Exact Audio Copy V0.99 prebeta 4 from 23. January 2008

EAC extraction logfile from 15. March 2009, 18:01

George Duke / Snapshot

Used drive : HL-DT-STDVDRAM GH20NS10 Adapter: 2 ID: 0

Read mode : Secure
Utilize accurate stream : Yes
Defeat audio cache : Yes
Make use of C2 pointers : No

Read offset correction : 667
Overread into Lead-In and Lead-Out : No
Fill up missing offset samples with silence : Yes
Delete leading and trailing silent blocks : No
Null samples used in CRC calculations : Yes
Used interface : Native Win32 interface for Win NT & 2000
Gap handling : Appended to previous track

Used output format : User Defined Encoder
Selected bitrate : 1024 kBit/s
Quality : High
Add ID3 tag : No
Command line compressor : C:\Program Files\Exact Audio Copy\FLAC\FLAC.EXE
Additional command line options : -8 -V -T "ARTIST=%a" -T "TITLE=%t" -T "ALBUM=%g" -T "DATE=%y" -T "TRACKNUMBER=%n" -T "GENRE=%m" -T "COMMENT=EAC FLAC -8" %s


TOC of the extracted CD

Track | Start | Length | Start sector | End sector
––––––––––––––––––––––––––––-
1 | 0:00.00 | 0:50.65 | 0 | 3814
2 | 0:50.65 | 5:38.20 | 3815 | 29184
3 | 6:29.10 | 5:40.27 | 29185 | 54711
4 | 12:09.37 | 5:48.30 | 54712 | 80841
5 | 17:57.67 | 4:36.50 | 80842 | 101591
6 | 22:34.42 | 5:01.23 | 101592 | 124189
7 | 27:35.65 | 5:47.05 | 124190 | 150219
8 | 33:22.70 | 5:29.50 | 150220 | 174944
9 | 38:52.45 | 4:08.00 | 174945 | 193544
10 | 43:00.45 | 5:43.57 | 193545 | 219326
11 | 48:44.27 | 5:54.65 | 219327 | 245941
12 | 54:39.17 | 4:43.08 | 245942 | 267174
13 | 59:22.25 | 0:28.15 | 267175 | 269289
14 | 59:50.40 | 5:50.15 | 269290 | 295554


Track 1

Filename D:\George Duke - Snapshot (1992) [FLAC] {WB 9362-45026-2}\01 - From The Void.wav

Pre-gap length 0:00:02.00

Peak level 50.8 %
Track quality 100.0 %
Test CRC 6AEA2B23
Copy CRC 6AEA2B23
Accurately ripped (confidence 2) [1534D511]
Copy OK

Track 2

Filename D:\George Duke - Snapshot (1992) [FLAC] {WB 9362-45026-2}\02 - History (I Remember).wav

Peak level 95.5 %
Track quality 100.0 %
Test CRC 6393BDC7
Copy CRC 6393BDC7
Accurately ripped (confidence 2) [3680D842]
Copy OK

Track 3

Filename D:\George Duke - Snapshot (1992) [FLAC] {WB 9362-45026-2}\03 - Snapshot.wav

Pre-gap length 0:00:01.32

Peak level 96.1 %
Track quality 99.9 %
Test CRC 4EB89EC4
Copy CRC 4EB89EC4
Accurately ripped (confidence 2) [5174CC98]
Copy OK

Track 4

Filename D:\George Duke - Snapshot (1992) [FLAC] {WB 9362-45026-2}\04 - No Rhyme, No Reason.wav

Pre-gap length 0:00:02.10

Peak level 99.3 %
Track quality 100.0 %
Test CRC 04EE48CE
Copy CRC 04EE48CE
Accurately ripped (confidence 2) [FC091266]
Copy OK

Track 5

Filename D:\George Duke - Snapshot (1992) [FLAC] {WB 9362-45026-2}\05 - 6 O'clock.wav

Pre-gap length 0:00:01.72

Peak level 100.0 %
Track quality 100.0 %
Test CRC 4526249D
Copy CRC 4526249D
Accurately ripped (confidence 2) [F4085DBB]
Copy OK

Track 6

Filename D:\George Duke - Snapshot (1992) [FLAC] {WB 9362-45026-2}\06 - Ooh Baby.wav

Peak level 98.9 %
Track quality 100.0 %
Test CRC 9248E445
Copy CRC 9248E445
Accurately ripped (confidence 2) [6FEB0517]
Copy OK

Track 7

Filename D:\George Duke - Snapshot (1992) [FLAC] {WB 9362-45026-2}\07 - Fame.wav

Peak level 93.9 %
Track quality 100.0 %
Test CRC 681B77C6
Copy CRC 681B77C6
Accurately ripped (confidence 2) [3AC83558]
Copy OK

Track 8

Filename D:\George Duke - Snapshot (1992) [FLAC] {WB 9362-45026-2}\08 - Geneva.wav

Peak level 97.6 %
Track quality 100.0 %
Test CRC 4A364D32
Copy CRC 4A364D32
Accurately ripped (confidence 2) [F55CD971]
Copy OK

Track 9

Filename D:\George Duke - Snapshot (1992) [FLAC] {WB 9362-45026-2}\09 - Speak Low.wav

Pre-gap length 0:00:01.38

Peak level 94.6 %
Track quality 100.0 %
Test CRC DC547B05
Copy CRC DC547B05
Accurately ripped (confidence 2) [0880FBF6]
Copy OK

Track 10

Filename D:\George Duke - Snapshot (1992) [FLAC] {WB 9362-45026-2}\10 - Keeping Love Alive.wav

Pre-gap length 0:00:01.65

Peak level 94.6 %
Track quality 100.0 %
Test CRC 67463F74
Copy CRC 67463F74
Accurately ripped (confidence 2) [095570A6]
Copy OK

Track 11

Filename D:\George Duke - Snapshot (1992) [FLAC] {WB 9362-45026-2}\11 - Until Sunrise.wav

Peak level 93.3 %
Track quality 100.0 %
Test CRC 6B8CBD04
Copy CRC 6B8CBD04
Accurately ripped (confidence 2) [A3ADEB39]
Copy OK

Track 12

Filename D:\George Duke - Snapshot (1992) [FLAC] {WB 9362-45026-2}\12 - Bus Tours.wav

Peak level 95.8 %
Track quality 100.0 %
Test CRC C69F2228
Copy CRC C69F2228
Accurately ripped (confidence 2) [B4F15FCA]
Copy OK

Track 13

Filename D:\George Duke - Snapshot (1992) [FLAC] {WB 9362-45026-2}\13 - In The Meantime.wav

Pre-gap length 0:00:01.29

Peak level 46.7 %
Track quality 100.0 %
Test CRC 55F1D98A
Copy CRC 55F1D98A
Accurately ripped (confidence 2) [02166784]
Copy OK

Track 14

Filename D:\George Duke - Snapshot (1992) [FLAC] {WB 9362-45026-2}\14 - The Morning After.wav

Pre-gap length 0:00:00.50

Peak level 100.0 %
Track quality 100.0 %
Test CRC 76BCD20E
Copy CRC 76BCD20E
Accurately ripped (confidence 2) [26AD5AB5]
Copy OK


All tracks accurately ripped

No errors occurred

End of status report


––––––––––––––––––––––––––––––––––––––––
Analyzed: George Duke / Snapshot
––––––––––––––––––––––––––––––––––––––––

DR Peak RMS Duration Track
––––––––––––––––––––––––––––––––––––––––
DR9 -5.87 dB -21.63 dB 0:51 01-From The Void
DR12 -0.39 dB -13.76 dB 5:38 02-History (I Remember)
DR10 -0.34 dB -12.48 dB 5:40 03-Snapshot
DR10 -0.06 dB -12.58 dB 5:48 04-No Rhyme, No Reason
DR12 0.00 dB -14.36 dB 4:37 05-6 O'clock
DR11 -0.09 dB -13.95 dB 5:01 06-Ooh Baby
DR11 -0.54 dB -14.45 dB 5:47 07-Fame
DR12 -0.21 dB -15.29 dB 5:30 08-Geneva
DR11 -0.48 dB -13.57 dB 4:08 09-Speak Low
DR12 -0.48 dB -14.42 dB 5:44 10-Keeping Love Alive
DR14 -0.60 dB -17.64 dB 5:55 11-Until Sunrise
DR11 -0.37 dB -13.89 dB 4:43 12-Bus Tours
DR10 -6.61 dB -22.54 dB 0:28 13-In The Meantime
DR13 0.00 dB -15.13 dB 5:50 14-The Morning After
––––––––––––––––––––––––––––––––––––––––

Number of tracks: 14
Official DR value: DR11

Samplerate: 44100 Hz
Channels: 2
Bits per sample: 16
Bitrate: 821 kbps
Codec: FLAC
================================================================================

George Duke - Snapshot (1992) {Warner}
George Duke - Snapshot (1992) {Warner}
George Duke - Snapshot (1992) {Warner}