Tags
Language
Tags

George Michael - Faith (1987)

Posted By: BlondStyle
George Michael - Faith (1987)

George Michael - Faith (1987)
Pop/Rock, R&B, Electronic | EAC Rip | FLAC, Tracks+CUE+LOG+Scans (JPEG) | 58:05 Min | 373,92 Mb
Label: Epic/CBS Records (Europe) | Cat.# EPC 460000 2 | Released: 1987-10-30
George Michael - Faith (1987)

"Faith" is the debut solo studio album by the English singer George Michael, released on 30 October 1987 by Columbia Records and Epic Records. The album has won several awards including the Grammy Award for Album of the Year in 1989. To date, the album has sold over 25 million copies worldwide, and received diamond certification from the Recording Industry Association of America (RIAA). "Faith" spawned six top five singles that substantially helped it dominate the charts in 1987 and 1988. In 2003, the album was ranked #480 on Rolling Stone's "500 Greatest Albums of All Time".
~Wikipedia

George Michael - Faith (1987)

George Michael - Faith (1987)




Release of this album: 1987, October, 30 [LP Epic, Cat.# EPC 460000 1, UK]
Release of this CD: 1987, October, 30 [CD Epic/CBS Records (Europe), Cat.# EPC 460000 2 / UPC: 5099746000028]
Original Sound Recording Made by CBS Records
All songs ℗© 1987 CBS Records
Distribution CBS Records
Printed in Holland (Artwork)
Made in Austria (CD)


Credits:

Arranged By, Producer – George Michael
Design [Original Cover] – Stylorouge
Engineer – Chris Porter
Management – Michael Lippman
Photography By [Cover] – Russell Young
Product Manager – Joanna Kalli
Supervised By – David Austin, Niall Flynn
Written-By – George Michael (tracks: 1 to 6, 8 to 11); David Austin, George Michael (tracks: 7)


Tracklist:

01. Faith (03:16)
(George Michael)
02. Father Figure (05:36)
(George Michael)
03. I Want Your Sex (Parts 1 & 2) (09:17)
(George Michael)
04. One More Try (05:51)
(George Michael)
05. Hard Day (04:48)
(George Michael)
06. Hand To Mouth (04:36)
(George Michael)
07. Look At Your Hands (04:38)
(David Austin, George Michael)
08. Monkey (05:06)
(George Michael)
09. Kissing A Fool (04:36)
(George Michael)
05. Hard Day (Shep Pettibone Remix) (06:30)
(George Michael)
10. A Last Request (I Want Your Sex Part 3) (03:47)
(George Michael)

Exact Audio Copy V1.0 beta 1 from 15. November 2010

EAC extraction logfile from 14. June 2011, 21:25

George Michael / Faith

Used drive : hp DVD RW AD-7701H Adapter: 0 ID: 0

Read mode : Secure
Utilize accurate stream : Yes
Defeat audio cache : Yes
Make use of C2 pointers : No

Read offset correction : 48
Overread into Lead-In and Lead-Out : No
Fill up missing offset samples with silence : Yes
Delete leading and trailing silent blocks : No
Null samples used in CRC calculations : Yes
Used interface : Native Win32 interface for Win NT & 2000
Gap handling : Appended to previous track

Used output format : User Defined Encoder
Selected bitrate : 1024 kBit/s
Quality : High
Add ID3 tag : No
Command line compressor : C:\Program Files (x86)\Exact Audio Copy\Flac\flac.exe
Additional command line options : -8 -V -T "ARTIST=%a" -T "TITLE=%t" -T "ALBUM=%g" -T "DATE=%y" -T "TRACKNUMBER=%n" -T "GENRE=%m" -T "COMMENT= EAC - FLAC - 8 - bsw" %s


TOC of the extracted CD

Track | Start | Length | Start sector | End sector
––––––––––––––––––––––––––––-
1 | 0:00.00 | 3:16.35 | 0 | 14734
2 | 3:16.35 | 5:36.37 | 14735 | 39971
3 | 8:52.72 | 9:17.23 | 39972 | 81769
4 | 18:10.20 | 5:50.60 | 81770 | 108079
5 | 24:01.05 | 4:47.72 | 108080 | 129676
6 | 28:49.02 | 4:36.13 | 129677 | 150389
7 | 33:25.15 | 4:37.60 | 150390 | 171224
8 | 38:03.00 | 5:06.07 | 171225 | 194181
9 | 43:09.07 | 4:35.53 | 194182 | 214859
10 | 47:44.60 | 6:29.72 | 214860 | 244106
11 | 54:14.57 | 3:49.68 | 244107 | 261349


Track 1

Filename C:\EAC\01 - Faith.wav

Pre-gap length 0:00:02.00

Peak level 100.0 %
Extraction speed 2.6 X
Track quality 100.0 %
Test CRC 881D521F
Copy CRC 881D521F
Accurately ripped (confidence 15) [CC17A4A6]
Copy OK

Track 2

Filename C:\EAC\02 - Father Figure.wav

Peak level 100.0 %
Extraction speed 3.2 X
Track quality 100.0 %
Test CRC 44D97204
Copy CRC 44D97204
Accurately ripped (confidence 16) [07B020D7]
Copy OK

Track 3

Filename C:\EAC\03 - I Want Your Sex (Parts 1 & 2).wav

Peak level 100.0 %
Extraction speed 3.9 X
Track quality 100.0 %
Test CRC 6CF2F570
Copy CRC 6CF2F570
Accurately ripped (confidence 16) [DC0F8D57]
Copy OK

Track 4

Filename C:\EAC\04 - One More Try.wav

Pre-gap length 0:00:01.30

Peak level 96.6 %
Extraction speed 4.2 X
Track quality 100.0 %
Test CRC DA107252
Copy CRC DA107252
Accurately ripped (confidence 14) [4A7DD313]
Copy OK

Track 5

Filename C:\EAC\05 - Hard Day.wav

Peak level 100.0 %
Extraction speed 4.4 X
Track quality 100.0 %
Test CRC 6B27EDB2
Copy CRC 6B27EDB2
Accurately ripped (confidence 14) [800E31F3]
Copy OK

Track 6

Filename C:\EAC\06 - Hand To Mouth.wav

Peak level 100.0 %
Extraction speed 4.6 X
Track quality 100.0 %
Test CRC 095CE26A
Copy CRC 095CE26A
Accurately ripped (confidence 14) [A8E17090]
Copy OK

Track 7

Filename C:\EAC\07 - Look At Your Hands.wav

Peak level 98.7 %
Extraction speed 4.8 X
Track quality 100.0 %
Test CRC ECA0FF39
Copy CRC ECA0FF39
Accurately ripped (confidence 14) [06C532A5]
Copy OK

Track 8

Filename C:\EAC\08 - Monkey.wav

Peak level 100.0 %
Extraction speed 5.1 X
Track quality 100.0 %
Test CRC B2965732
Copy CRC B2965732
Accurately ripped (confidence 15) [7EFDCD20]
Copy OK

Track 9

Filename C:\EAC\09 - Kissing A Fool.wav

Peak level 100.0 %
Extraction speed 5.3 X
Track quality 100.0 %
Test CRC 066894DC
Copy CRC 066894DC
Accurately ripped (confidence 14) [AAEC6E96]
Copy OK

Track 10

Filename C:\EAC\10 - Hard Day (Shep Pettibone Remix).wav

Peak level 100.0 %
Extraction speed 5.7 X
Track quality 100.0 %
Test CRC 5E6A8C82
Copy CRC 5E6A8C82
Accurately ripped (confidence 15) [92BF6E0F]
Copy OK

Track 11

Filename C:\EAC\11 - A Last Request (I Want Your Sex Part 3).wav

Peak level 100.0 %
Extraction speed 5.6 X
Track quality 100.0 %
Test CRC 41EE8F7A
Copy CRC 41EE8F7A
Accurately ripped (confidence 14) [FB9480B2]
Copy OK


All tracks accurately ripped

No errors occurred

End of status report

==== Log checksum 902D48988ADFCC174FDB915907AE34E880475FB1ADC240D9D780A69EC148B45A ====

––––––––––––––––––––––––––––––––––––––––
Analyzed: George Michael / Faith
––––––––––––––––––––––––––––––––––––––––

DR Peak RMS Duration Track
––––––––––––––––––––––––––––––––––––––––
DR17 0.00 dB -19.11 dB 3:16 01-Faith
DR15 0.00 dB -19.76 dB 5:36 02-Father Figure
DR18 0.00 dB -19.59 dB 9:17 03-I Want Your Sex (Parts 1 & 2)
DR16 -0.29 dB -17.75 dB 5:51 04-One More Try
DR13 0.00 dB -14.94 dB 4:48 05-Hard Day
DR14 0.00 dB -15.43 dB 4:36 06-Hand To Mouth
DR15 -0.11 dB -17.07 dB 4:38 07-Look At Your Hands
DR16 0.00 dB -17.85 dB 5:06 08-Monkey
DR13 0.00 dB -15.29 dB 4:36 09-Kissing A Fool
DR13 0.00 dB -15.08 dB 6:30 10-Hard Day (Shep Pettibone Remix)
DR14 0.00 dB -15.56 dB 3:50 11-A Last Request (I Want Your Sex Part 3)
––––––––––––––––––––––––––––––––––––––––

Number of tracks: 11
Official DR value: DR15

Samplerate: 44100 Hz
Channels: 2
Bits per sample: 16
Bitrate: 748 kbps
Codec: FLAC
================================================================================

All thanks to bigsimonwilde

See also:
George Michael - Faith (1987) ...l Edition 2CD+DVD, Remastered]
George Michael - Faith (1987) [2013, Japan Blu-Spec CD2]
Wham! - Make It Big (1984) [Japan, 1st Press]
Wham! - The Best Of Wham! (If You Were There…) (1997)
Deon Estus - Spell (1989) [Japan, POOP-20246]

password: BlondStyle