Tags
Language
Tags

George Szell and the Cleveland Orchestra - The Forgotten Recordings (2021)

Posted By: ArlegZ
George Szell and the Cleveland Orchestra - The Forgotten Recordings (2021)

George Szell and the Cleveland Orchestra - The Forgotten Recordings (2021)
EAC | FLAC | Image (Cue & Log) ~ 575 Mb | Total time: 142:57 | Scans included
Classical | Label: SOMM Recordings | # ARIADNE 5011-2 | Recorded: 1954, 1955

SOMM RECORDINGS announces the first release of never before available performances by one of the defining partnerships of modern American music in the specially priced two-CD set George Szell and the Cleveland Orchestra: The Forgotten Recordings. Long considered one of Americas Big Five orchestras, the Cleveland Orchestra entered its second century in 2018 and earlier this year was hailed by The New York Times as Americas finest [orchestra] still. The Forgotten Recordings features eight historic performances made for the Book-of-the-Month Club in 1954 and 1955 seven of which are first releases that have been restored and remastered by the multi-awardwinning audio restoration engineer Lani Spahr, who also provides extensive and informative booklet notes.

Performer:
The Cleveland Orchestra
George Szell, conductor

Track List:
CD1:
Johann Sebastian Bach (1685-1750)
Orchestral Suite No.3 in D major, BWV 1068
01. Ouverture
02. Air
03. Gavotte I/II
04. Bourrée
05. Gigue
Bedřich Smetana (1824-1884)
06. The Moldau (Vltava) from Má vlasta
Richard Strauss (1864-1949)
07. Till Eulenspiegel's Merry Pranks
Wolfgang Amadeus Mozart (1756-1791)
Symphony No.39 in E flat, K543
08. Adagio - Allegro
09. Andante con moto
10. Menuetto
11. Allegro
CD2:
Johannes Brahms (1833-1897)
01. Academic Festival Overture, Op.80
Variations on a Theme by Haydn, Op.56a
02. Thema - Chorale St. Antoni - Andante
03. Variation I: Poco più animato
04. Variation II: Più vivace
05. Variation III: Con moto
06. Variation IV: Andante con moto
07. Variation V: Vivace
08. Variation VI: Vivace
09. Variation VII: Grazioso
10. Variation VII: Presto non troppo
11. Finale - Andante
Robert Schumann (1810-1856)
Symphony No.4 in D minor, Op.120
12. Ziemlich langsam-Lebhaft
13. Romanze: Ziemlich langsam
14. Scherzo: Lebhaft
15. Langsam - Lebhaft
Igor Stravinsky (1882-1971)
The Firebird Suite (1919 Version)
16. Introduction
17. The Firebird and its Dance
18. Variation of the Firebird
19. Round of the Princesses
20. Infernal Dance of King Kastchei
21. Lullaby
22. Finale


Exact Audio Copy V1.5 from 20. February 2020

EAC extraction logfile from 10. November 2021, 21:58

The Cleveland Orchestra, George Szell / George Szell and the Cleveland Orchestra - The Forgotten Recordings - CD1

Used drive : ASUS SDRW-08U7M-U Adapter: 1 ID: 0

Read mode : Secure
Utilize accurate stream : Yes
Defeat audio cache : Yes
Make use of C2 pointers : No

Read offset correction : 6
Overread into Lead-In and Lead-Out : No
Fill up missing offset samples with silence : Yes
Delete leading and trailing silent blocks : No
Null samples used in CRC calculations : Yes
Used interface : Native Win32 interface for Win NT & 2000

Used output format : User Defined Encoder
Selected bitrate : 128 kBit/s
Quality : High
Add ID3 tag : No
Command line compressor : C:\Program Files (x86)\Exact Audio Copy\Flac\flac.exe
Additional command line options : -V -8 -T "Date=%year%" -T "Genre=%genre%" %source%


TOC of the extracted CD

Track | Start | Length | Start sector | End sector
––––––––––––––––––––––––––––-
1 | 0:00.00 | 6:19.13 | 0 | 28437
2 | 6:19.13 | 5:46.61 | 28438 | 54448
3 | 12:05.74 | 3:19.64 | 54449 | 69437
4 | 15:25.63 | 1:20.64 | 69438 | 75501
5 | 16:46.52 | 2:46.31 | 75502 | 87982
6 | 19:33.08 | 11:37.44 | 87983 | 140301
7 | 31:10.52 | 13:49.68 | 140302 | 202544
8 | 45:00.45 | 8:21.60 | 202545 | 240179
9 | 53:22.30 | 8:32.27 | 240180 | 278606
10 | 61:54.57 | 3:49.27 | 278607 | 295808
11 | 65:44.09 | 3:58.66 | 295809 | 313724


Range status and errors

Selected range

Filename C:\temp\George Szell & the Cleveland Orchestra - The Forgotten Recordings - 2021\CD1\George Szell and the Cleveland Orchestra - The Forgotten Recordings - CD1.wav

Peak level 98.8 %
Extraction speed 4.9 X
Range quality 100.0 %
Test CRC 58FB8E32
Copy CRC 58FB8E32
Copy OK

No errors occurred


AccurateRip summary

Track 1 accurately ripped (confidence 1) [A7C6938D] (AR v2)
Track 2 accurately ripped (confidence 1) [7890B44B] (AR v2)
Track 3 accurately ripped (confidence 1) [51D3119B] (AR v2)
Track 4 accurately ripped (confidence 1) [BF508C17] (AR v2)
Track 5 accurately ripped (confidence 1) [870F0F46] (AR v2)
Track 6 accurately ripped (confidence 1) [2E233706] (AR v2)
Track 7 accurately ripped (confidence 1) [D72616C3] (AR v2)
Track 8 accurately ripped (confidence 2) [DA86A755] (AR v2)
Track 9 accurately ripped (confidence 2) [EF0EAEA1] (AR v2)
Track 10 accurately ripped (confidence 2) [AADBDDE9] (AR v2)
Track 11 accurately ripped (confidence 2) [34F77F42] (AR v2)

All tracks accurately ripped

End of status report

==== Log checksum E71CB286F8B9A17AE1AFFCDC4920FE633A57039AF879968FAC062FF61A5DF941 ====


Exact Audio Copy V1.5 from 20. February 2020

EAC extraction logfile from 10. November 2021, 23:01

The Cleveland Orchestra, George Szell / George Szell and the Cleveland Orchestra - The Forgotten Recordings - CD2

Used drive : ASUS SDRW-08U7M-U Adapter: 1 ID: 0

Read mode : Secure
Utilize accurate stream : Yes
Defeat audio cache : Yes
Make use of C2 pointers : No

Read offset correction : 6
Overread into Lead-In and Lead-Out : No
Fill up missing offset samples with silence : Yes
Delete leading and trailing silent blocks : No
Null samples used in CRC calculations : Yes
Used interface : Native Win32 interface for Win NT & 2000

Used output format : User Defined Encoder
Selected bitrate : 128 kBit/s
Quality : High
Add ID3 tag : No
Command line compressor : C:\Program Files (x86)\Exact Audio Copy\Flac\flac.exe
Additional command line options : -V -8 -T "Date=%year%" -T "Genre=%genre%" %source%


TOC of the extracted CD

Track | Start | Length | Start sector | End sector
––––––––––––––––––––––––––––-
1 | 0:00.00 | 10:25.61 | 0 | 46935
2 | 10:25.61 | 2:00.43 | 46936 | 55978
3 | 12:26.29 | 1:19.25 | 55979 | 61928
4 | 13:45.54 | 0:59.42 | 61929 | 66395
5 | 14:45.21 | 1:44.29 | 66396 | 74224
6 | 16:29.50 | 2:04.70 | 74225 | 83594
7 | 18:34.45 | 0:57.49 | 83595 | 87918
8 | 19:32.19 | 1:15.10 | 87919 | 93553
9 | 20:47.29 | 2:40.52 | 93554 | 105605
10 | 23:28.06 | 0:54.48 | 105606 | 109703
11 | 24:22.54 | 3:34.08 | 109704 | 125761
12 | 27:56.62 | 8:48.41 | 125762 | 165402
13 | 36:45.28 | 4:09.37 | 165403 | 184114
14 | 40:54.65 | 5:01.06 | 184115 | 206695
15 | 45:55.71 | 7:38.44 | 206696 | 241089
16 | 53:34.40 | 2:52.68 | 241090 | 254057
17 | 56:27.33 | 0:14.13 | 254058 | 255120
18 | 56:41.46 | 1:14.72 | 255121 | 260742
19 | 57:56.43 | 4:33.20 | 260743 | 281237
20 | 62:29.63 | 4:13.34 | 281238 | 300246
21 | 66:43.22 | 3:28.36 | 300247 | 315882
22 | 70:11.58 | 2:59.29 | 315883 | 329336


Range status and errors

Selected range

Filename C:\temp\George Szell & the Cleveland Orchestra - The Forgotten Recordings - 2021\CD2\George Szell and the Cleveland Orchestra - The Forgotten Recordings - CD2.wav

Peak level 100.0 %
Extraction speed 5.1 X
Range quality 100.0 %
Test CRC 53F18324
Copy CRC 53F18324
Copy OK

No errors occurred


AccurateRip summary

Track 1 accurately ripped (confidence 1) [21979C29] (AR v2)
Track 2 accurately ripped (confidence 1) [B8F747F9] (AR v2)
Track 3 accurately ripped (confidence 1) [AE743D00] (AR v2)
Track 4 accurately ripped (confidence 1) [A56E8E15] (AR v2)
Track 5 accurately ripped (confidence 1) [AB66B222] (AR v2)
Track 6 accurately ripped (confidence 1) [90B8DB3D] (AR v2)
Track 7 accurately ripped (confidence 1) [6033B5F2] (AR v2)
Track 8 accurately ripped (confidence 1) [E7260A8B] (AR v2)
Track 9 accurately ripped (confidence 1) [0433A489] (AR v2)
Track 10 accurately ripped (confidence 1) [34B602A0] (AR v2)
Track 11 accurately ripped (confidence 1) [65F0B254] (AR v2)
Track 12 accurately ripped (confidence 2) [D59B57C6] (AR v2)
Track 13 accurately ripped (confidence 2) [B90EBDB4] (AR v2)
Track 14 accurately ripped (confidence 2) [B867AAE4] (AR v2)
Track 15 accurately ripped (confidence 2) [ED6B0BC2] (AR v2)
Track 16 accurately ripped (confidence 2) [CBAF5678] (AR v2)
Track 17 accurately ripped (confidence 2) [CE2248B9] (AR v2)
Track 18 accurately ripped (confidence 2) [4A1D290E] (AR v2)
Track 19 accurately ripped (confidence 2) [7118E809] (AR v2)
Track 20 accurately ripped (confidence 2) [BF9A7457] (AR v2)
Track 21 accurately ripped (confidence 2) [16231758] (AR v2)
Track 22 accurately ripped (confidence 2) [D438C218] (AR v2)

All tracks accurately ripped

End of status report

==== Log checksum 20E452E0FF6035B9521E18282A335B73F7A78CEA00833F5541392113110504C1 ====

George Szell and the Cleveland Orchestra - The Forgotten Recordings (2021)

Thanks to the original releaser