Subcategories
Tags
Language
Tags

Gil Evans - The Individualism of Gil Evans (1964) [Japanese Edition 2003]

Posted By: gribovar
Gil Evans - The Individualism of Gil Evans (1964) [Japanese Edition 2003]

Gil Evans - The Individualism of Gil Evans (1964) [Japanese Edition 2003]
EAC Rip | APE (image+.cue+log) - 401 MB | MP3 CBR 320 kbps (LAME 3.93) - 175 MB | Covers (13 MB) included
Genre: Jazz, Post-Bop, Progressive Jazz | RAR 3% Rec. | Label: Universal Music (UCCU-5146)

Although Gil Evans had gained a lot of acclaim for his three collaborations with Miles Davis in the 1950s and his own albums, this CD contains (with the exception of two tracks purposely left off), Evans's only dates as a leader during 1961-68. The personnel varies on the six sessions that comprise the CD (which adds five numbers including two previously unreleased to the original Lp) with such major soloists featured as tenorman Wayne Shorter, trombonist Jimmy Cleveland, trumpeter Johnny Coles and guitarist Kenny Burrell. Highlights include "Time of the Barracudas," "The Barbara Song," "Las Vegas Tango" and "Spoonful." Highly recommended to Gil Evans fans; it is a pity he did not record more during this era.
Tracklist:
01. Time of the Barracudas (Bonus track)
02. The Barbara Song
03. Las Vegas Tango
04. Flute Song
05. El Toreador
06. Proclamation (Bonus track)
07. Nothing Like You (Bonus track)
08. Concorde (Bonus track)
09. Spoonful (Bonus track)

Total time: 01:08:37

EAC extraction logfile from 30. August 2006, 22:57 for CD
Gil Evans / The Individualism Of Gil Evans

Used drive : HL-DT-STDVDRAM GSA-4120B Adapter: 0 ID: 3
Read mode : Secure with NO C2, accurate stream, disable cache
Read offset correction : 667
Overread into Lead-In and Lead-Out : No

Used output format : Monkey's Audio Lossless Encoder v3.99 DLL
High Lossless Compression

Other options :
Fill up missing offset samples with silence : Yes
Delete leading and trailing silent blocks : No
Installed external ASPI interface


Range status and errors
Selected range
Filename D:\_rips\EAC\Gil Evans - The Individualism Of Gil Evans.ape

Peak level 99.8 %
Range quality 100.0 %
CRC 1F94FFD3
Copy OK

No errors occured

End of status report

[CUETools log; Date: 14.01.2021 3:02:07; Version: 2.1.4]
[CTDB TOCID: FC2oiA.ylOaGvz7CCgEW7A4jk4I-] found.
Track | CTDB Status
1 | (39/39) Accurately ripped
2 | (39/39) Accurately ripped
3 | (39/39) Accurately ripped
4 | (39/39) Accurately ripped
5 | (39/39) Accurately ripped
6 | (39/39) Accurately ripped
7 | (39/39) Accurately ripped
8 | (39/39) Accurately ripped
9 | (39/39) Accurately ripped
[AccurateRip ID: 00176f9a-00a8b552-69101409] found.
Track [ CRC | V2 ] Status
01 [794bea5b|bb11e85e] (03+09/12) Accurately ripped
02 [b254a402|e3bc580e] (03+09/12) Accurately ripped
03 [48e1c34a|4573ab62] (03+09/12) Accurately ripped
04 [91d8efef|76def5ea] (03+09/12) Accurately ripped
05 [e51cfaa0|d6599cc7] (03+09/12) Accurately ripped
06 [b007d12e|2772017f] (03+09/12) Accurately ripped
07 [f626d8d8|f1b8f3cd] (03+09/12) Accurately ripped
08 [5579fb98|5d0c7ffc] (03+09/12) Accurately ripped
09 [4a7ac2e9|97717e9e] (03+09/12) Accurately ripped

Track Peak [ CRC32 ] [W/O NULL] [ LOG ]
– 99,8 [1F94FFD3] [D65B40E8] CRC32
01 98,1 [54353D5C] [64269699]
02 66,6 [09A3C5DE] [80504B23]
03 92,0 [AA50D5E5] [E543A864]
04 99,8 [B5FF05F2] [08A12F47]
05 67,3 [76FD0ECD] [BBEC3416]
06 64,6 [F5079E04] [70E9E914]
07 95,5 [C14BBE38] [B16AB22F]
08 99,8 [9D1AAB8F] [0FEF2983]
09 82,8 [5EDD1AD4] [F18650A8]

Thanks to Ornette

See also:
The Gil Evans Orchestra - Out of the Cool (1961) [Reissue 2010]
Helen Merrill & Gil Evans - Collaboration (1988)