Subcategories

Kim Kashkashian, Dennis Russell Davies - Kancheli: Vom Winde Beweint; Schnittke: Konzert Fur Viola Und Orchester (1992) [Re-Up]

Posted By: Designol
Kim Kashkashian, Dennis Russell Davies - Kancheli: Vom Winde Beweint; Schnittke: Konzert Fur Viola Und Orchester (1992) [Re-Up]

Giya Kancheli: Vom Winde Beweint; Alfred Schnittke: Konzert Für Viola Und Orchester (1992)
Orchester der Beethovenhalle Bonn; Rundfunk-Sinfonieorchester Saarbrücken
Kim Kashkashian, viola; Dennis Russell Davies, conductor

EAC | FLAC | Image (Cue&Log) ~ 298 Mb | Mp3 (CBR320) ~ 200 Mb | Scans included
Classical, Contemporary | Label: ECM | # ECM New Series 1471, 437 199-2 | 01:07:28

This powerful record brings together two of the most seminal works for viola and orchestra of the twentieth century. Although these pieces are as different as they are similar, together they form a distinct balance of sentiment and execution.

Giya Kancheli: Vom Winde beweint (Mourned by the Wind)
Kancheli’s self-styled “liturgy” is an exercise in patience and surrender. Its opening slam of piano chords is a big bang in and of itself, and sets the stage for the soloist’s epic journey. Wilfred Mellers, in his liner notes, posits the viola’s emergence from such chaos as the “birth of consciousness.” And indeed, one can extrapolate from its startling abruptness the inklings of a life yet lived, fresh and devoid of self-awareness in the greater void of silence. The orchestra skirts the periphery, gradually uniting with the soloist. This contrast mimics the arbitrary stability of human values—at once sacred and mutable—so that moments of resolution always tread a downward slope. Luminous winds, a cosmic harpsichord, and trails of harmonics characterize the first movement. Brief horn blasts introduce the second, throughout which the viola wanders without fortitude into a minefield of piano and timpani, singing without carrying a tune. The harpsichord again works its galactic magic, feeding stardust into the viola’s arterial core. A passage of intense and sustained volume leads into an epic swan song. The third movement is brought forth on the strings of the harpsichord, the viola a mere flit of wings in the surrounding air. An oboe threads the hesitation like the beginning of an incomplete statement. The fourth movement is a violent implosion and balances out the first with its selfish gaze. As with seemingly every Kancheli composition, it ends as quietly as an evening breeze. One hears the rustling of leaves in the distance, only to find that it was a trick of the ears all along. Vom Winde beweint is rich with sharp dynamic peaks that are short-lived and sporadic, the hallmarks of an ode to process over progress.

Alfred Schnittke: Konzert für Viola und Orchester
For this monumental work, Schnittke has chosen to invert the standard concerto form, sandwiching an Allegro Molto between two Largos. The piece opens with a viola solo held aloft by shimmering orchestral waves. Every melodic line is like the root of an ever-growing tree of voices. In the second movement, the viola skips across a landscape of consonances and dissonances at the behest of a passively insistent harpsichord. Schnittke maintains the fascinating sense of rhythm and energy that distinguishes his faster turns, scratching at the surface of a larger unfathomable world. Harpsichord, flute, and viola congregate in a Mozartean danse macabre at the movement’s center. The strangely wooden pizzicato toward the end haunts as the piano jumps impatiently on its lower notes. The last movement gives the viola a demanding solo, which is eventually overtaken by horns and winds. A deep pause marks a change in intent. The harpsichord once again comes to the fore, the final cameo of a strong orchestral cast, before bowing to a beautifully dissonant double stop from the viola.

Schnittke would suffer a stroke just ten days after completing the score for his concerto.* Said the composer: “Like a premonition of what was to come, the music took on the character of a restless chase through life (in the second movement) and that of a slow and sad overview of life on the threshold of death (in the third movement).” Such narrative approaches to one’s own work speak of a pragmatic mind that seeks order in the flow of a creative life. Yet rather than a premonition, I experience the concerto as an affirmation of what one already knows. If Kancheli’s is an unanswered question, Schnittke’s is an unquestioned answer.

This is a profoundly emotional album, by turns confrontational and mournfully resplendent. Kashkashian brings her usual heartrending strength to even the subtlest gestures and is never afraid to betray the fragility of her pitch. The orchestras, under the direction of Dennis Russell Davies, are forces to be reckoned with that scintillate in a slightly distanced mix. A benchmark recording in all respects.

Review by Tyran Grillo, ECMreviews.com

Kim Kashkashian, Dennis Russell Davies - Kancheli: Vom Winde Beweint; Schnittke: Konzert Fur Viola Und Orchester (1992) [Re-Up]



Kim Kashkashian, Dennis Russell Davies - Kancheli: Vom Winde Beweint; Schnittke: Konzert Fur Viola Und Orchester (1992) [Re-Up]



Kim Kashkashian, Dennis Russell Davies - Kancheli: Vom Winde Beweint; Schnittke: Konzert Fur Viola Und Orchester (1992) [Re-Up]



Kim Kashkashian, Dennis Russell Davies - Kancheli: Vom Winde Beweint; Schnittke: Konzert Fur Viola Und Orchester (1992) [Re-Up]



Performers:

Kim Kashkashian: viola
Dennis Russell Davies: conductor
Orchester der Beethovenhalle Bonn (1-4)
Rundfunk-Sinfonieorchester Saarbrücken (5-7)


Tracklist:

Giya Kancheli (b. 1935)
"Vom Winde beweint", Liturgie für großes Orchester und Solo-Viola,
Giwi Ordschonikidze gewidmet (1990):
01. I. Largo molto (09:45)
02. II. Allegro moderato (07:59)
03. III. Larghetto (08:08)
04. IV. Andante maestoso (12:27)
- Recorded November 1991, Beethovenhalle, Bonn (Kancheli)

Alfred Schnittke (1934-1998)
Konzert Für Viola Und Orchester (1985):
05. I. Largo (03:51)
06. II. Allegro molto (11:19)
07. III. Largo (13:55)
- Recorded May 1986, Saarländischer Rundfunk, Saarbrücken


Exact Audio Copy V1.0 beta 3 from 29. August 2011

Отчёт EAC об извлечении, выполненном 26. июля 2013, 8:48

Various Artists / Kancheli: Vom Winde beweint / Schnittke: Konzert für Viola und Orchester

Дисковод: HL-DT-STDVDRAM GT33N Adapter: 1 ID: 0

Режим чтения : Достоверность
Использование точного потока : Да
Отключение кэша аудио : Да
Использование указателей C2 : Нет

Коррекция смещения при чтении : 103
Способность читать области Lead-in и Lead-out : Нет
Заполнение пропущенных сэмплов тишиной : Да
Удаление блоков с тишиной в начале и конце : Нет
При вычислениях CRC использовались нулевые сэмплы : Да
Интерфейс : Встроенный Win32-интерфейс для Win NT/2000

Выходной формат : Пользовательский кодировщик
Выбранный битрейт : 1024 kBit/s
Качество : Высокий
Добавление ID3-тега : Да
Утилита сжатия : C:\Program Files (x86)\Exact Audio Copy\Flac\flac.exe
Дополнительные параметры : -8 -V -T "TITLE=%title%" -T "ARTIST=%artist%" -T "ALBUMARTIST=%albumartist%" -T "ALBUM=%albumtitle%" -T "DATE=%year%" -T "TRACKTOTAL=%numtracks%" -T "GENRE=%genre%" -T "COMMENT=%comment%" -T "PERFORMER=%albuminterpret%" -T "COMPOSER=%composer%" %source% -o %dest%


TOC извлечённого CD

Трек | Старт | Длительность | Начальный сектор | Конечный сектор
––––––––––––––––––––––––––––––––––-
1 | 0:00.33 | 9:45.52 | 33 | 43959
2 | 9:46.10 | 7:59.30 | 43960 | 79914
3 | 17:45.40 | 8:08.28 | 79915 | 116542
4 | 25:53.68 | 12:27.15 | 116543 | 172582
5 | 38:21.08 | 3:51.47 | 172583 | 189954
6 | 42:12.55 | 11:19.33 | 189955 | 240912
7 | 53:32.13 | 13:55.62 | 240913 | 303599


Характеристики диапазона извлечения и сообщения об ошибках

Выбранный диапазон

Имя файла O:\!Rips\Vom Winde beweint.wav

Пиковый уровень 100.0 %
Скорость извлечения 2.2 X
Качество диапазона 100.0 %
CRC теста 5A693D19
CRC копии 5A693D19
Копирование… OK

Ошибок не произошло


AccurateRip: сводка

Трек 1 : извлечено точно (доверие 7) [E626CFBE] (AR v2)
Трек 2 : извлечено точно (доверие 7) [AD27A13B] (AR v2)
Трек 3 : извлечено точно (доверие 7) [3EBFC1DE] (AR v2)
Трек 4 : извлечено точно (доверие 7) [3002B6F5] (AR v2)
Трек 5 : извлечено точно (доверие 7) [5D32B655] (AR v2)
Трек 6 : извлечено точно (доверие 7) [6A7BD08E] (AR v2)
Трек 7 : извлечено точно (доверие 6) [DCB77FFE] (AR v2)

Все треки извлечены точно

Конец отчёта

==== Контрольная сумма отчёта B899379F5696D76C24DF8B87FA03DE08093997ABEEADB4E127A7B53AF7E6472A ====

foobar2000 1.2 / Dynamic Range Meter 1.1.1
log date: 2015-09-28 20:57:48

––––––––––––––––––––––––––––––––––––––––
Analyzed: Альфред Гарриевич Шнитке / Kancheli: Vom Winde beweint / Schnittke: Konzert für Viola und Orchester
––––––––––––––––––––––––––––––––––––––––

DR Peak RMS Duration Track
––––––––––––––––––––––––––––––––––––––––
DR15 -1.33 dB -24.61 dB 3:52 05-Konzert für Viola und Orchester: I. Largo
DR15 -0.34 dB -21.06 dB 11:19 06-Konzert für Viola und Orchester: II. Allegro molto
DR17 -0.78 dB -24.14 dB 13:56 07-Konzert für Viola und Orchester: III. Largo
––––––––––––––––––––––––––––––––––––––––

Number of tracks: 3
Official DR value: DR15

Samplerate: 44100 Hz
Channels: 2
Bits per sample: 16
Bitrate: 522 kbps
Codec: FLAC
================================================================================

––––––––––––––––––––––––––––––––––––––––
Analyzed: Гия Канчели / Kancheli: Vom Winde beweint / Schnittke: Konzert für Viola und Orchester
––––––––––––––––––––––––––––––––––––––––

DR Peak RMS Duration Track
––––––––––––––––––––––––––––––––––––––––
DR16 -0.27 dB -28.64 dB 9:46 01-Vom Winde beweint: I. Largo molto
DR16 0.00 dB -23.12 dB 7:59 02-Vom Winde beweint: II. Allegro moderato
DR15 -2.91 dB -37.46 dB 8:08 03-Vom Winde beweint: III. Larghetto
DR17 -0.83 dB -25.10 dB 12:27 04-Vom Winde beweint: IV. Andante maestoso
––––––––––––––––––––––––––––––––––––––––

Number of tracks: 4
Official DR value: DR16

Samplerate: 44100 Hz
Channels: 2
Bits per sample: 16
Bitrate: 522 kbps
Codec: FLAC
================================================================================

Kim Kashkashian, Dennis Russell Davies - Kancheli: Vom Winde Beweint; Schnittke: Konzert Fur Viola Und Orchester (1992) [Re-Up]

Kim Kashkashian, Dennis Russell Davies - Kancheli: Vom Winde Beweint; Schnittke: Konzert Fur Viola Und Orchester (1992) [Re-Up]

All thanks to original releaser - jebiawio

More interesting music in My Blog